osu file format v14

[General]
AudioFilename: audio.mp3
AudioLeadIn: 0
PreviewTime: 60816
Countdown: 0
SampleSet: Soft
StackLeniency: 0.7
Mode: 0
LetterboxInBreaks: 0
WidescreenStoryboard: 1

[Editor]
Bookmarks: 355,9585,20662,28047,42816,87124
DistanceSpacing: 0.9
BeatDivisor: 4
GridSize: 32
TimelineZoom: 1.9

[Metadata]
Title:astral ability (Game Ver.)
TitleUnicode:astral ability (Game Ver.)
Artist:Hashimoto Miyuki, Sasaki Sayaka
ArtistUnicode:橋本みゆき、佐咲紗花
Creator:tomatas95
Version:Advanced
Source:リドルジョーカー
Tags:Riddle Joker ゆずソフト yuzusoft op カー オリジナル サウンドトラック saturnalize original opening vn mordred soundtrack 中山♥マミ nakayama mami famishin 井ノ原 智 inohara satoshi newton- asai yasuo video game eroge visual novel japanese pop j-pop jpop
BeatmapID:3223082
BeatmapSetID:1519872

[Difficulty]
HPDrainRate:3.5
CircleSize:3.3
OverallDifficulty:5
ApproachRate:6
SliderMultiplier:1.4
SliderTickRate:1

[Events]
//Background and Video events
0,0,"AyaseNekonyaa.jpg",0,0
Video,0,"I Love Yuzusoft.mp4"
//Break Periods
//Storyboard Layer 0 (Background)
//Storyboard Layer 1 (Fail)
//Storyboard Layer 2 (Pass)
//Storyboard Layer 3 (Foreground)
//Storyboard Layer 4 (Overlay)
//Storyboard Sound Samples

[TimingPoints]
355,461.538461538462,4,2,53,25,1,0
355,-100,4,2,53,25,0,0
585,-100,4,2,1,35,0,0
1278,-100,4,2,53,35,0,0
1739,-100,4,2,1,35,0,0
2201,-100,4,2,52,50,0,0
2431,-100,4,2,53,50,0,0
2662,-100,4,2,52,50,0,0
2778,-100,4,2,53,50,0,0
3124,-100,4,2,52,50,0,0
4047,-100,4,2,53,50,0,0
4508,-100,4,2,52,50,0,0
4624,-100,4,2,53,50,0,0
4970,-100,4,2,52,50,0,0
5085,-100,4,2,53,50,0,0
5431,-100,4,2,52,50,0,0
5546,-100,4,2,53,50,0,0
5893,-100,4,2,52,50,0,0
6124,-100,4,2,53,50,0,0
6355,-100,4,2,52,50,0,0
6470,-100,4,2,53,50,0,0
6816,-100,4,2,52,50,0,0
6931,-100,4,2,53,50,0,0
7162,-100,4,2,52,50,0,0
7277,-100,4,2,53,50,0,0
7739,-100,4,2,53,70,0,0
7970,-100,4,2,53,65,0,0
8662,-100,4,2,53,70,0,0
8893,-100,4,2,53,65,0,0
9124,-100,4,2,53,70,0,0
9585,-100,4,2,53,65,0,0
9701,-100,4,2,53,35,0,0
10508,-100,4,2,53,55,0,0
10624,-100,4,2,53,35,0,0
11431,-100,4,2,53,55,0,0
11547,-100,4,2,53,35,0,0
12354,-100,4,2,53,55,0,0
12816,-100,4,2,53,50,0,0
13278,-125,4,2,53,65,0,0
13624,-125,4,2,53,55,0,0
14201,-125,4,2,53,65,0,0
14547,-125,4,2,53,55,0,0
15124,-125,4,2,53,65,0,0
15470,-125,4,2,53,55,0,0
17201,-125,4,2,53,75,0,0
18816,-125,4,2,53,65,0,0
19739,-125,4,2,53,75,0,0
20662,-100,4,2,53,75,0,0
27124,-100,4,2,53,60,0,0
28047,-111.111111111111,4,2,53,45,0,0
28278,-111.111111111111,4,2,53,55,0,0
35431,-111.111111111111,4,2,53,45,0,0
35662,-111.111111111111,4,2,53,55,0,0
40970,-111.111111111111,4,2,53,50,0,0
42816,-100,4,2,53,55,0,0
43047,-100,4,2,53,65,0,0
50201,-100,4,2,53,55,0,0
50431,-100,4,2,53,65,0,0
57585,-100,4,2,53,70,0,0
59431,-100,4,2,53,65,0,0
59778,-100,4,2,53,70,0,0
60124,-100,4,2,53,75,0,0
60470,-100,4,2,53,80,0,0
60816,-100,4,2,53,85,0,0
61047,-100,4,2,53,50,0,0
61278,-90.9090909090909,4,2,53,85,0,1
68201,-90.9090909090909,4,2,53,85,0,0
68662,-90.9090909090909,4,2,53,85,0,1
75585,-90.9090909090909,4,2,53,85,0,0
76047,-90.9090909090909,4,2,53,85,0,1
83662,-90.9090909090909,4,2,53,80,0,1
85508,-90.9090909090909,4,2,53,85,0,1
87124,-100,4,2,53,75,0,0
91508,-100,4,2,53,55,0,0
91739,-100,4,2,53,60,0,0
91970,-100,4,2,53,65,0,0
92201,-100,4,2,53,70,0,0
92431,-100,4,2,53,75,0,0
92662,-100,4,2,53,80,0,0
93124,-100,4,2,53,70,0,0
93585,-100,4,2,53,60,0,0
93816,-100,4,2,53,55,0,0
94508,-100,4,2,53,35,0,0
94739,-100,4,2,53,50,0,0
94970,-100,4,2,53,55,0,0
96585,-100,4,2,53,70,0,0
96931,-100,4,2,53,80,0,0
97162,-100,4,2,53,5,0,0
97278,-100,4,2,53,90,0,0
97739,-100,4,2,53,5,0,0

[Colours]
Combo1 : 231,131,196
Combo2 : 255,170,181
Combo3 : 253,240,149
Combo4 : 165,228,216
Combo5 : 145,108,213

[HitObjects]
256,192,355,12,6,7739,1:2:0:0:
35,36,9585,5,6,1:1:0:0:
313,12,10508,1,2,1:2:0:0:
337,290,11431,1,2,1:2:0:0:
59,314,12355,1,2,1:2:0:0:
228,189,13047,1,2,1:2:0:0:
228,189,13278,5,2,1:2:0:0:
407,55,14201,1,2,1:2:0:0:
430,225,14893,1,2,1:1:0:0:
430,225,15124,6,0,P|470:215|526:242,2,84,2|2|2,1:2|3:2|3:2,0:0:0:0:
468,293,16047,2,0,P|470:322|463:348,1,56,2|2,1:2|1:2,0:0:0:0:
391,379,16508,2,0,P|366:361|340:354,1,56,10|2,2:1|0:0,0:0:0:0:
363,278,16970,5,2,1:2:0:0:
304,225,17201,1,10,1:2:0:0:
304,225,17431,2,0,L|313:147,1,56,0|0,1:0|0:0,0:0:0:0:
312,90,17893,2,0,P|350:100|400:83,2,84,10|10|10,1:2|2:2|0:2,0:0:0:0:
267,25,18816,6,0,P|238:19|202:27,1,56,2|2,1:2|3:2,0:0:0:0:
151,73,19278,2,0,P|122:79|86:71,1,56,10|2,3:2|3:2,0:0:0:0:
22,46,19739,2,0,L|9:163,1,112,10|10,1:1|3:2,0:0:0:0:
24,239,20431,1,2,3:2:0:0:
24,239,20662,6,0,B|64:240|64:240|92:226|92:226|168:229,1,140,6|10,1:1|2:1,0:0:0:0:
241,196,21355,1,2,0:0:0:0:
241,196,21585,2,0,L|247:273,1,70,2|2,1:2|0:0,0:0:0:0:
330,261,22047,2,0,L|324:184,1,70,10|2,2:1|0:0,0:0:0:0:
335,107,22508,6,0,P|390:128|470:90,1,140,2|8,1:2|2:1,0:0:0:0:
498,180,23201,1,2,0:0:0:0:
498,180,23431,2,0,P|495:223|504:257,1,70,2|2,1:2|0:0,0:0:0:0:
473,328,23893,2,0,P|437:303|403:294,1,70,10|2,2:1|0:0,0:0:0:0:
350,352,24355,6,0,P|310:371|217:339,1,140,2|10,1:2|2:1,0:0:0:0:
148,311,25047,1,2,0:0:0:0:
148,311,25278,2,0,L|138:384,1,70,2|2,1:2|0:0,0:0:0:0:
54,380,25739,2,0,L|44:307,1,70,10|2,2:1|0:0,0:0:0:0:
19,229,26201,6,0,L|38:89,1,140,2|10,1:2|2:1,0:0:0:0:
54,11,26893,1,2,0:0:0:0:
54,11,27124,1,2,1:3:0:0:
356,6,28047,5,6,1:2:0:0:
386,89,28278,1,2,3:2:0:0:
386,89,28508,2,0,L|305:95,1,62.9999980773926,10|2,0:2|3:2,0:0:0:0:
335,175,28970,2,0,L|416:169,1,62.9999980773926,2|2,1:2|3:2,0:0:0:0:
478,156,29431,1,10,0:2:0:0:
504,317,29893,5,0,1:0:0:0:
439,366,30124,1,2,3:2:0:0:
439,366,30355,2,0,P|410:360|369:369,1,62.9999980773926,10|2,0:2|3:2,0:0:0:0:
296,379,30816,2,0,P|286:350|258:319,1,62.9999980773926,2|2,1:2|3:2,0:0:0:0:
320,263,31278,1,10,0:2:0:0:
313,99,31739,5,0,1:0:0:0:
250,55,31970,1,2,3:2:0:0:
250,55,32201,2,0,P|216:62|180:49,1,62.9999980773926,10|2,0:2|3:2,0:0:0:0:
115,18,32662,2,0,P|81:11|45:24,1,62.9999980773926,2|2,1:2|3:2,0:0:0:0:
26,95,33124,2,0,L|15:187,1,62.9999980773926,10|2,0:2|3:2,0:0:0:0:
26,239,33585,6,0,P|77:224|146:258,2,125.999996154785,0|10|2,1:0|0:2|1:2,0:0:0:0:
79,308,34739,1,2,3:2:0:0:
79,308,34970,1,10,0:2:0:0:
230,370,35431,5,6,1:2:0:0:
278,303,35662,1,2,3:2:0:0:
278,303,35893,2,0,P|312:298|350:312,1,62.9999980773926,10|2,0:2|3:2,0:0:0:0:
396,365,36355,2,0,P|430:369|468:356,1,62.9999980773926,2|2,1:2|3:2,0:0:0:0:
504,294,36816,1,10,0:2:0:0:
504,130,37278,5,0,1:0:0:0:
443,83,37508,1,2,3:2:0:0:
443,83,37739,2,0,L|451:14,1,62.9999980773926,10|2,0:2|3:2,0:0:0:0:
368,9,38201,2,0,L|360:78,1,62.9999980773926,2|2,1:2|3:2,0:0:0:0:
352,153,38662,1,10,0:2:0:0:
229,262,39124,5,2,1:2:0:0:
151,287,39355,1,2,3:2:0:0:
151,287,39585,2,0,P|148:257|162:211,1,62.9999980773926,10|2,0:2|3:2,0:0:0:0:
123,148,40047,2,0,P|98:165|51:176,1,62.9999980773926,2|2,1:2|3:2,0:0:0:0:
16,241,40508,2,0,P|43:253|76:288,1,62.9999980773926,10|2,0:2|3:2,0:0:0:0:
121,345,40970,5,2,1:2:0:0:
121,345,41201,2,0,B|186:360|222:293|222:293|260:253|337:268|342:359|280:382,1,314.999990386963,2|10,0:3|2:1,0:0:0:0:
474,361,42816,6,0,B|479:262|479:262|443:203,1,140,6|10,1:1|2:1,0:0:0:0:
387,259,43508,2,0,P|382:207|469:149,1,140,2|2,3:2|3:2,0:0:0:0:
487,88,44201,1,10,2:1:0:0:
487,88,44431,1,2,3:2:0:0:
424,33,44662,2,0,L|352:26,1,70,2|2,1:2|3:2,0:0:0:0:
277,31,45124,6,0,P|212:13|138:32,2,140,10|2|10,2:1|1:2|2:1,0:0:0:0:
300,109,46278,1,2,3:2:0:0:
300,109,46508,6,0,L|289:254,1,140,2|10,1:2|2:1,0:0:0:0:
319,319,47201,2,0,P|262:294|177:317,1,140,2|2,3:2|3:2,0:0:0:0:
125,352,47893,1,10,2:1:0:0:
125,352,48124,1,2,3:2:0:0:
49,313,48355,6,0,P|54:251|34:155,2,140,2|10|2,1:2|2:1|1:2,0:0:0:0:
125,352,49508,1,10,2:2:0:0:
125,352,49739,2,0,P|161:361|206:339,1,70,10|2,2:1|3:2,0:0:0:0:
158,281,50201,6,0,B|151:234|151:234|160:192|160:192|156:129,1,140,6|10,1:2|2:1,0:0:0:0:
78,131,50893,1,2,3:2:0:0:
78,131,51124,2,0,L|-6:125,1,70,2|2,1:2|3:2,0:0:0:0:
4,41,51585,2,0,L|88:35,1,70,10|2,2:1|3:2,0:0:0:0:
156,21,52047,6,0,P|228:11|299:29,2,140,2|10|2,1:2|2:1|1:2,0:0:0:0:
73,36,53201,1,10,0:2:0:0:
89,118,53431,2,0,P|123:113|167:129,1,70,10|2,2:1|3:2,0:0:0:0:
205,191,53893,6,0,P|260:211|341:173,1,140,2|10,1:2|2:1,0:0:0:0:
411,148,54585,1,2,3:2:0:0:
411,148,54816,2,0,L|420:220,1,70,2|2,1:2|3:2,0:0:0:0:
497,196,55278,2,0,L|488:124,1,70,10|2,2:1|3:2,0:0:0:0:
464,45,55739,6,0,P|404:62|314:24,1,140,2|10,1:2|2:1,0:0:0:0:
249,28,56431,2,0,P|189:11|99:49,1,140,2|10,3:2|2:2,0:0:0:0:
48,70,57124,2,0,L|39:160,1,70,10|2,2:1|3:2,0:0:0:0:
19,213,57585,5,6,1:2:0:0:
88,257,57816,1,2,3:2:0:0:
88,257,58047,2,0,P|153:283|218:239,1,140,10|0,2:1|1:2,0:0:0:0:
149,203,58739,1,0,3:0:0:0:
149,203,58970,2,0,L|158:113,1,70,10|0,2:1|3:0,0:0:0:0:
150,56,59431,6,0,B|96:65|96:65|44:47,2,105,14|14|14,1:3|1:3|1:3,0:0:0:0:
259,19,60470,2,0,B|310:9|310:9|383:32,1,105,14|14,1:3|1:3,0:0:0:0:
492,131,61278,6,0,B|451:114|421:142|421:142|381:112|326:132,1,154.000004699707,6|10,1:1|2:1,0:0:0:0:
266,133,61970,1,2,3:2:0:0:
266,133,62201,2,0,L|258:212,1,77.0000023498536,2|2,1:2|3:2,0:0:0:0:
222,286,62662,1,10,2:1:0:0:
274,352,62893,6,0,P|334:340|444:369,1,154.000004699707,2|2,3:2|3:2,0:0:0:0:
495,312,63585,2,0,P|475:288|459:234,1,77.0000023498536,10|2,2:1|3:2,0:0:0:0:
502,171,64047,2,0,L|484:13,1,154.000004699707,2|10,1:2|2:1,0:0:0:0:
403,24,64739,1,2,3:2:0:0:
403,24,64970,6,0,L|385:182,1,154.000004699707,2|10,1:2|2:1,0:0:0:0:
380,261,65662,1,2,3:2:0:0:
319,320,65893,2,0,P|280:313|240:321,1,77.0000023498536,2|2,1:2|3:2,0:0:0:0:
166,349,66355,1,10,2:1:0:0:
166,349,66585,6,0,L|176:195,1,154.000004699707,2|2,3:2|3:2,0:0:0:0:
182,107,67278,2,0,P|221:116|270:102,1,77.0000023498536,10|2,2:1|3:2,0:0:0:0:
261,24,67739,2,0,P|221:30|175:17,1,77.0000023498536,2|0,1:2|3:0,0:0:0:0:
101,8,68201,1,10,2:1:0:0:
30,54,68431,1,2,3:2:0:0:
62,132,68662,6,0,B|51:174|51:174|55:213|55:213|39:283,1,154.000004699707,4|10,1:1|2:1,0:0:0:0:
44,370,69355,1,2,3:2:0:0:
44,370,69585,2,0,P|82:378|129:366,1,77.0000023498536,2|2,1:2|3:2,0:0:0:0:
195,334,70047,1,10,2:1:0:0:
158,257,70278,6,0,L|176:81,1,154.000004699707,2|2,3:2|3:2,0:0:0:0:
183,19,70970,2,0,P|222:14|266:25,1,77.0000023498536,10|2,2:1|3:2,0:0:0:0:
325,74,71431,2,0,P|364:79|408:68,1,77.0000023498536,2|0,1:2|3:0,0:0:0:0:
475,30,71893,2,0,L|482:123,1,77.0000023498536,10|2,2:1|3:2,0:0:0:0:
481,191,72355,6,0,B|410:168|410:168|318:187,1,154.000004699707,2|10,1:2|2:1,0:0:0:0:
271,242,73047,1,2,3:2:0:0:
271,242,73278,2,0,P|267:289|274:329,1,77.0000023498536,2|2,1:2|3:2,0:0:0:0:
344,371,73739,1,10,2:1:0:0:
344,371,73970,6,0,L|498:354,1,154.000004699707,2|2,3:2|3:2,0:0:0:0:
500,269,74662,2,0,L|423:260,1,77.0000023498536,10|2,2:1|3:2,0:0:0:0:
388,182,75124,2,0,L|311:173,1,77.0000023498536,2|0,1:2|3:0,0:0:0:0:
249,118,75585,1,10,2:1:0:0:
166,137,75816,1,2,3:2:0:0:
189,218,76047,6,0,B|176:335|176:335|139:349,1,154.000004699707,4|10,1:1|2:1,0:0:0:0:
60,370,76739,1,2,3:2:0:0:
24,292,76970,2,0,P|28:254|17:202,1,77.0000023498536,2|2,1:2|3:2,0:0:0:0:
10,131,77431,1,10,2:1:0:0:
50,56,77662,6,0,L|217:46,1,154.000004699707,2|2,3:2|3:2,0:0:0:0:
282,14,78355,2,0,P|286:60|272:104,1,77.0000023498536,10|2,2:1|3:2,0:0:0:0:
211,141,78816,2,0,P|250:166|348:138,1,154.000004699707,2|10,1:2|2:1,0:0:0:0:
375,58,79508,1,2,3:2:0:0:
453,25,79739,6,0,L|472:190,1,154.000004699707,2|10,1:2|2:1,0:0:0:0:
498,258,80431,1,2,3:2:0:0:
464,336,80662,2,0,P|418:317|317:337,1,154.000004699707,2|10,1:2|2:1,0:0:0:0:
238,365,81355,1,2,3:2:0:0:
193,293,81585,6,0,L|213:122,1,154.000004699707,6|10,1:2|2:1,0:0:0:0:
219,58,82278,1,2,3:2:0:0:
219,58,82508,2,0,P|177:60|133:48,1,77.0000023498536,2|2,1:2|3:2,0:0:0:0:
71,6,82970,1,10,2:1:0:0:
9,64,83201,1,2,3:2:0:0:
39,148,83431,5,6,1:1:0:0:
38,148,83662,2,0,L|19:266,2,115.50000352478,10|10|10,1:2|2:2|1:2,0:0:0:0:
162,173,84701,2,0,L|143:291,1,115.50000352478,10|10,1:2|0:2,0:0:0:0:
129,370,85278,5,2,1:2:0:0:
217,380,85508,1,2,3:2:0:0:
217,380,85739,2,0,L|230:299,1,77.0000023498536,10|2,2:1|3:2,0:0:0:0:
255,223,86201,2,0,B|307:243|307:243|369:219,2,115.50000352478,10|10|2,1:1|1:1|3:2,0:0:0:0:
307,159,87124,6,0,B|304:112|304:112|310:86|310:86|302:8,1,140,14|10,1:1|2:1,0:0:0:0:
383,12,87816,1,2,0:0:0:0:
383,12,88047,2,0,P|427:17|466:7,1,70,2|0,1:2|0:0,0:0:0:0:
507,66,88508,2,0,P|480:101|469:140,1,70,10|2,2:1|0:0,0:0:0:0:
506,195,88970,6,0,P|455:202|395:123,1,140,2|10,1:2|2:1,0:0:0:0:
336,95,89662,1,2,0:0:0:0:
336,95,89893,2,0,L|241:85,1,70,2|2,1:2|3:2,0:0:0:0:
204,41,90355,2,0,L|109:31,1,70,10|2,2:1|0:0,0:0:0:0:
57,26,90816,6,0,P|62:71|55:169,1,140,2|10,1:2|2:1,0:0:0:0:
19,233,91508,1,2,0:3:0:0:
42,306,91739,2,0,P|82:300|114:313,1,70,2|2,1:3|0:3,0:0:0:0:
171,355,92201,2,0,P|211:361|243:348,1,70,10|2,1:3|0:3,0:0:0:0:
202,282,92662,6,0,L|212:127,1,140,14|10,1:2|2:2,0:0:0:0:
209,64,93355,1,2,0:3:0:0:
209,64,93585,1,2,1:2:0:0:
511,11,94508,5,6,1:2:0:0:
503,98,94739,1,2,3:2:0:0:
503,98,94970,2,0,P|466:88|427:97,1,70,10|0,2:1|3:0,0:0:0:0:
464,172,95431,2,0,L|455:257,1,70,2|2,1:2|3:2,0:0:0:0:
453,322,95893,1,10,2:1:0:0:
453,322,96124,1,2,3:2:0:0:
303,359,96585,6,0,B|262:352|262:352|237:363|237:363|195:350,2,105,6|6|6,1:2|1:2|1:1,0:0:0:0:
