osu file format v14

[General]
AudioFilename: audio.mp3
AudioLeadIn: 0
PreviewTime: 60816
Countdown: 0
SampleSet: Soft
StackLeniency: 0.7
Mode: 0
LetterboxInBreaks: 0
WidescreenStoryboard: 0

[Editor]
DistanceSpacing: 0.5
BeatDivisor: 4
GridSize: 8
TimelineZoom: 1.3

[Metadata]
Title:astral ability (Game Size)
TitleUnicode:astral ability (Game Size)
Artist:Hashimoto Miyuki, Sasaki Sayaka
ArtistUnicode:橋本みゆき、佐咲紗花
Creator:Hidden me
Version:Easy
Source:RIDDLE JOKER
Tags:ゆずソフト yuzusoft yuzu soft リドルジョーカー オリジナル サウンドトラック original soundtrack 中山♥マミ nakayama mami famishin 井ノ原 智 inohara satoshi asai yasuo 84461810 video game eroge visual novel japanese
BeatmapID:1772743
BeatmapSetID:847695

[Difficulty]
HPDrainRate:2
CircleSize:3
OverallDifficulty:2
ApproachRate:3
SliderMultiplier:0.9
SliderTickRate:1

[Events]
//Background and Video events
0,0,"bg.jpg",0,0
//Break Periods
2,2401,8145
2,24555,26607
2,91016,93068
//Storyboard Layer 0 (Background)
//Storyboard Layer 1 (Fail)
//Storyboard Layer 2 (Pass)
//Storyboard Layer 3 (Foreground)
//Storyboard Sound Samples

[TimingPoints]
355,461.538461538462,4,2,1,80,1,0
10508,-100,4,2,1,70,0,0
16970,-100,4,2,1,100,0,0
28047,-100,4,2,1,60,0,0
42816,-100,4,2,1,80,0,0
61278,-100,4,2,1,100,0,1
87124,-100,4,2,1,100,0,0
94508,-100,4,2,1,60,0,0
96585,-100,4,2,1,80,0,0

[Colours]
Combo1 : 231,131,196
Combo2 : 255,170,181
Combo3 : 253,240,149
Combo4 : 165,228,216
Combo5 : 145,108,213

[HitObjects]
256,192,355,12,0,2201,0:0:0:0:
456,308,9585,5,6,0:0:0:0:
279,342,10508,1,2,0:0:0:0:
245,165,11431,1,2,0:0:0:0:
422,131,12355,1,2,0:0:0:0:
456,308,13278,6,0,L|273:344,2,180,2|2|2,0:0|0:0|0:0,0:0:0:0:
47,277,16970,6,0,P|157:280|202:222,1,180,6|8,0:0|0:0,0:0:0:0:
246,155,18355,1,2,0:0:0:0:
294,79,18816,2,0,L|384:50,1,90,8|2,0:0|0:0,0:0:0:0:
454,101,19739,2,0,L|483:191,1,90,8|2,0:0|0:0,0:0:0:0:
452,271,20662,5,12,0:0:0:0:
256,192,20893,12,0,24355,0:0:0:0:
471,350,28047,6,0,P|405:292|408:202,1,180,4|2,0:0|0:0,0:0:0:0:
450,126,29431,1,8,0:0:0:0:
393,55,29893,2,0,B|304:36|304:36|213:63,1,180,0|2,0:0|0:0,0:0:0:0:
132,88,31278,1,8,0:0:0:0:
46,115,31739,6,0,B|68:171|124:177|124:177|120:258,1,180,0|2,0:0|0:0,0:0:0:0:
195,301,33124,1,8,0:0:0:0:
270,348,33585,2,0,P|283:305|274:261,1,90,0|8,0:0|0:0,0:0:0:0:
267,171,34508,1,2,0:0:0:0:
339,117,34970,1,8,0:0:0:0:
414,67,35431,6,0,P|421:153|353:205,1,180,4|2,0:0|0:0,0:0:0:0:
267,171,36816,1,8,0:0:0:0:
252,81,37278,2,0,P|184:134|190:220,1,180,0|2,0:0|0:0,0:0:0:0:
249,288,38662,1,8,0:0:0:0:
311,352,39124,6,0,B|370:318|425:346|425:346|459:277,1,180,0|2,0:0|0:0,0:0:0:0:
489,210,40508,1,8,0:0:0:0:
428,143,40970,1,0,0:0:0:0:
428,143,42816,6,0,L|293:95,2,135,12|8|2,0:0|0:0|0:0,0:0:0:0:
489,210,44662,2,0,L|485:320,1,90,8|2,0:0|0:0,0:0:0:0:
409,347,45585,2,0,L|319:343,1,90,8|2,0:0|0:0,0:0:0:0:
229,339,46508,6,0,P|177:297|169:232,2,135,8|8|2,0:0|0:0|0:0,0:0:0:0:
258,253,48355,2,0,L|270:156,1,90,8|2,0:0|0:0,0:0:0:0:
353,194,49278,2,0,L|427:142,1,90,8|2,0:0|0:0,0:0:0:0:
397,57,50201,6,0,P|312:35|215:58,1,180,12|8,0:0|0:0,0:0:0:0:
146,101,51585,1,2,0:0:0:0:
71,151,52047,2,0,L|77:240,1,90,8|2,0:0|0:0,0:0:0:0:
141,303,52970,2,0,L|230:297,1,90,8|2,0:0|0:0,0:0:0:0:
305,347,53893,6,0,L|443:338,2,135,8|8|2,0:0|0:0|0:0,0:0:0:0:
230,296,55739,2,0,L|95:304,2,135,8|8|2,0:0|0:0|0:0,0:0:0:0:
313,262,57585,6,0,P|330:220|326:176,1,90,8|2,0:0|0:0,0:0:0:0:
254,121,58508,2,0,P|236:162|240:206,1,90,8|2,0:0|0:0,0:0:0:0:
230,296,59431,2,0,P|123:332|47:198,1,270,12|2,0:0|0:0,0:0:0:0:
43,128,61278,5,12,0:0:0:0:
130,108,61739,1,2,0:0:0:0:
216,87,62201,2,0,P|205:153|154:194,2,135,8|8|2,0:0|0:0|0:0,0:0:0:0:
304,66,64047,1,8,0:0:0:0:
363,133,64508,1,2,0:0:0:0:
417,203,64970,6,0,P|377:221|333:217,1,90,8|2,0:0|0:0,0:0:0:0:
275,286,65893,2,0,P|243:228|260:164,2,135,8|8|2,0:0|0:0|0:0,0:0:0:0:
344,343,67739,1,8,0:0:0:0:
422,299,68201,1,2,0:0:0:0:
499,254,68662,6,0,P|468:223|426:209,1,90,12|2,0:0|0:0,0:0:0:0:
348,162,69585,2,0,P|402:123|468:129,2,135,8|8|2,0:0|0:0|0:0,0:0:0:0:
289,229,71431,1,8,0:0:0:0:
352,292,71892,1,2,0:0:0:0:
282,349,72354,6,0,P|232:334|181:341,1,90,8|2,0:0|0:0,0:0:0:0:
105,351,73278,2,0,P|105:306|25:235,2,135,8|8|2,0:0|0:0|0:0,0:0:0:0:
194,336,75123,2,0,P|192:288|161:229,1,90,8|2,0:0|0:0,0:0:0:0:
237,183,76047,5,12,0:0:0:0:
317,223,76508,1,2,0:0:0:0:
397,262,76970,2,0,P|346:305|280:304,2,135,8|8|2,0:0|0:0|0:0,0:0:0:0:
455,194,78816,1,8,0:0:0:0:
402,120,79278,1,2,0:0:0:0:
313,133,79739,6,0,B|310:180|310:180|317:223,1,90,8|2,0:0|0:0,0:0:0:0:
280,304,80662,2,0,B|233:301|233:301|190:309,1,90,8|2,0:0|0:0,0:0:0:0:
113,354,81585,2,0,B|82:295|127:245|127:245|65:179,1,180,8|8,0:0|0:0,0:0:0:0:
23,133,82970,1,2,0:0:0:0:
67,54,83431,6,0,P|161:46|237:122,2,180,12|8|8,0:0|0:0|0:0,0:0:0:0:
23,133,85739,1,2,0:0:0:0:
84,199,86201,2,0,L|192:158,1,90,8|2,0:0|0:0,0:0:0:0:
252,134,87124,5,4,0:0:0:0:
256,192,87355,12,0,90816,0:0:0:0:
47,97,94508,6,0,L|168:82,1,90,0|2,0:0|0:0,0:0:0:0:
174,167,95431,2,0,L|295:182,1,90,0|2,0:0|0:0,0:0:0:0:
335,292,96585,6,0,P|367:337|459:334,1,135,8|6,0:0|0:0,0:0:0:0:
