osu file format v14

[General]
AudioFilename: Moment of Glory.mp3
AudioLeadIn: 0
PreviewTime: 68179
Countdown: 0
SampleSet: Normal
StackLeniency: 0.7
Mode: 1
LetterboxInBreaks: 0
WidescreenStoryboard: 0

[Editor]
Bookmarks: 76988
DistanceSpacing: 1
BeatDivisor: 4
GridSize: 8
TimelineZoom: 2.1

[Metadata]
Title:moment of glory
TitleUnicode:moment of glory
Artist:Hashimoto Miyuki
ArtistUnicode:橋本みゆき
Creator:DestinySonata
Version:Oni
Source:咲-Saki-阿知賀編 episode of side-A Portable
Tags:ZAQ achiga hen opening
BeatmapID:432805
BeatmapSetID:180068

[Difficulty]
HPDrainRate:5
CircleSize:5
OverallDifficulty:5
ApproachRate:5
SliderMultiplier:1.4
SliderTickRate:1

[Events]
//Background and Video events
0,0,"vlcsnap-2014-05-30-10h25m11s154.png",0,15
//Break Periods
//Storyboard Layer 0 (Background)
//Storyboard Layer 1 (Fail)
//Storyboard Layer 2 (Pass)
//Storyboard Layer 3 (Foreground)
//Storyboard Sound Samples

[TimingPoints]
415,352.941176470588,4,1,0,70,1,0
22303,-100,4,1,0,55,0,0
34297,-100,4,1,0,60,0,0
56356,-100,4,1,0,65,0,0
68179,-100,4,1,0,70,0,1
90767,-100,4,1,0,70,0,0

[HitObjects]
152,216,3238,5,4,0:0:0:0:
0,144,4120,1,0,0:0:0:0:
152,216,4650,1,6,0:0:0:0:
0,144,5532,1,0,0:0:0:0:
152,216,6062,1,6,0:0:0:0:
80,216,6238,1,0,0:0:0:0:
112,216,6326,1,0,0:0:0:0:
144,216,6414,1,2,0:0:0:0:
144,216,6591,1,0,0:0:0:0:
144,216,6767,1,2,0:0:0:0:
144,216,6944,1,0,0:0:0:0:
112,208,7032,1,0,0:0:0:0:
144,216,7120,1,2,0:0:0:0:
144,216,7473,1,2,0:0:0:0:
144,216,7650,1,0,0:0:0:0:
144,216,7826,1,2,0:0:0:0:
144,216,8003,1,0,0:0:0:0:
144,216,8179,1,2,0:0:0:0:
112,200,8267,1,2,0:0:0:0:
80,184,8356,1,0,0:0:0:0:
80,184,8532,1,0,0:0:0:0:
80,184,8709,1,2,0:0:0:0:
80,184,8797,1,2,0:0:0:0:
80,184,8885,1,2,0:0:0:0:
80,184,10297,5,6,0:0:0:0:
80,184,10473,1,0,0:0:0:0:
80,184,10650,1,0,0:0:0:0:
80,184,10826,1,2,0:0:0:0:
80,184,11003,1,0,0:0:0:0:
80,184,11091,1,0,0:0:0:0:
80,184,11179,1,0,0:0:0:0:
80,184,11356,1,2,0:0:0:0:
80,184,11532,1,2,0:0:0:0:
80,184,11620,1,2,0:0:0:0:
80,184,11709,1,0,0:0:0:0:
8,208,12062,1,2,0:0:0:0:
72,192,12238,1,0,0:0:0:0:
88,160,12326,1,0,0:0:0:0:
136,176,12414,1,0,0:0:0:0:
200,152,12591,1,0,0:0:0:0:
8,208,12767,1,2,0:0:0:0:
72,192,12944,1,0,0:0:0:0:
136,176,13120,1,0,0:0:0:0:
8,208,13473,1,2,0:0:0:0:
72,192,13650,1,0,0:0:0:0:
64,160,13738,1,0,0:0:0:0:
136,176,13826,1,0,0:0:0:0:
200,152,14003,1,0,0:0:0:0:
8,208,14179,1,2,0:0:0:0:
72,192,14356,1,0,0:0:0:0:
104,184,14444,1,0,0:0:0:0:
136,176,14532,1,2,0:0:0:0:
200,152,14709,1,0,0:0:0:0:
8,208,14885,1,2,0:0:0:0:
136,176,15238,1,2,0:0:0:0:
200,152,15414,1,0,0:0:0:0:
8,208,15591,1,2,0:0:0:0:
72,192,15767,1,0,0:0:0:0:
136,176,15944,1,0,0:0:0:0:
104,160,16032,1,0,0:0:0:0:
200,152,16120,1,0,0:0:0:0:
8,208,16297,1,2,0:0:0:0:
72,192,16473,1,0,0:0:0:0:
200,152,16826,1,0,0:0:0:0:
168,152,16914,1,0,0:0:0:0:
8,208,17003,1,2,0:0:0:0:
56,152,17179,1,0,0:0:0:0:
144,176,17356,1,4,0:0:0:0:
280,152,17709,1,4,0:0:0:0:
144,176,18062,1,4,0:0:0:0:
280,152,18414,1,4,0:0:0:0:
144,176,18767,1,2,0:0:0:0:
216,136,18944,1,0,0:0:0:0:
184,128,19032,1,0,0:0:0:0:
144,176,19120,1,2,0:0:0:0:
216,136,19297,1,0,0:0:0:0:
184,128,19385,1,0,0:0:0:0:
144,176,19473,1,2,0:0:0:0:
216,136,19650,1,0,0:0:0:0:
184,128,19738,1,0,0:0:0:0:
144,176,19826,1,2,0:0:0:0:
120,112,20003,1,2,0:0:0:0:
16,224,20179,1,4,0:0:0:0:
0,232,20532,1,4,0:0:0:0:
0,232,20885,1,4,0:0:0:0:
0,232,21238,1,4,0:0:0:0:
128,208,21591,1,0,0:0:0:0:
96,216,21679,1,0,0:0:0:0:
64,224,21767,1,0,0:0:0:0:
256,192,21856,1,0,0:0:0:0:
64,224,21944,1,2,0:0:0:0:
120,184,22120,1,0,0:0:0:0:
120,184,22473,1,0,0:0:0:0:
120,184,22650,1,2,0:0:0:0:
120,184,23003,1,0,0:0:0:0:
0,192,23356,1,2,0:0:0:0:
0,248,23709,1,0,0:0:0:0:
0,248,23885,1,0,0:0:0:0:
80,144,24062,1,2,0:0:0:0:
120,8,24414,1,0,0:0:0:0:
64,48,24591,1,2,0:0:0:0:
40,80,24679,1,2,0:0:0:0:
80,144,24767,1,2,0:0:0:0:
96,80,24944,1,0,0:0:0:0:
96,80,25297,1,0,0:0:0:0:
96,80,25473,1,2,0:0:0:0:
256,192,25650,1,2,0:0:0:0:
96,80,25826,1,0,0:0:0:0:
64,144,26003,1,0,0:0:0:0:
48,176,26091,1,0,0:0:0:0:
32,208,26179,1,2,0:0:0:0:
208,288,26356,1,0,0:0:0:0:
256,200,26532,1,0,0:0:0:0:
248,224,26709,1,0,0:0:0:0:
200,176,26885,1,2,0:0:0:0:
96,88,27238,1,0,0:0:0:0:
200,176,27591,1,2,0:0:0:0:
144,128,27767,1,0,0:0:0:0:
248,224,28120,1,0,0:0:0:0:
200,176,28297,1,2,0:0:0:0:
256,200,28473,1,0,0:0:0:0:
96,88,28650,1,0,0:0:0:0:
152,136,29003,1,2,0:0:0:0:
152,136,29179,1,0,0:0:0:0:
152,136,29532,1,0,0:0:0:0:
96,88,29709,1,2,0:0:0:0:
152,136,30062,1,0,0:0:0:0:
152,136,30414,1,2,0:0:0:0:
152,136,30591,1,2,0:0:0:0:
120,192,30944,1,0,0:0:0:0:
48,184,31120,1,2,0:0:0:0:
72,56,31297,1,2,0:0:0:0:
256,192,31385,1,2,0:0:0:0:
256,192,31473,1,2,0:0:0:0:
256,200,31650,1,0,0:0:0:0:
96,120,31826,1,2,0:0:0:0:
256,192,32003,1,0,0:0:0:0:
96,120,32179,1,0,0:0:0:0:
96,120,32356,1,0,0:0:0:0:
96,120,32532,1,2,0:0:0:0:
256,192,32709,1,0,0:0:0:0:
96,120,32885,1,2,0:0:0:0:
96,120,33062,1,0,0:0:0:0:
96,120,33238,1,2,0:0:0:0:
64,256,33591,1,0,0:0:0:0:
80,184,33767,1,0,0:0:0:0:
80,184,33944,1,2,0:0:0:0:
80,184,34120,1,0,0:0:0:0:
80,184,34209,1,0,0:0:0:0:
80,184,34297,1,0,0:0:0:0:
0,192,34650,1,2,0:0:0:0:
0,248,35003,1,0,0:0:0:0:
0,248,35179,1,0,0:0:0:0:
80,144,35356,1,2,0:0:0:0:
120,8,35709,1,0,0:0:0:0:
192,128,36062,1,2,0:0:0:0:
96,80,36238,1,0,0:0:0:0:
256,200,36414,1,0,0:0:0:0:
96,80,36591,1,0,0:0:0:0:
96,80,36767,1,2,0:0:0:0:
32,112,36944,1,2,0:0:0:0:
96,80,37120,1,0,0:0:0:0:
216,160,37473,1,2,0:0:0:0:
296,272,37650,1,0,0:0:0:0:
248,224,38003,1,0,0:0:0:0:
200,176,38179,1,2,0:0:0:0:
96,88,38532,1,0,0:0:0:0:
200,176,38885,1,2,0:0:0:0:
64,184,39238,1,0,0:0:0:0:
248,224,39414,1,0,0:0:0:0:
200,176,39591,1,2,0:0:0:0:
64,184,39944,1,0,0:0:0:0:
0,184,40120,1,0,0:0:0:0:
0,184,40209,1,0,0:0:0:0:
0,184,40297,1,2,0:0:0:0:
0,184,40473,1,2,0:0:0:0:
0,184,41179,1,0,0:0:0:0:
0,184,41356,1,0,0:0:0:0:
0,184,41532,1,0,0:0:0:0:
0,184,41620,1,0,0:0:0:0:
0,184,41709,1,2,0:0:0:0:
0,184,41885,1,0,0:0:0:0:
248,312,42591,1,0,0:0:0:0:
216,296,42679,1,0,0:0:0:0:
184,280,42767,1,2,0:0:0:0:
120,248,43120,1,2,0:0:0:0:
256,200,43297,1,0,0:0:0:0:
312,336,43473,1,0,0:0:0:0:
184,280,43826,1,2,0:0:0:0:
248,304,44003,1,0,0:0:0:0:
136,152,44179,1,0,0:0:0:0:
104,144,44356,1,2,0:0:0:0:
104,144,44532,1,2,0:0:0:0:
112,88,44709,1,2,0:0:0:0:
112,88,44797,1,2,0:0:0:0:
112,88,44885,1,0,0:0:0:0:
112,88,45062,1,2,0:0:0:0:
112,88,45238,1,2,0:0:0:0:
112,88,45326,1,2,0:0:0:0:
112,88,45414,1,0,0:0:0:0:
112,88,45591,1,2,0:0:0:0:
112,88,45944,1,2,0:0:0:0:
112,88,46120,1,0,0:0:0:0:
112,88,46473,1,0,0:0:0:0:
112,88,46650,1,2,0:0:0:0:
112,88,47003,1,0,0:0:0:0:
112,88,47356,1,2,0:0:0:0:
112,88,47532,1,0,0:0:0:0:
112,88,47885,1,0,0:0:0:0:
112,88,48062,1,2,0:0:0:0:
112,88,48414,1,2,0:0:0:0:
112,88,48767,1,2,0:0:0:0:
112,88,48944,1,0,0:0:0:0:
112,88,49297,1,0,0:0:0:0:
112,88,49473,1,2,0:0:0:0:
112,88,49826,1,0,0:0:0:0:
112,88,50179,1,2,0:0:0:0:
112,88,50356,1,0,0:0:0:0:
112,88,50709,1,0,0:0:0:0:
112,88,50885,1,2,0:0:0:0:
56,136,51062,1,0,0:0:0:0:
112,88,51238,1,2,0:0:0:0:
112,88,51591,1,2,0:0:0:0:
112,88,51767,1,0,0:0:0:0:
112,88,52120,1,0,0:0:0:0:
112,88,52297,1,2,0:0:0:0:
112,88,52650,1,0,0:0:0:0:
112,88,53003,1,0,0:0:0:0:
112,88,53179,1,2,0:0:0:0:
112,88,53532,1,0,0:0:0:0:
112,88,53709,1,2,0:0:0:0:
128,224,54062,1,0,0:0:0:0:
128,224,54591,1,2,0:0:0:0:
112,88,54944,1,0,0:0:0:0:
48,216,55120,1,2,0:0:0:0:
112,88,55297,1,0,0:0:0:0:
256,200,55385,1,0,0:0:0:0:
256,200,55473,1,2,0:0:0:0:
256,200,55650,1,0,0:0:0:0:
128,224,55826,1,2,0:0:0:0:
256,200,56003,1,0,0:0:0:0:
192,96,56179,1,2,0:0:0:0:
48,216,56356,1,2,0:0:0:0:
64,184,56444,1,0,0:0:0:0:
80,152,56532,1,2,0:0:0:0:
256,200,56709,1,2,0:0:0:0:
0,152,56885,1,2,0:0:0:0:
8,208,57238,1,2,0:0:0:0:
72,192,57414,1,0,0:0:0:0:
88,160,57503,1,0,0:0:0:0:
136,176,57591,1,2,0:0:0:0:
200,152,57767,1,0,0:0:0:0:
8,208,57944,1,2,0:0:0:0:
72,192,58120,1,0,0:0:0:0:
200,152,58473,1,0,0:0:0:0:
8,208,58650,1,2,0:0:0:0:
72,192,58826,1,0,0:0:0:0:
56,160,58914,1,0,0:0:0:0:
136,176,59003,1,0,0:0:0:0:
200,152,59179,1,0,0:0:0:0:
8,208,59356,1,2,0:0:0:0:
72,192,59532,1,0,0:0:0:0:
104,184,59620,1,0,0:0:0:0:
136,176,59709,1,2,0:0:0:0:
200,152,59885,1,0,0:0:0:0:
8,208,60062,1,2,0:0:0:0:
256,192,60150,1,0,0:0:0:0:
72,192,60238,1,0,0:0:0:0:
136,176,60414,1,0,0:0:0:0:
200,152,60591,1,2,0:0:0:0:
8,208,60767,1,2,0:0:0:0:
72,192,60944,1,0,0:0:0:0:
136,176,61120,1,0,0:0:0:0:
8,208,61473,1,2,0:0:0:0:
72,192,61650,1,0,0:0:0:0:
136,176,61826,1,0,0:0:0:0:
200,152,62003,1,0,0:0:0:0:
168,152,62091,1,0,0:0:0:0:
8,208,62179,1,2,0:0:0:0:
56,264,62356,1,0,0:0:0:0:
152,368,62532,1,0,0:0:0:0:
8,208,62885,1,2,0:0:0:0:
72,192,63062,1,0,0:0:0:0:
88,160,63150,1,0,0:0:0:0:
136,176,63238,1,0,0:0:0:0:
200,152,63414,1,0,0:0:0:0:
8,208,63591,1,2,0:0:0:0:
72,192,63767,1,0,0:0:0:0:
136,176,63944,1,0,0:0:0:0:
8,208,64297,1,2,0:0:0:0:
72,192,64473,1,0,0:0:0:0:
56,160,64562,1,0,0:0:0:0:
136,176,64650,1,0,0:0:0:0:
200,152,64826,1,0,0:0:0:0:
8,208,65003,1,2,0:0:0:0:
72,192,65179,1,0,0:0:0:0:
104,184,65267,1,0,0:0:0:0:
136,176,65356,1,2,0:0:0:0:
200,152,65532,1,0,0:0:0:0:
8,208,65709,1,2,0:0:0:0:
72,192,65885,1,2,0:0:0:0:
200,152,66238,1,0,0:0:0:0:
8,208,66414,1,2,0:0:0:0:
72,192,66591,1,2,0:0:0:0:
104,160,66679,1,2,0:0:0:0:
136,176,66767,1,2,0:0:0:0:
256,192,66944,1,0,0:0:0:0:
256,192,67120,1,0,0:0:0:0:
256,192,67297,1,2,0:0:0:0:
136,176,67473,1,2,0:0:0:0:
256,192,67562,1,2,0:0:0:0:
200,152,67650,1,0,0:0:0:0:
184,120,67826,1,2,0:0:0:0:
200,88,68003,1,0,0:0:0:0:
200,88,68091,1,0,0:0:0:0:
8,208,68179,1,2,0:0:0:0:
8,208,68532,1,0,0:0:0:0:
72,192,68709,1,0,0:0:0:0:
88,160,68797,1,0,0:0:0:0:
136,176,68885,1,0,0:0:0:0:
200,152,69062,1,0,0:0:0:0:
8,208,69238,1,2,0:0:0:0:
72,192,69414,1,0,0:0:0:0:
104,192,69503,1,0,0:0:0:0:
136,176,69591,1,2,0:0:0:0:
8,208,69944,1,2,0:0:0:0:
72,192,70120,1,0,0:0:0:0:
56,160,70209,1,0,0:0:0:0:
136,176,70297,1,2,0:0:0:0:
200,152,70473,1,0,0:0:0:0:
8,208,70650,1,2,0:0:0:0:
72,192,70826,1,0,0:0:0:0:
104,184,70914,1,0,0:0:0:0:
136,176,71003,1,2,0:0:0:0:
8,208,71356,1,2,0:0:0:0:
72,192,71532,1,0,0:0:0:0:
88,160,71620,1,0,0:0:0:0:
136,176,71709,1,0,0:0:0:0:
200,152,71885,1,0,0:0:0:0:
8,208,72062,1,2,0:0:0:0:
72,192,72238,1,2,0:0:0:0:
16,152,72414,1,0,0:0:0:0:
256,192,72503,1,0,0:0:0:0:
256,192,72591,1,0,0:0:0:0:
256,192,72679,1,0,0:0:0:0:
8,208,72767,1,2,0:0:0:0:
72,192,72944,1,2,0:0:0:0:
56,160,73032,1,2,0:0:0:0:
136,176,73120,1,0,0:0:0:0:
200,152,73297,1,0,0:0:0:0:
8,208,73473,1,2,0:0:0:0:
72,192,73650,1,2,0:0:0:0:
104,184,73738,1,2,0:0:0:0:
136,176,73826,1,0,0:0:0:0:
256,192,74003,1,0,0:0:0:0:
8,208,74179,1,2,0:0:0:0:
72,192,74356,1,0,0:0:0:0:
136,176,74532,1,2,0:0:0:0:
8,208,74885,1,2,0:0:0:0:
72,192,75062,1,0,0:0:0:0:
136,176,75238,1,0,0:0:0:0:
104,160,75326,1,0,0:0:0:0:
200,152,75414,1,0,0:0:0:0:
8,208,75591,1,2,0:0:0:0:
72,192,75767,1,0,0:0:0:0:
200,152,76120,1,0,0:0:0:0:
8,208,76297,1,2,0:0:0:0:
72,176,76473,1,0,0:0:0:0:
104,160,76562,1,0,0:0:0:0:
136,144,76650,1,2,0:0:0:0:
256,192,76826,1,0,0:0:0:0:
8,208,77003,1,2,0:0:0:0:
72,192,77179,1,2,0:0:0:0:
136,176,77356,1,0,0:0:0:0:
88,160,77444,1,0,0:0:0:0:
200,152,77532,1,2,0:0:0:0:
8,208,77709,1,0,0:0:0:0:
72,192,77885,1,2,0:0:0:0:
200,152,78238,1,6,0:0:0:0:
8,208,78414,1,2,0:0:0:0:
136,176,78767,1,2,0:0:0:0:
8,208,79120,1,0,0:0:0:0:
72,192,79297,1,0,0:0:0:0:
104,184,79385,1,0,0:0:0:0:
136,176,79473,1,2,0:0:0:0:
80,136,79650,1,0,0:0:0:0:
8,208,79826,1,2,0:0:0:0:
72,192,80003,1,0,0:0:0:0:
88,160,80091,1,0,0:0:0:0:
136,176,80179,1,0,0:0:0:0:
200,152,80356,1,0,0:0:0:0:
8,208,80532,1,2,0:0:0:0:
0,176,80620,1,2,0:0:0:0:
72,192,80709,1,0,0:0:0:0:
136,176,80885,1,2,0:0:0:0:
8,208,81238,1,2,0:0:0:0:
264,192,81414,1,0,0:0:0:0:
136,176,81591,1,0,0:0:0:0:
264,192,81679,1,0,0:0:0:0:
200,152,81767,1,0,0:0:0:0:
8,208,81944,1,2,0:0:0:0:
72,192,82120,1,0,0:0:0:0:
104,184,82209,1,0,0:0:0:0:
136,176,82297,1,2,0:0:0:0:
8,208,82650,1,2,0:0:0:0:
72,192,82826,1,0,0:0:0:0:
64,160,82914,1,0,0:0:0:0:
136,176,83003,1,0,0:0:0:0:
200,152,83179,1,0,0:0:0:0:
8,208,83356,1,2,0:0:0:0:
72,192,83532,1,0,0:0:0:0:
136,176,83709,1,0,0:0:0:0:
264,192,83797,1,0,0:0:0:0:
200,152,83885,1,0,0:0:0:0:
264,192,83973,1,0,0:0:0:0:
8,208,84062,1,2,0:0:0:0:
72,192,84238,1,2,0:0:0:0:
256,192,84414,1,0,0:0:0:0:
200,152,84591,1,0,0:0:0:0:
256,192,84679,1,0,0:0:0:0:
8,208,84767,1,2,0:0:0:0:
24,136,84944,1,0,0:0:0:0:
56,272,85297,1,0,0:0:0:0:
8,208,85473,1,2,0:0:0:0:
72,192,85650,1,0,0:0:0:0:
88,160,85738,1,0,0:0:0:0:
136,176,85826,1,0,0:0:0:0:
200,152,86003,1,0,0:0:0:0:
8,208,86179,1,2,0:0:0:0:
72,192,86356,1,0,0:0:0:0:
136,176,86532,1,0,0:0:0:0:
8,208,86885,1,2,0:0:0:0:
72,192,87062,1,0,0:0:0:0:
56,160,87150,1,0,0:0:0:0:
136,176,87238,1,0,0:0:0:0:
200,152,87414,1,0,0:0:0:0:
8,208,87591,1,2,0:0:0:0:
72,192,87767,1,0,0:0:0:0:
200,152,88120,1,0,0:0:0:0:
8,208,88297,1,2,0:0:0:0:
72,192,88473,1,0,0:0:0:0:
136,176,88650,1,2,0:0:0:0:
8,208,89003,1,2,0:0:0:0:
72,192,89179,1,0,0:0:0:0:
136,176,89356,1,0,0:0:0:0:
72,152,89444,1,0,0:0:0:0:
72,152,89532,1,0,0:0:0:0:
48,128,89709,1,2,0:0:0:0:
72,192,89885,1,0,0:0:0:0:
16,112,89973,1,0,0:0:0:0:
136,176,90062,1,2,0:0:0:0:
256,192,90150,1,2,0:0:0:0:
200,152,90238,1,0,0:0:0:0:
8,208,90414,1,0,0:0:0:0:
56,160,90591,1,2,0:0:0:0:
80,136,90679,1,2,0:0:0:0:
144,176,90767,1,0,0:0:0:0:
56,160,91120,1,2,0:0:0:0:
56,160,91297,1,0,0:0:0:0:
56,160,91385,1,0,0:0:0:0:
56,160,91473,1,0,0:0:0:0:
56,160,91650,1,0,0:0:0:0:
56,160,91826,1,2,0:0:0:0:
56,160,92003,1,0,0:0:0:0:
56,160,92179,1,2,0:0:0:0:
56,160,92532,1,2,0:0:0:0:
96,104,92709,1,0,0:0:0:0:
136,48,92885,1,2,0:0:0:0:
192,8,93062,1,0,0:0:0:0:
136,48,93238,1,2,0:0:0:0:
96,160,93591,1,4,0:0:0:0:
160,176,93767,1,4,0:0:0:0:
296,208,94120,1,4,0:0:0:0:
368,224,94297,1,4,0:0:0:0:
232,200,94650,1,6,0:0:0:0:
304,216,94826,1,6,0:0:0:0:
