osu file format v14

[General]
AudioFilename: Moment of Glory.mp3
AudioLeadIn: 0
PreviewTime: 68179
Countdown: 0
SampleSet: Normal
StackLeniency: 0.7
Mode: 1
LetterboxInBreaks: 0
WidescreenStoryboard: 0

[Editor]
Bookmarks: 76988
DistanceSpacing: 1
BeatDivisor: 4
GridSize: 8
TimelineZoom: 1

[Metadata]
Title:moment of glory
TitleUnicode:moment of glory
Artist:Hashimoto Miyuki
ArtistUnicode:橋本みゆき
Creator:DestinySonata
Version:Kantan
Source:咲-Saki-阿知賀編 episode of side-A Portable
Tags:ZAQ achiga hen opening
BeatmapID:432806
BeatmapSetID:180068

[Difficulty]
HPDrainRate:7
CircleSize:5
OverallDifficulty:3
ApproachRate:5
SliderMultiplier:1.4
SliderTickRate:1

[Events]
//Background and Video events
0,0,"vlcsnap-2014-05-30-10h27m03s20.png",0,-130
//Break Periods
//Storyboard Layer 0 (Background)
//Storyboard Layer 1 (Fail)
//Storyboard Layer 2 (Pass)
//Storyboard Layer 3 (Foreground)
//Storyboard Sound Samples

[TimingPoints]
415,352.941176470588,4,1,0,70,1,0
22303,-100,4,1,0,55,0,0
34297,-100,4,1,0,60,0,0
56356,-100,4,1,0,65,0,0
68179,-100,4,1,0,70,0,1
90767,-100,4,1,0,70,0,0

[HitObjects]
152,216,3238,5,4,0:0:0:0:
152,216,4650,1,4,0:0:0:0:
152,216,6062,1,2,0:0:0:0:
224,104,6767,1,0,0:0:0:0:
144,216,7473,1,2,0:0:0:0:
16,152,7826,1,0,0:0:0:0:
136,152,8179,1,0,0:0:0:0:
80,184,8885,1,2,0:0:0:0:
80,184,10297,5,2,0:0:0:0:
208,184,11003,1,0,0:0:0:0:
80,184,11356,1,0,0:0:0:0:
80,184,11709,1,2,0:0:0:0:
136,176,12414,1,0,0:0:0:0:
8,208,12767,1,2,0:0:0:0:
40,88,13120,1,0,0:0:0:0:
200,152,14532,1,0,0:0:0:0:
136,176,15238,1,2,0:0:0:0:
104,216,15944,1,0,0:0:0:0:
8,208,16297,1,0,0:0:0:0:
200,224,16650,1,0,0:0:0:0:
72,240,17356,1,2,0:0:0:0:
280,152,17709,1,2,0:0:0:0:
144,176,18062,1,2,0:0:0:0:
72,240,18767,1,0,0:0:0:0:
144,176,19120,1,0,0:0:0:0:
144,176,19473,1,0,0:0:0:0:
72,240,20179,1,2,0:0:0:0:
0,232,20532,1,2,0:0:0:0:
0,232,20885,1,2,0:0:0:0:
64,224,21591,1,2,0:0:0:0:
120,184,23003,1,0,0:0:0:0:
0,192,23356,1,2,0:0:0:0:
0,248,23709,1,2,0:0:0:0:
120,8,24414,1,0,0:0:0:0:
80,144,24767,1,2,0:0:0:0:
96,80,25473,1,2,0:0:0:0:
96,80,25826,1,0,0:0:0:0:
184,288,26356,1,2,0:0:0:0:
200,176,26885,1,0,0:0:0:0:
96,88,27238,1,0,0:0:0:0:
248,224,27944,1,2,0:0:0:0:
200,176,28297,1,2,0:0:0:0:
64,200,28650,1,0,0:0:0:0:
152,136,29179,1,0,0:0:0:0:
152,136,30062,1,2,0:0:0:0:
120,192,30591,1,2,0:0:0:0:
96,120,31473,1,0,0:0:0:0:
96,120,31826,1,0,0:0:0:0:
96,120,32179,1,2,0:0:0:0:
96,120,32885,1,2,0:0:0:0:
80,184,33591,1,2,0:0:0:0:
80,184,34297,1,0,0:0:0:0:
0,192,34650,1,0,0:0:0:0:
0,248,35003,1,0,0:0:0:0:
120,8,35709,1,0,0:0:0:0:
96,80,36062,1,2,0:0:0:0:
96,80,36767,1,2,0:0:0:0:
96,80,37120,1,0,0:0:0:0:
296,272,38003,1,0,0:0:0:0:
248,224,38356,1,0,0:0:0:0:
64,184,39238,1,0,0:0:0:0:
200,176,39591,1,0,0:0:0:0:
64,184,39944,1,2,0:0:0:0:
24,168,40473,1,0,0:0:0:0:
120,120,41356,1,2,0:0:0:0:
0,184,41885,1,0,0:0:0:0:
184,280,42767,1,2,0:0:0:0:
120,248,43120,1,0,0:0:0:0:
312,336,43473,1,0,0:0:0:0:
136,152,44179,1,0,0:0:0:0:
112,88,44532,1,0,0:0:0:0:
112,88,45591,1,0,0:0:0:0:
112,88,45944,1,2,0:0:0:0:
32,200,46297,1,0,0:0:0:0:
0,256,46826,1,2,0:0:0:0:
112,88,47356,1,0,0:0:0:0:
112,88,47709,1,0,0:0:0:0:
112,88,48414,1,0,0:0:0:0:
112,88,48944,1,0,0:0:0:0:
112,88,49473,1,0,0:0:0:0:
112,88,49826,1,2,0:0:0:0:
0,256,50356,1,2,0:0:0:0:
112,88,50885,1,0,0:0:0:0:
112,88,51238,1,0,0:0:0:0:
0,128,51944,1,0,0:0:0:0:
0,128,52650,1,0,0:0:0:0:
112,88,53003,1,2,0:0:0:0:
112,88,53356,1,2,0:0:0:0:
128,224,54062,1,0,0:0:0:0:
112,88,55473,1,2,0:0:0:0:
0,152,56885,1,0,0:0:0:0:
8,208,57238,1,0,0:0:0:0:
72,192,58297,1,0,0:0:0:0:
136,176,58650,1,0,0:0:0:0:
8,208,59356,1,0,0:0:0:0:
136,176,59709,1,2,0:0:0:0:
136,176,60414,1,0,0:0:0:0:
136,176,61120,1,0,0:0:0:0:
200,152,61473,1,2,0:0:0:0:
136,176,61826,1,0,0:0:0:0:
48,152,62356,1,2,0:0:0:0:
200,152,63591,1,2,0:0:0:0:
200,152,63944,1,2,0:0:0:0:
8,208,64650,1,2,0:0:0:0:
136,176,65356,1,2,0:0:0:0:
8,208,65709,1,2,0:0:0:0:
104,160,66414,1,0,0:0:0:0:
0,144,66767,1,0,0:0:0:0:
136,176,67473,1,2,0:0:0:0:
184,120,67826,1,2,0:0:0:0:
8,208,68179,1,2,0:0:0:0:
8,208,69238,1,2,0:0:0:0:
72,192,69591,1,0,0:0:0:0:
8,208,69944,1,2,0:0:0:0:
8,208,70650,1,2,0:0:0:0:
136,176,71003,1,0,0:0:0:0:
8,208,71709,1,0,0:0:0:0:
0,184,72414,1,2,0:0:0:0:
120,120,72767,1,2,0:0:0:0:
240,56,73120,1,2,0:0:0:0:
8,208,73826,1,0,0:0:0:0:
136,176,74532,1,0,0:0:0:0:
136,176,75238,1,0,0:0:0:0:
8,208,75944,1,2,0:0:0:0:
8,208,76297,1,0,0:0:0:0:
136,144,76650,1,2,0:0:0:0:
48,176,77356,1,2,0:0:0:0:
24,72,77885,1,4,0:0:0:0:
8,208,78414,1,4,0:0:0:0:
8,208,79473,1,0,0:0:0:0:
8,208,80532,1,2,0:0:0:0:
136,176,80885,1,0,0:0:0:0:
8,208,81238,1,2,0:0:0:0:
8,208,81944,1,0,0:0:0:0:
136,176,82297,1,2,0:0:0:0:
8,208,83003,1,0,0:0:0:0:
8,208,83356,1,0,0:0:0:0:
136,176,83709,1,2,0:0:0:0:
8,208,84062,1,2,0:0:0:0:
200,152,84767,1,2,0:0:0:0:
56,272,85120,1,0,0:0:0:0:
72,192,85473,1,0,0:0:0:0:
8,208,86179,1,2,0:0:0:0:
136,176,86532,1,0,0:0:0:0:
72,192,87238,1,2,0:0:0:0:
8,208,88297,1,0,0:0:0:0:
8,208,89003,1,0,0:0:0:0:
72,192,89709,1,0,0:0:0:0:
136,176,90414,1,2,0:0:0:0:
56,160,91120,1,2,0:0:0:0:
56,160,91826,1,2,0:0:0:0:
56,160,92532,1,2,0:0:0:0:
136,48,93238,1,2,0:0:0:0:
96,160,93591,1,4,0:0:0:0:
368,224,94120,1,4,0:0:0:0:
304,216,94650,1,6,0:0:0:0:
