osu file format v14

[General]
AudioFilename: audio.mp3
AudioLeadIn: 0
PreviewTime: 43453
Countdown: 0
SampleSet: Soft
StackLeniency: 0.4
Mode: 0
LetterboxInBreaks: 0
WidescreenStoryboard: 0

[Editor]
Bookmarks: 5615,10668,20773,30878,35931,38457,43510,78878,83931,96563,99111,101479,106668,116773,124352,164773,169826,179931,189957,200141,202668,210247,212773,238036,243089,244194,248141,253194,258247,259984,260299,260615
DistanceSpacing: 0.8
BeatDivisor: 4
GridSize: 32
TimelineZoom: 2.1

[Metadata]
Title:i:\DRIVE
TitleUnicode:i:\DRIVE
Artist:Hashimoto Miyuki
ArtistUnicode:橋本みゆき
Creator:Cami
Version:Recollection
Source:リアライブ
Tags:realive purple software eroge opening visual novel idrive Yamaguchi Takuya Tako 山口卓也 たこ TAKU1175 jp japanese
BeatmapID:2146225
BeatmapSetID:1026260

[Difficulty]
HPDrainRate:5.5
CircleSize:4.2
OverallDifficulty:8
ApproachRate:8.8
SliderMultiplier:1.4
SliderTickRate:1

[Events]
//Background and Video events
0,0,"1184_sda01b.jpg",0,0
//Break Periods
2,10885,18857
2,79095,80594
//Storyboard Layer 0 (Background)
//Storyboard Layer 1 (Fail)
//Storyboard Layer 2 (Pass)
//Storyboard Layer 3 (Foreground)
//Storyboard Layer 4 (Overlay)
//Storyboard Sound Samples

[TimingPoints]
580,315.789473684211,4,2,1,30,1,0
3106,-166.666666666667,4,2,1,30,0,0
4843,-90.9090909090909,4,2,1,60,0,0
5632,-100,4,2,1,60,0,0
8158,-90.9090909090909,4,2,1,60,0,0
20790,-111.111111111111,4,2,1,50,0,0
30895,-125,4,2,1,45,0,0
34685,-90.9090909090908,4,2,1,60,0,0
35948,-100,4,2,1,55,0,0
38474,-100,4,2,1,50,0,0
43211,-76.9230769230769,4,2,1,50,0,0
43527,-90.9090909090909,4,2,1,70,0,1
52369,-83.3333333333333,4,2,1,70,0,1
53632,-90.9090909090909,4,2,1,60,0,0
61211,-83.3333333333333,4,2,1,60,0,0
63737,-90.9090909090909,4,2,1,70,0,1
72580,-83.3333333333333,4,2,1,70,0,1
73843,-90.9090909090909,4,2,1,60,0,0
74474,-100,4,2,1,60,0,0
78580,-100,4,2,1,50,0,0
78737,-100,4,2,1,45,0,0
78895,-100,4,2,1,50,0,0
81737,-133.333333333333,4,2,1,50,0,0
82685,-100,4,2,1,50,0,0
84737,-100,4,2,1,60,0,0
85053,-100,4,2,1,70,0,1
86790,-100,4,2,1,70,0,0
89001,-166.666666666667,4,2,1,30,0,0
93264,-90.9090909090909,4,2,1,60,0,0
94053,-100,4,2,1,60,0,0
96580,-90.9090909090909,4,2,1,60,0,0

[Colours]
Combo1 : 109,96,189
Combo2 : 169,151,131
Combo3 : 114,226,223
Combo4 : 223,163,96

[HitObjects]
51,316,580,5,2,0:0:0:0:
112,267,1843,1,2,0:0:0:0:
228,336,2474,1,2,0:0:0:0:
344,272,3106,6,0,P|313:264|298:262,1,41.9999987182618,2|0,0:0|0:0,0:0:0:0:
238,223,3422,2,0,P|207:231|192:233,1,41.9999987182618
102,152,4369,5,2,0:0:0:0:
245,28,4843,5,0,3:0:0:0:
245,28,4895,1,0,3:0:0:0:
245,28,4948,1,0,3:0:0:0:
245,28,5001,2,0,P|250:116|253:162,1,115.50000352478,6|4,1:2|0:3,0:0:0:0:
85,285,5474,5,4,0:3:0:0:
68,292,5553,1,4,0:3:0:0:
54,300,5632,2,0,B|107:308|107:308|129:331|129:331|196:342,1,140,6|0,1:2|3:0,0:0:0:0:
339,232,6264,1,0,3:0:0:0:
189,181,6422,1,0,1:0:0:0:
238,285,6580,1,0,3:0:0:0:
379,143,6737,6,0,L|397:301,1,140,6|8,1:2|0:3,0:0:0:0:
487,218,7211,2,0,L|498:147,1,70,0|0,3:0|0:0,0:0:0:0:
489,124,7448,1,0,0:0:0:0:
483,111,7527,1,0,1:0:0:0:
347,73,7764,1,0,1:0:0:0:
341,62,7843,2,0,L|231:78,1,105,0|0,3:0|1:0,0:0:0:0:
151,68,8158,6,0,P|172:124|178:151,1,77.0000023498536,6|0,1:2|0:0,0:0:0:0:
45,227,8474,2,0,L|60:151,1,77.0000023498536,0|0,3:0|0:0,0:0:0:0:
207,224,8790,1,0,3:0:0:0:
96,306,8948,1,4,0:3:0:0:
198,344,9106,1,0,3:0:0:0:
45,227,9264,6,0,P|122:209|212:187,1,154.000004699707,6|2,1:2|0:0,0:0:0:0:
194,191,9658,1,2,0:0:0:0:
194,191,9737,1,2,3:2:0:0:
40,141,9895,1,4,0:3:0:0:
16,301,10053,1,0,3:0:0:0:
171,115,10211,6,0,L|163:38,1,77.0000023498536,4|0,1:2|0:0,0:0:0:0:
313,133,10527,1,0,1:0:0:0:
313,133,10606,1,0,1:0:0:0:
313,133,10685,1,4,0:1:0:0:
166,141,19527,6,0,B|222:127|222:127|262:145|262:145|329:129,1,154.000004699707,6|0,1:2|3:0,0:0:0:0:
51,352,20001,2,0,P|32:266|10:184,1,154.000004699707,6|0,1:2|3:0,0:0:0:0:
270,260,20474,2,0,L|372:276,1,77.0000023498536,6|0,1:2|1:0,0:0:0:0:
411,232,20711,1,0,1:0:0:0:
399,221,20790,6,0,P|370:263|408:334,1,125.999996154785,4|2,1:2|1:2,0:0:0:0:
495,218,21422,2,0,P|488:177|485:143,1,62.9999980773926,2|0,3:2|0:0,0:0:0:0:
342,44,21737,1,2,1:2:0:0:
288,97,21895,2,0,B|353:78|339:132|417:113,1,125.999996154785,2|0,0:0|0:0,0:0:0:0:
512,82,22369,1,0,1:0:0:0:
485,155,22527,1,0,0:0:0:0:
423,39,22685,6,0,P|463:19|485:8,1,62.9999980773926,2|0,3:2|0:0,0:0:0:0:
333,194,23001,2,0,P|285:183|258:176,1,62.9999980773926,2|0,1:2|0:0,0:0:0:0:
147,96,23316,2,0,P|191:130|169:200,1,125.999996154785,2|2,3:2|1:2,0:0:0:0:
74,132,23790,5,2,0:0:0:0:
236,55,24106,1,2,0:0:0:0:
232,248,24422,2,0,P|225:297|222:333,1,62.9999980773926,2|0,0:0|3:0,0:0:0:0:
178,192,24737,1,2,0:0:0:0:
314,235,24895,2,0,B|385:250|354:204|447:231,1,125.999996154785,2|0,1:2|3:0,0:0:0:0:
436,228,25527,5,2,1:2:0:0:
333,162,25685,1,2,0:0:0:0:
223,310,25843,5,6,3:2:0:0:
320,331,26001,2,0,P|313:284|309:254,1,62.9999980773926,2|0,0:0|1:0,0:0:0:0:
170,123,26316,2,0,P|161:200|154:260,1,125.999996154785,2|2,0:0|3:2,0:0:0:0:
251,150,26790,1,0,1:0:0:0:
84,192,26948,1,2,0:0:0:0:
200,312,27106,6,0,B|269:290|245:351|341:326,1,125.999996154785,4|0,3:2|1:0,0:0:0:0:
398,216,27580,2,0,P|354:203|301:267,1,125.999996154785,2|0,0:0|3:0,0:0:0:0:
461,271,28053,1,2,1:2:0:0:
428,143,28211,1,2,0:0:0:0:
319,330,28369,5,4,1:2:0:0:
489,351,28527,1,8,1:3:0:0:
346,127,28685,1,4,1:3:0:0:
242,307,28843,1,4,1:3:0:0:
250,317,29158,5,0,3:0:0:0:
250,317,29237,1,0,3:0:0:0:
250,317,29316,1,4,1:2:0:0:
84,160,29474,1,8,0:3:0:0:
25,310,29632,1,8,1:3:0:0:
228,226,29790,1,4,1:3:0:0:
236,234,30106,5,0,3:0:0:0:
236,234,30185,1,0,3:0:0:0:
236,234,30264,1,2,0:0:0:0:
130,56,30422,5,0,1:0:0:0:
243,153,30580,1,8,0:3:0:0:
156,234,30737,1,4,0:3:0:0:
207,306,30895,6,0,P|280:313|329:322,1,112,4|2,3:1|3:2,0:0:0:0:
388,354,31369,1,0,0:0:0:0:
485,291,31527,2,0,P|500:252|441:193,1,112,2|2,3:2|3:2,0:0:0:0:
329,120,32001,6,0,P|325:167|320:200,1,56,2|0,0:0|3:0,0:0:0:0:
252,141,32316,1,2,0:0:0:0:
386,57,32474,2,0,P|451:50|500:44,1,112,2|2,3:2|3:2,0:0:0:0:
317,19,33106,2,0,P|276:13|253:11,1,56,2|0,1:2|0:0,0:0:0:0:
199,55,33422,1,2,3:3:0:0:
257,218,33580,5,2,0:0:0:0:
321,98,33737,1,2,3:2:0:0:
162,130,33895,1,2,0:0:0:0:
323,175,34053,5,2,3:2:0:0:
199,55,34211,1,2,0:0:0:0:
128,250,34369,2,0,P|137:312|139:352,1,84,2|0,3:2|0:0,0:0:0:0:
116,354,34685,6,0,B|205:317|173:385|276:349,1,154.000004699707,6|0,1:2|3:0,0:0:0:0:
424,168,35158,2,0,P|439:258|451:328,1,154.000004699707,6|0,1:2|3:0,0:0:0:0:
245,188,35632,2,0,P|253:133|256:103,1,77.0000023498536,6|0,1:2|1:0,0:0:0:0:
199,55,35869,1,0,1:0:0:0:
187,66,35948,6,0,P|171:189|165:230,1,140,4|2,1:0|3:2,0:0:0:0:
150,321,36422,1,2,0:0:0:0:
90,230,36580,1,2,3:2:0:0:
238,266,36737,2,0,P|292:254|330:247,1,70,2|0,0:0|1:2,0:0:0:0:
458,144,37053,6,0,B|371:111|399:169|308:140,1,140,2|2,0:0|0:0,0:0:0:0:
228,36,37527,2,0,P|237:100|240:127,1,70,2|0,1:2|0:0,0:0:0:0:
90,230,37843,5,2,3:2:0:0:
16,249,37948,1,0,1:0:0:0:
35,176,38053,1,0,1:0:0:0:
62,202,38158,5,2,3:2:0:0:
52,239,38263,1,8,0:3:0:0:
25,212,38368,1,4,0:3:0:0:
35,176,38474,6,0,B|114:151|83:215|191:190,1,140,6|2,3:2|0:0,0:0:0:0:
290,88,38948,1,2,3:2:0:0:
290,88,39001,1,0,3:0:0:0:
290,88,39053,1,0,3:0:0:0:
290,88,39106,2,0,P|284:167|280:239,1,140,4|2,1:2|0:0,0:0:0:0:
182,114,39580,1,2,0:0:0:0:
360,241,39895,5,4,1:2:0:0:
240,299,40053,1,2,0:0:0:0:
396,370,40211,1,0,3:0:0:0:
396,370,40290,1,0,3:0:0:0:
396,370,40369,2,0,P|410:306|418:279,1,70,4|2,1:2|0:0,0:0:0:0:
342,126,40685,1,2,1:2:0:0:
342,126,40764,1,0,1:0:0:0:
342,126,40843,1,4,0:3:0:0:
462,22,41001,5,2,3:2:0:0:
496,161,41632,1,2,0:0:0:0:
282,182,42106,5,0,3:0:0:0:
282,182,42185,1,0,3:0:0:0:
282,182,42264,1,2,1:2:0:0:
397,119,42422,1,8,0:3:0:0:
367,216,42580,1,4,0:3:0:0:
277,99,42737,1,2,3:0:0:0:
229,268,42895,5,6,1:2:0:0:
195,261,42973,1,8,0:3:0:0:
175,234,43052,1,4,0:3:0:0:
178,200,43131,1,4,0:3:0:0:
205,178,43211,2,0,P|194:290|192:331,1,136.499993751526,4|0,1:2|0:0,0:0:0:0:
136,366,43527,5,6,3:2:0:0:
287,219,43685,1,2,3:2:0:0:
58,145,43843,1,2,1:2:0:0:
192,314,44001,2,0,B|284:286|245:363|365:326,1,154.000004699707,2|0,0:0|3:2,0:0:0:0:
437,148,44474,1,2,1:2:0:0:
294,107,44632,6,0,P|304:202|313:282,1,154.000004699707,2|0,0:0|3:0,0:0:0:0:
218,182,45106,1,0,1:0:0:0:
371,75,45264,2,0,P|428:60|455:51,2,77.0000023498536,2|0|0,0:0|3:0|3:0,0:0:0:0:
171,16,45737,5,2,1:2:0:0:
81,173,45895,2,0,P|110:83|47:41,1,154.000004699707,2|0,0:0|3:0,0:0:0:0:
0,187,46369,1,2,1:2:0:0:
144,237,46527,2,0,P|222:226|314:216,1,154.000004699707,2|0,0:0|3:0,0:0:0:0:
145,131,47001,1,2,1:2:0:0:
69,284,47158,1,2,0:0:0:0:
296,217,47316,6,0,P|352:210|391:210,1,77.0000023498536,2|0,3:2|3:0,0:0:0:0:
152,313,47632,2,0,P|149:280|142:228,1,77.0000023498536,2|0,1:2|0:0,0:0:0:0:
322,47,47948,2,0,P|325:80|332:132,1,77.0000023498536,2|0,3:2|3:0,0:0:0:0:
66,190,48264,2,0,P|104:132|164:140,1,115.50000352478,2|0,1:2|0:0,0:0:0:0:
215,172,48580,5,6,3:2:0:0:
0,138,48737,1,2,3:2:0:0:
185,6,48895,1,2,1:2:0:0:
296,217,49053,2,0,P|220:226|144:237,1,154.000004699707,2|0,0:0|3:0,0:0:0:0:
250,101,49527,1,2,1:2:0:0:
408,184,49685,6,0,P|401:282|398:349,1,154.000004699707,2|0,0:0|3:0,0:0:0:0:
296,217,50158,1,0,1:0:0:0:
436,94,50316,1,2,3:2:0:0:
436,94,50395,1,0,3:0:0:0:
436,94,50474,2,0,P|474:95|512:98,1,77.0000023498536,4|0,1:2|0:0,0:0:0:0:
320,303,50790,6,0,P|281:301|243:298,1,77.0000023498536,6|0,1:2|0:0,0:0:0:0:
95,181,51106,2,0,P|152:211|133:296,1,154.000004699707,4|2,3:1|1:2,0:0:0:0:
16,169,51580,1,2,0:0:0:0:
182,126,51737,1,0,3:0:0:0:
86,72,51895,1,4,0:3:0:0:
46,242,52053,5,2,3:2:0:0:
194,204,52211,1,4,0:3:0:0:
380,333,52369,6,0,B|315:323|315:323|276:346|276:346|194:334,1,167.999994873047,6|0,1:2|3:0,0:0:0:0:
469,154,52843,2,0,P|479:258|486:329,1,167.999994873047,6|0,1:2|3:0,0:0:0:0:
255,151,53316,2,0,P|324:139|365:130,1,83.9999974365235,6|0,1:2|1:0,0:0:0:0:
337,136,53553,1,0,1:0:0:0:
337,136,53632,6,0,P|240:121|169:109,1,154.000004699707,4|2,3:1|1:2,0:0:0:0:
219,339,54264,2,0,P|228:278|233:242,1,77.0000023498536,2|0,3:2|3:0,0:0:0:0:
301,374,54580,1,2,1:2:0:0:
140,307,54737,6,0,P|123:197|114:132,1,154.000004699707,2|2,0:2|3:2,0:0:0:0:
230,262,55211,1,0,1:0:0:0:
53,218,55369,1,2,0:0:0:0:
185,111,55527,2,0,P|244:100|282:92,1,77.0000023498536,2|0,3:2|3:0,0:0:0:0:
432,285,55843,2,0,P|418:223|410:187,1,77.0000023498536,6|0,1:2|3:0,0:0:0:0:
326,26,56158,6,0,P|297:93|337:155,1,154.000004699707,4|2,3:2|1:2,0:0:0:0:
508,43,56790,2,0,P|462:40|412:33,1,77.0000023498536,2|0,3:2|3:0,0:0:0:0:
283,208,57106,1,2,1:2:0:0:
432,285,57264,6,0,P|437:181|439:140,1,115.50000352478,6|0,3:2|0:0,0:0:0:0:
440,141,57580,1,2,3:2:0:0:
512,280,57737,1,0,1:0:0:0:
358,191,57895,2,0,P|320:198|282:207,1,77.0000023498536,2|0,0:0|3:0,0:0:0:0:
163,144,58211,1,2,3:2:0:0:
285,21,58369,1,2,1:2:0:0:
285,21,58685,6,0,P|366:30|449:36,1,154.000004699707,4|2,3:2|1:2,0:0:0:0:
496,87,59158,1,0,0:0:0:0:
358,191,59316,2,0,P|343:129|335:103,1,77.0000023498536,2|0,3:2|3:0,0:0:0:0:
194,252,59632,2,0,P|209:314|217:340,1,77.0000023498536,2|0,1:2|0:0,0:0:0:0:
446,320,59948,6,0,P|403:272|306:306,1,154.000004699707,6|2,3:2|1:2,0:0:0:0:
357,358,60422,1,0,0:0:0:0:
495,242,60580,2,0,P|500:177|502:145,1,77.0000023498536,2|0,3:2|3:0,0:0:0:0:
236,55,60895,1,2,1:2:0:0:
236,55,61211,6,0,B|246:120|246:120|223:159|223:159|235:241,1,167.999994873047,6|0,1:2|3:0,0:0:0:0:
50,354,61685,2,0,P|178:335|225:329,1,167.999994873047,6|0,1:2|3:0,0:0:0:0:
293,352,62080,1,4,0:3:0:0:
315,361,62158,6,0,P|302:282|371:244,1,167.999994873047,6|0,1:2|3:0,0:0:0:0:
402,31,62632,2,0,P|274:50|227:56,1,167.999994873047,6|0,1:2|3:0,0:0:0:0:
112,257,63106,2,0,P|98:202|87:162,1,83.9999974365235,6|0,1:2|0:0,0:0:0:0:
339,232,63422,1,6,1:2:0:0:
313,255,63500,1,0,1:0:0:0:
279,259,63579,1,0,1:0:0:0:
248,244,63658,1,0,1:0:0:0:
231,214,63737,5,6,1:2:0:0:
418,110,63895,1,2,0:0:0:0:
374,315,64053,1,2,1:2:0:0:
281,152,64211,2,0,P|266:76|250:0,1,154.000004699707,2|0,0:0|3:0,0:0:0:0:
357,160,64685,1,2,1:2:0:0:
177,88,64843,6,0,B|71:72|124:123|24:110,1,154.000004699707,2|0,0:0|0:0,0:0:0:0:
156,7,65316,1,0,1:0:0:0:
281,152,65474,2,0,P|271:224|268:248,2,77.0000023498536,2|0|0,0:0|3:0|3:0,0:0:0:0:
15,340,65948,5,2,1:2:0:0:
168,354,66106,2,0,P|72:346|-5:337,1,154.000004699707,2|0,0:0|0:0,0:0:0:0:
197,194,66580,1,2,1:2:0:0:
29,110,66737,2,0,P|42:191|52:274,1,154.000004699707,2|0,0:0|3:0,0:0:0:0:
207,110,67211,2,0,P|199:60|195:27,1,77.0000023498536,0|0,1:0|0:0,0:0:0:0:
448,151,67527,6,0,B|364:138|409:182|303:169,1,115.50000352478,2|0,3:2|0:0,0:0:0:0:
320,191,67843,2,0,P|379:185|413:183,1,77.0000023498536,2|0,1:2|0:0,0:0:0:0:
220,357,68158,2,0,P|210:298|202:262,1,77.0000023498536,2|0,3:2|3:0,0:0:0:0:
48,117,68474,2,0,P|34:205|25:257,1,115.50000352478,2|0,1:2|0:0,0:0:0:0:
7,305,68790,5,6,3:2:0:0:
181,164,68948,1,2,0:0:0:0:
290,298,69106,1,2,1:2:0:0:
138,229,69264,2,0,P|129:145|119:65,1,154.000004699707,2|0,0:0|3:0,0:0:0:0:
29,231,69737,1,2,1:2:0:0:
210,280,69895,1,0,0:0:0:0:
238,277,69973,1,0,1:0:0:0:
267,273,70052,1,8,0:3:0:0:
296,270,70131,1,8,0:3:0:0:
324,267,70211,6,0,L|337:210,1,38.5000011749268,2|4,3:2|0:3,0:0:0:0:
230,59,70369,2,0,L|237:96,1,38.5000011749268,4|4,0:3|0:3,0:0:0:0:
401,305,70527,2,0,L|408:267,1,38.5000011749268,2|4,3:2|0:3,0:0:0:0:
161,126,70685,5,6,3:2:0:0:
492,251,71001,1,6,1:2:0:0:
387,38,71316,6,0,P|376:153|371:211,1,154.000004699707,6|2,3:2|1:2,0:0:0:0:
466,41,71790,1,2,3:2:0:0:
297,142,71948,1,0,3:0:0:0:
450,199,72106,1,8,0:3:0:0:
288,58,72264,5,2,3:2:0:0:
213,153,72422,1,2,3:2:0:0:
213,153,72501,1,0,3:0:0:0:
213,153,72580,6,0,P|279:143|318:140,1,83.9999974365235,6|0,1:2|0:0,0:0:0:0:
87,327,72895,2,0,P|21:317|-18:314,1,83.9999974365235,6|0,1:2|0:0,0:0:0:0:
104,68,73211,2,0,P|115:145|120:174,1,83.9999974365235,6|0,1:2|0:0,0:0:0:0:
276,316,73527,2,0,P|287:239|292:210,1,83.9999974365235,6|0,1:2|1:0,0:0:0:0:
346,185,73764,1,0,1:0:0:0:
359,194,73843,6,0,P|237:202|180:206,1,154.000004699707,6|2,3:2|1:2,0:0:0:0:
274,43,74474,2,0,P|282:98|288:141,1,70,2|0,3:2|3:0,0:0:0:0:
438,202,74790,1,2,1:2:0:0:
369,286,74948,6,0,P|276:280|216:277,1,140,6|0,3:2|3:0,0:0:0:0:
61,188,75422,2,0,P|69:253|71:278,1,70,2|0,1:2|3:0,0:0:0:0:
196,122,75737,2,0,P|190:87|186:52,1,70,2|0,0:2|3:0,0:0:0:0:
340,208,76053,1,2,1:2:0:0:
229,277,76211,1,0,3:0:0:0:
311,123,76369,6,0,B|395:97|362:158|460:134,1,140,6|2,3:2|1:2,0:0:0:0:
266,34,76843,1,6,3:2:0:0:
151,253,77158,1,6,3:2:0:0:
39,185,77474,6,0,P|145:171|169:168,1,105,6|0,1:2|0:0,0:0:0:0:
173,167,77790,1,2,3:2:0:0:
47,269,77948,1,2,1:2:0:0:
112,77,78106,1,2,3:2:0:0:
112,77,78185,2,0,P|198:88|240:92,1,105,0|0,1:0|3:0,0:0:0:0:
355,199,78580,1,8,0:3:0:0:
256,288,78737,1,4,0:3:0:0:
307,349,78895,5,4,3:1:0:0:
186,302,81264,5,4,0:3:0:0:
186,302,81343,1,4,0:3:0:0:
186,302,81422,2,0,P|175:226|167:180,1,105,6|0,3:2|0:0,0:0:0:0:
138,177,81737,2,0,P|170:170|196:163,1,52.5000020027161,2|0,1:2|0:0,0:0:0:0:
313,128,82053,2,0,P|281:121|255:114,1,52.5000020027161,2|0,0:0|0:0,0:0:0:0:
153,35,82369,2,0,L|145:95,1,52.5000020027161,2|0,0:0|0:0,0:0:0:0:
63,257,82685,6,0,P|72:299|82:351,1,70,0|0,1:0|0:0,0:0:0:0:
239,363,83001,2,0,P|245:328|253:294,1,70,0|0,1:0|0:0,0:0:0:0:
317,252,83237,1,0,1:0:0:0:
330,247,83316,1,2,3:2:0:0:
470,332,83474,2,0,P|457:329|416:322,1,35,0|0,3:0|1:0,0:0:0:0:
322,331,83632,5,2,0:0:0:0:
427,133,83790,1,4,0:3:0:0:
427,133,83869,1,4,0:3:0:0:
427,133,83948,2,0,P|444:211|453:256,1,105,6|0,3:2|0:0,0:0:0:0:
461,253,84264,1,2,3:2:0:0:
293,182,84422,5,2,0:0:0:0:
412,45,84580,1,0,1:0:0:0:
512,144,84737,1,0,1:0:0:0:
310,81,84895,1,0,1:0:0:0:
461,253,85053,5,6,1:2:0:0:
211,105,85369,5,6,1:2:0:0:
167,334,85527,1,0,1:0:0:0:
333,172,85843,5,6,1:2:0:0:
77,110,86001,1,0,1:0:0:0:
300,16,86316,5,6,1:2:0:0:
11,15,86632,5,6,1:2:0:0:
93,290,86790,1,0,1:0:0:0:
256,192,88053,12,4,89001,0:0:0:0:
363,335,90264,5,2,0:0:0:0:
202,278,90895,1,2,0:0:0:0:
138,333,91527,6,0,P|130:313|121:286,1,41.9999987182618,2|0,0:0|0:0,0:0:0:0:
69,238,91843,2,0,P|76:218|86:191,1,41.9999987182618
42,52,92790,5,2,0:0:0:0:
236,165,93264,5,0,3:0:0:0:
232,171,93316,1,0,3:0:0:0:
228,177,93369,1,0,3:0:0:0:
224,183,93422,2,0,P|284:169|342:156,1,115.50000352478,2|8,1:2|0:3,0:0:0:0:
477,292,93895,5,4,0:3:0:0:
487,304,93974,1,4,0:3:0:0:
497,316,94053,2,0,B|442:310|442:310|413:329|413:329|340:320,1,140,6|0,3:2|3:0,0:0:0:0:
178,260,94685,1,0,3:0:0:0:
292,359,94843,1,0,1:0:0:0:
327,246,95001,1,0,3:0:0:0:
152,336,95158,6,0,P|134:254|116:188,1,140,4|8,1:2|0:3,0:0:0:0:
242,110,95632,2,0,P|230:164|224:199,1,70,0|0,3:0|0:0,0:0:0:0:
237,210,95869,1,0,0:0:0:0:
253,218,95948,1,0,1:0:0:0:
398,129,96185,1,0,1:0:0:0:
412,138,96264,2,0,P|341:148|298:157,1,105,0|0,3:0|1:0,0:0:0:0:
253,218,96580,6,0,P|318:232|351:242,1,77.0000023498536,4|0,3:2|0:0,0:0:0:0:
140,119,96895,2,0,P|131:76|126:34,1,77.0000023498536,0|0,3:0|0:0,0:0:0:0:
242,110,97211,1,0,3:0:0:0:
117,226,97369,1,8,0:3:0:0:
222,292,97527,1,0,3:0:0:0:
285,39,97685,6,0,P|276:150|271:223,1,154.000004699707,6|2,1:2|0:0,0:0:0:0:
273,192,98080,1,2,0:0:0:0:
273,192,98158,1,2,3:2:0:0:
366,85,98316,1,8,0:3:0:0:
204,28,98474,1,0,3:0:0:0:
365,202,98632,5,4,3:2:0:0:
359,2,98790,1,0,1:0:0:0:
187,144,98948,1,0,1:0:0:0:
187,144,99027,1,0,1:0:0:0:
187,144,99106,1,4,1:0:0:0:
256,192,99185,12,4,100843,0:3:0:0:
146,160,101158,5,0,1:0:0:0:
391,97,101316,1,0,1:0:0:0:
259,348,101474,1,0,1:0:0:0:
