osu file format v14

[General]
AudioFilename: audio.mp3
AudioLeadIn: 0
PreviewTime: 43453
Countdown: 0
SampleSet: Soft
StackLeniency: 0.6
Mode: 0
LetterboxInBreaks: 0
WidescreenStoryboard: 1

[Editor]
Bookmarks: 5615,10668,20773,30878,35931,38457,43510,78878,83931,96563,99111,101479,106668,116773,124352,164773,169826,179931,189957,200141,202668,210247,212773,238036,243089,244194,248141,253194,258247,259984,260299,260615
DistanceSpacing: 1
BeatDivisor: 4
GridSize: 32
TimelineZoom: 2.1

[Metadata]
Title:i:\DRIVE
TitleUnicode:i:\DRIVE
Artist:Hashimoto Miyuki
ArtistUnicode:橋本みゆき
Creator:Cami
Version:Normal
Source:リアライブ
Tags:realive purple software eroge opening visual novel idrive Yamaguchi Takuya Tako 山口卓也 たこ TAKU1175 jp japanese
BeatmapID:2150029
BeatmapSetID:1026260

[Difficulty]
HPDrainRate:3
CircleSize:3.6
OverallDifficulty:4
ApproachRate:5
SliderMultiplier:1
SliderTickRate:1

[Events]
//Background and Video events
0,0,"1187_sdb01a.jpg",0,0
//Break Periods
2,10885,18327
2,79095,80222
2,89201,92064
//Storyboard Layer 0 (Background)
//Storyboard Layer 1 (Fail)
//Storyboard Layer 2 (Pass)
//Storyboard Layer 3 (Foreground)
//Storyboard Layer 4 (Overlay)
//Storyboard Sound Samples

[TimingPoints]
580,315.789473684211,4,2,1,30,1,0
3106,-100,4,2,1,30,0,0
4843,-100,4,2,1,60,0,0
8158,-100,4,2,1,60,0,0
20790,-100,4,2,1,50,0,0
30895,-100,4,2,1,45,0,0
34685,-100,4,2,1,60,0,0
35948,-100,4,2,1,55,0,0
38474,-100,4,2,1,50,0,0
43211,-100,4,2,1,50,0,0
43527,-100,4,2,1,70,0,1
52369,-100,4,2,1,70,0,1
53632,-100,4,2,1,60,0,0
61211,-100,4,2,1,60,0,0
63737,-100,4,2,1,70,0,1
72580,-100,4,2,1,70,0,1
73843,-100,4,2,1,60,0,0
74474,-100,4,2,1,60,0,0
78580,-100,4,2,1,50,0,0
78737,-100,4,2,1,45,0,0
78895,-100,4,2,1,50,0,0
81737,-100,4,2,1,50,0,0
82685,-100,4,2,1,50,0,0
84737,-100,4,2,1,60,0,0
85053,-100,4,2,1,70,0,1
86790,-100,4,2,1,70,0,0
89001,-100,4,2,1,30,0,0
93264,-100,4,2,1,60,0,0
96580,-100,4,2,1,60,0,0

[Colours]
Combo1 : 109,96,189
Combo2 : 169,151,131
Combo3 : 114,226,223
Combo4 : 223,163,96

[HitObjects]
82,123,4843,5,0,3:0:0:0:
82,123,5001,2,0,L|74:32,2,75,4|8|4,1:2|0:3|0:3,0:0:0:0:
118,156,5632,6,0,P|179:158|230:161,1,100,4|0,3:2|3:0,0:0:0:0:
282,237,6264,1,0,3:0:0:0:
282,237,6422,2,0,L|338:230,1,50,0|0,1:0|3:0,0:0:0:0:
363,192,6737,6,0,P|369:128|381:31,1,150,4|0,1:2|3:0,0:0:0:0:
281,66,7527,2,0,P|275:125|270:160,2,75,0|0|0,1:0|1:0|1:0,0:0:0:0:
246,29,8158,6,0,P|204:-3|152:14,1,100,4|0,3:2|3:0,0:0:0:0:
86,74,8790,2,0,L|30:79,2,50,0|8|0,3:0|0:3|3:0,0:0:0:0:
128,101,9264,6,0,P|120:147|113:211,1,100,4|0,1:2|0:0,0:0:0:0:
144,239,9737,1,2,3:2:0:0:
144,239,9895,1,8,0:3:0:0:
236,200,10211,2,0,P|302:192|344:187,1,100,6|0,1:2|1:0,0:0:0:0:
385,183,10685,1,4,3:1:0:0:
104,144,19527,6,0,P|157:138|223:128,1,100,6|0,1:2|3:0,0:0:0:0:
242,100,20001,2,0,P|274:134|258:195,1,100,6|0,1:2|3:0,0:0:0:0:
232,219,20474,2,0,L|244:275,1,50,6|0,1:2|1:0,0:0:0:0:
260,314,20790,5,4,3:2:0:0:
343,369,21106,2,0,P|350:316|359:256,1,100,2|2,1:2|3:2,0:0:0:0:
416,190,21737,1,2,1:2:0:0:
416,190,21895,2,0,P|366:179|295:165,1,100,2|0,0:0|0:0,0:0:0:0:
268,164,22369,1,0,1:0:0:0:
195,232,22685,5,2,3:2:0:0:
127,157,23001,1,2,1:2:0:0:
199,88,23316,2,0,P|252:75|310:66,1,100,2|0,3:2|1:0,0:0:0:0:
340,93,23790,1,2,0:0:0:0:
416,28,24106,1,2,0:0:0:0:
497,86,24422,6,0,P|491:128|485:200,1,100,2|2,0:0|0:0,0:0:0:0:
503,232,24895,2,0,P|452:263|408:246,1,100,2|0,1:2|3:0,0:0:0:0:
321,219,25527,2,0,P|318:243|312:282,1,50,2|2,1:2|0:0,0:0:0:0:
277,303,25843,5,6,3:2:0:0:
277,303,26001,1,2,0:0:0:0:
203,235,26316,2,0,P|150:230|91:225,1,100,2|2,0:0|3:2,0:0:0:0:
15,273,26948,1,2,0:0:0:0:
15,273,27106,6,0,P|11:232|3:166,1,100,4|0,3:2|1:0,0:0:0:0:
27,128,27580,2,0,P|71:104|126:133,1,100,2|0,0:0|3:0,0:0:0:0:
155,150,28053,1,2,1:2:0:0:
244,105,28369,6,0,L|304:98,1,50,8|8,3:3|3:3,0:0:0:0:
337,124,28685,2,0,L|397:117,1,50,4|4,1:3|1:3,0:0:0:0:
471,171,29158,1,0,3:0:0:0:
471,171,29316,6,0,L|453:241,1,50,8|8,1:3|1:3,0:0:0:0:
422,254,29632,2,0,P|446:260|469:269,1,50,4|4,1:3|1:3,0:0:0:0:
493,366,30106,1,0,3:0:0:0:
493,366,30264,6,0,L|437:377,1,50,2|0,0:3|1:0,0:0:0:0:
398,353,30580,1,8,0:3:0:0:
322,287,30895,5,4,3:1:0:0:
258,364,31211,2,0,P|200:366|152:372,1,100,2|2,3:2|3:2,0:0:0:0:
58,376,31843,1,2,3:2:0:0:
58,376,32001,2,0,P|67:318|72:272,1,100,2|0,0:0|0:0,0:0:0:0:
57,228,32474,1,2,3:2:0:0:
127,157,32790,5,2,3:2:0:0:
220,192,33106,2,0,P|212:124|210:82,1,100,2|2,1:2|3:0,0:0:0:0:
250,61,33580,2,0,P|255:38|261:9,2,50,2|2|2,0:0|3:2|0:0,0:0:0:0:
287,93,34053,1,2,3:2:0:0:
369,36,34369,1,2,3:2:0:0:
454,87,34685,6,0,P|448:133|444:206,1,100,6|0,1:2|3:0,0:0:0:0:
468,230,35158,2,0,P|405:221|348:218,1,100,6|0,1:2|3:0,0:0:0:0:
322,239,35632,1,6,1:2:0:0:
257,162,35948,5,4,3:1:0:0:
161,193,36264,2,0,P|151:168|139:139,2,50,2|2|2,3:2|0:0|3:2,0:0:0:0:
139,238,36737,1,2,0:0:0:0:
56,181,37053,2,0,P|65:121|73:65,1,100,2|2,0:0|0:0,0:0:0:0:
54,34,37527,1,2,3:2:0:0:
150,8,37843,1,2,3:2:0:0:
219,79,38158,1,2,3:2:0:0:
313,45,38474,6,0,L|335:201,1,150,6|0,3:2|3:0,0:0:0:0:
311,238,39106,2,0,P|359:215|448:278,1,150,6|2,1:2|0:0,0:0:0:0:
367,325,39895,1,4,1:2:0:0:
367,325,40053,1,2,0:0:0:0:
311,238,40369,6,0,L|256:244,1,50,4|2,1:2|0:0,0:0:0:0:
252,292,40685,2,0,P|258:323|261:353,1,50,2|4,1:2|0:3,0:0:0:0:
218,368,41001,5,2,1:2:0:0:
76,227,41632,1,2,0:0:0:0:
157,101,42106,1,0,3:0:0:0:
157,101,42264,2,0,P|230:83|262:73,1,100,6|0,1:2|0:3,0:0:0:0:
288,39,42737,1,4,0:3:0:0:
288,39,42895,2,0,P|295:95|303:156,1,100,6|4,1:2|1:2,0:0:0:0:
370,209,43527,6,0,P|412:216|435:219,2,50,6|0|0,3:2|3:2|1:0,0:0:0:0:
336,246,44001,1,2,0:0:0:0:
244,207,44316,2,0,P|222:205|182:200,1,50,2|2,3:2|1:2,0:0:0:0:
156,234,44632,2,0,P|181:181|118:107,1,150,2|0,0:0|1:0,0:0:0:0:
37,137,45422,1,0,3:0:0:0:
66,235,45737,5,2,1:2:0:0:
66,235,45895,2,0,P|59:292|54:355,1,100,2|0,0:0|3:0,0:0:0:0:
26,375,46369,1,2,1:2:0:0:
26,375,46527,1,2,0:0:0:0:
176,372,47001,2,0,P|208:363|235:360,1,50,2|2,1:2|0:0,0:0:0:0:
256,331,47316,5,2,3:2:0:0:
349,366,47632,1,2,1:2:0:0:
406,284,47948,2,0,P|393:205|389:166,1,100,2|2,3:2|1:2,0:0:0:0:
466,119,48580,6,0,P|470:93|473:62,1,50,6|2,3:2|3:2,0:0:0:0:
493,23,48895,1,2,1:2:0:0:
493,23,49053,2,0,P|435:31|375:39,1,100,2|2,0:0|3:2,0:0:0:0:
363,76,49527,5,2,1:2:0:0:
363,76,49685,2,0,P|315:30|225:60,1,150,2|0,0:0|1:0,0:0:0:0:
171,118,50474,1,2,1:2:0:0:
97,50,50790,2,0,P|72:47|38:44,1,50,6|0,1:2|0:0,0:0:0:0:
1,23,51106,6,0,L|18:135,1,100,4|2,3:2|1:2,0:0:0:0:
23,171,51580,1,2,0:0:0:0:
164,220,52053,2,0,P|170:190|175:166,1,50,2|2,3:2|3:2,0:0:0:0:
214,140,52369,6,0,P|271:134|314:127,1,100,6|0,1:2|3:0,0:0:0:0:
341,85,52843,2,0,P|373:56|437:81,1,100,6|0,1:2|3:0,0:0:0:0:
467,93,53316,1,6,1:2:0:0:
421,181,53632,5,4,3:2:0:0:
456,274,53948,2,0,P|380:263|342:261,1,100,2|2,1:2|3:2,0:0:0:0:
272,316,54580,1,2,1:2:0:0:
272,316,54737,2,0,L|246:210,1,100,2|2,0:0|3:2,0:0:0:0:
252,118,55369,1,2,0:0:0:0:
252,118,55527,2,0,P|202:136|157:152,1,100,2|4,3:2|1:2,0:0:0:0:
58,164,56158,5,4,3:2:0:0:
11,252,56474,2,0,P|2:296|45:350,1,100,2|2,1:2|3:2,0:0:0:0:
122,378,57106,1,2,1:2:0:0:
122,378,57264,2,0,P|183:366|241:356,1,100,6|2,3:2|3:2,0:0:0:0:
291,289,57895,1,2,0:0:0:0:
388,335,58211,1,2,0:0:0:0:
388,335,58369,2,0,P|396:284|409:220,1,100,2|4,1:2|3:2,0:0:0:0:
471,161,59001,5,2,1:2:0:0:
403,87,59316,2,0,P|319:95|293:96,1,100,2|2,3:2|1:2,0:0:0:0:
226,160,59948,5,4,3:2:0:0:
143,104,60264,1,2,1:2:0:0:
86,186,60580,1,0,3:2:0:0:
168,241,60895,1,2,1:2:0:0:
226,160,61211,6,0,P|280:147|327:177,1,100,6|0,1:2|3:0,0:0:0:0:
355,199,61685,2,0,P|360:135|364:92,1,100,6|0,1:2|3:0,0:0:0:0:
398,64,62158,1,6,1:2:0:0:
486,184,62632,2,0,P|494:244|502:290,1,100,6|0,1:2|3:0,0:0:0:0:
502,333,63106,1,6,1:2:0:0:
404,356,63422,1,6,1:2:0:0:
344,275,63737,6,0,P|351:244|357:216,2,50,6|2|2,3:2|0:0|1:2,0:0:0:0:
303,304,64211,1,2,0:0:0:0:
224,241,64527,2,0,P|220:216|218:182,1,50,2|2,3:2|1:2,0:0:0:0:
182,156,64843,2,0,P|296:164|347:165,1,150,2|0,0:0|1:0,0:0:0:0:
422,123,65632,1,0,3:0:0:0:
383,30,65948,5,2,1:2:0:0:
383,30,66106,1,2,0:0:0:0:
239,73,66580,1,2,1:2:0:0:
239,73,66737,2,0,P|194:69|125:61,1,100,2|0,0:0|3:0,0:0:0:0:
93,42,67211,1,0,1:0:0:0:
93,42,67369,6,0,P|100:65|118:150,1,100,2|0,0:0|0:0,0:0:0:0:
94,184,67843,1,2,1:2:0:0:
180,233,68158,1,2,3:2:0:0:
248,160,68474,1,2,1:2:0:0:
319,230,68790,6,0,P|313:256|310:288,1,50,6|2,3:2|0:0,0:0:0:0:
282,321,69106,1,2,1:2:0:0:
282,321,69264,2,0,P|332:316|392:312,1,100,2|2,0:2|3:2,0:2:0:0:
423,340,69737,1,0,1:0:0:0:
489,264,70053,2,0,L|477:160,1,100,2|2,3:2|3:2,0:0:0:0:
404,96,70685,5,6,3:2:0:0:
325,158,71001,1,6,3:2:0:0:
239,107,71316,6,0,P|186:105|133:101,1,100,6|2,3:2|1:2,0:0:0:0:
98,71,71790,1,2,3:2:0:0:
54,161,72106,1,8,0:3:0:0:
54,161,72264,2,0,P|61:195|66:231,1,50,2|2,3:2|3:2,0:0:0:0:
106,237,72580,5,6,1:2:0:0:
191,184,72895,1,6,1:2:0:0:
257,259,73211,1,6,1:2:0:0:
331,192,73527,2,0,P|360:185|389:180,1,50,6|0,1:2|1:0,0:0:0:0:
426,200,73843,5,4,3:2:0:0:
509,145,74158,1,2,1:2:0:0:
453,61,74474,2,0,P|386:52|339:43,1,100,2|2,3:2|1:2,0:0:0:0:
309,69,74948,2,0,P|259:60|210:54,1,100,6|0,3:2|3:0,0:0:0:0:
167,80,75422,5,2,1:2:0:0:
98,7,75737,1,2,0:0:0:0:
22,72,76053,1,2,1:2:0:0:
87,147,76369,6,0,P|80:198|77:259,1,100,6|0,3:2|1:0,0:0:0:0:
68,296,76843,1,6,3:2:0:0:
122,379,77158,1,6,3:2:0:0:
220,360,77474,2,0,P|280:344|340:332,1,100,6|0,1:2|3:0,0:0:0:0:
361,358,77948,1,2,1:2:0:0:
361,358,78106,2,0,P|365:293|370:248,1,100,2|0,3:2|3:0,0:0:0:0:
399,217,78580,2,0,P|425:209|458:200,2,50,8|4|4,0:3|0:3|3:1,0:0:0:0:
84,357,81422,5,4,3:2:0:0:
35,269,81737,2,0,P|35:190|37:149,2,100,0|2|2,1:0|0:0|0:0,0:0:0:0:
130,238,82685,5,0,1:0:0:0:
216,187,83001,1,0,1:0:0:0:
149,113,83316,1,0,1:0:0:0:
234,60,83632,2,0,P|270:48|299:39,1,50,2|4,1:2|0:3,0:0:0:0:
333,36,83948,6,0,P|325:87|323:144,1,100,6|2,1:2|1:2,0:0:0:0:
358,171,84422,1,2,0:0:0:0:
358,171,84580,2,0,P|391:164|414:163,2,50,0|0|0,1:2|1:0|1:0,0:0:0:0:
333,214,85053,5,6,1:2:0:0:
247,265,85369,2,0,P|241:241|233:212,1,50,6|0,1:2|1:0,0:0:0:0:
144,172,85843,2,0,P|150:147|156:123,1,50,6|0,1:2|1:0,0:0:0:0:
112,33,86316,1,6,1:2:0:0:
26,85,86632,1,6,1:2:0:0:
26,85,86790,1,0,1:0:0:0:
26,85,89001,5,4,3:1:0:0:
261,328,93264,5,0,3:0:0:0:
261,328,93422,2,0,P|254:287|245:242,2,75,4|8|4,1:2|0:3|0:3,0:0:0:0:
302,355,94053,6,0,P|359:342|408:333,1,100,6|0,3:2|3:0,0:0:0:0:
452,249,94685,1,0,3:0:0:0:
452,249,94843,2,0,L|460:184,1,50,0|0,1:0|3:0,0:0:0:0:
433,155,95158,6,0,P|386:162|268:178,1,150,6|0,1:2|3:0,0:0:0:0:
301,77,95948,2,0,P|351:70|397:65,2,75,0|0|0,1:0|1:0|1:0,0:0:0:0:
255,55,96580,5,4,3:2:0:0:
179,120,96895,1,0,3:0:0:0:
94,66,97211,2,0,P|97:40|102:4,2,50,0|8|0,3:0|0:3|3:0,0:0:0:0:
52,94,97685,6,0,P|70:137|52:192,1,100,4|0,1:2|0:0,0:0:0:0:
16,217,98158,1,2,3:2:0:0:
16,217,98316,1,8,1:3:0:0:
112,243,98632,2,0,P|136:237|174:231,1,50,6|6,1:2|1:2,0:0:0:0:
197,197,98948,1,0,1:0:0:0:
197,197,99106,1,6,3:2:0:0:
260,144,100843,5,4,0:3:0:0:
260,144,101001,1,0,3:0:0:0:
291,182,101158,6,0,P|286:200|282:235,2,50,0|0|0,1:0|1:0|1:0,0:0:0:0:
