osu file format v14

[General]
AudioFilename: audio.mp3
AudioLeadIn: 0
PreviewTime: 43453
Countdown: 0
SampleSet: Soft
StackLeniency: 0.4
Mode: 0
LetterboxInBreaks: 0
WidescreenStoryboard: 1

[Editor]
Bookmarks: 5615,10668,20773,30878,35931,38457,43510,78878,83931,96563,99111,101479,106668,116773,124352,164773,169826,179931,189957,200141,202668,210247,212773,238036,243089,244194,248141,253194,258247,259984,260299,260615
DistanceSpacing: 0.8
BeatDivisor: 4
GridSize: 32
TimelineZoom: 2.1

[Metadata]
Title:i:\DRIVE
TitleUnicode:i:\DRIVE
Artist:Hashimoto Miyuki
ArtistUnicode:橋本みゆき
Creator:Cami
Version:Insane
Source:リアライブ
Tags:realive purple software eroge opening visual novel idrive Yamaguchi Takuya Tako 山口卓也 たこ TAKU1175 jp japanese
BeatmapID:2146227
BeatmapSetID:1026260

[Difficulty]
HPDrainRate:5
CircleSize:4
OverallDifficulty:7
ApproachRate:8.2
SliderMultiplier:1.3
SliderTickRate:1

[Events]
//Background and Video events
0,0,"1189_sdb02a.jpg",0,0
//Break Periods
2,10885,18807
2,79095,80544
//Storyboard Layer 0 (Background)
//Storyboard Layer 1 (Fail)
//Storyboard Layer 2 (Pass)
//Storyboard Layer 3 (Foreground)
//Storyboard Layer 4 (Overlay)
//Storyboard Sound Samples

[TimingPoints]
580,315.789473684211,4,2,1,30,1,0
3106,-151.515151515152,4,2,1,30,0,0
4843,-100,4,2,1,60,0,0
8158,-90.9090909090909,4,2,1,60,0,0
20790,-111.111111111111,4,2,1,50,0,0
30895,-125,4,2,1,45,0,0
34685,-90.9090909090908,4,2,1,60,0,0
35948,-100,4,2,1,55,0,0
37843,-83.3333333333333,4,2,1,55,0,0
38158,-100,4,2,1,55,0,0
38474,-100,4,2,1,50,0,0
43211,-76.9230769230769,4,2,1,50,0,0
43527,-90.9090909090909,4,2,1,70,0,1
52369,-83.3333333333333,4,2,1,70,0,1
53632,-90.9090909090909,4,2,1,60,0,0
61211,-83.3333333333333,4,2,1,60,0,0
63737,-90.9090909090909,4,2,1,70,0,1
72580,-83.3333333333333,4,2,1,70,0,1
73843,-90.9090909090909,4,2,1,60,0,0
74474,-100,4,2,1,60,0,0
78580,-100,4,2,1,50,0,0
78737,-100,4,2,1,45,0,0
78895,-100,4,2,1,50,0,0
81737,-133.333333333333,4,2,1,50,0,0
82685,-100,4,2,1,50,0,0
84737,-100,4,2,1,60,0,0
85053,-100,4,2,1,70,0,1
86790,-100,4,2,1,70,0,0
89001,-166.666666666667,4,2,1,30,0,0
93264,-100,4,2,1,60,0,0
96580,-90.9090909090909,4,2,1,60,0,0

[Colours]
Combo1 : 109,96,189
Combo2 : 169,151,131
Combo3 : 114,226,223
Combo4 : 223,163,96

[HitObjects]
57,328,580,5,2,0:0:0:0:
109,266,1843,1,2,0:0:0:0:
187,259,2474,1,2,0:0:0:0:
253,301,3106,6,0,L|247:349,1,42.8999998690796,2|0,0:0|0:0,0:0:0:0:
325,357,3422,2,0,L|331:309,1,42.8999998690796
353,122,4369,5,2,0:0:0:0:
215,223,4843,2,0,L|175:220,2,21.6666666666667,0|0|0,3:0|3:0|3:0,0:0:0:0:
235,237,5001,2,0,P|241:182|250:113,2,97.5,4|8|4,1:2|0:3|0:3,0:0:0:0:
257,261,5553,1,4,0:3:0:0:
257,261,5632,6,0,P|270:317|274:342,1,65,4|0,3:2|0:0,0:0:0:0:
373,363,5948,2,0,P|381:322|390:282,1,65,0|0,3:2|0:0,0:0:0:0:
339,235,6264,1,0,3:0:0:0:
421,161,6422,2,0,P|455:165|492:168,1,65,0|0,1:0|3:0,0:0:0:0:
288,67,6737,6,0,P|363:41|435:21,1,130,6|8,1:2|0:3,0:0:0:0:
487,46,7211,1,0,3:0:0:0:
332,157,7527,2,0,P|284:149|211:141,1,97.5,0|0,1:0|1:0,0:0:0:0:
211,150,7843,1,0,3:0:0:0:
111,87,8001,1,0,1:0:0:0:
111,87,8080,1,0,1:0:0:0:
111,87,8158,6,0,P|117:121|123:166,1,71.5000021820069,4|0,3:2|0:0,0:0:0:0:
20,258,8474,2,0,P|13:222|8:187,1,71.5000021820069,0|0,3:0|0:0,0:0:0:0:
176,219,8790,1,0,3:0:0:0:
77,317,8948,1,8,0:3:0:0:
154,361,9106,1,0,3:0:0:0:
122,157,9264,5,6,1:2:0:0:
133,168,9580,5,2,0:0:0:0:
133,168,9658,1,2,0:0:0:0:
133,168,9737,1,2,3:2:0:0:
107,255,9895,1,8,0:3:0:0:
65,107,10053,1,0,3:0:0:0:
219,150,10211,2,0,P|282:151|315:154,1,71.5000021820069,4|2,1:2|0:0,0:0:0:0:
396,48,10527,1,0,1:0:0:0:
396,48,10606,1,0,1:0:0:0:
396,48,10685,1,4,3:1:0:0:
22,274,19527,6,0,P|55:236|147:250,1,143.000004364014,6|0,1:2|3:0,0:0:0:0:
226,352,20001,2,0,P|231:253|235:188,1,143.000004364014,6|0,1:2|3:0,0:0:0:0:
90,52,20474,2,0,P|148:59|178:64,1,71.5000021820069,6|0,1:2|1:0,0:0:0:0:
160,61,20711,1,0,1:0:0:0:
160,61,20790,6,0,P|186:108|151:167,1,116.999996429443,4|2,3:1|3:2,0:0:0:0:
317,195,21422,2,0,P|324:162|336:123,1,58.4999982147217,2|0,3:2|0:0,0:0:0:0:
488,124,21737,1,2,1:2:0:0:
512,212,21895,2,0,P|453:201|380:191,1,116.999996429443,2|0,0:0|0:0,0:0:0:0:
279,294,22369,2,0,P|308:289|338:282,1,58.4999982147217,0|0,1:0|0:0,0:0:0:0:
207,173,22685,6,0,P|203:200|199:239,1,58.4999982147217,2|0,3:2|0:0,0:0:0:0:
68,320,23001,2,0,P|64:290|60:261,1,58.4999982147217,2|0,1:2|0:0,0:0:0:0:
96,104,23316,2,0,P|75:158|127:192,1,116.999996429443,2|0,3:2|1:0,0:0:0:0:
220,92,23790,1,2,0:0:0:0:
73,28,24106,1,2,0:0:0:0:
199,231,24422,6,0,B|272:216|246:260|333:245,1,116.999996429443,2|0,0:0|0:0,0:0:0:0:
450,152,24895,2,0,P|365:140|314:132,1,116.999996429443,2|0,1:2|3:0,0:0:0:0:
506,90,25527,1,2,1:2:0:0:
477,228,25685,1,2,0:0:0:0:
386,55,25843,5,6,3:2:0:0:
334,135,26001,2,0,P|387:146|414:153,1,58.4999982147217,2|0,0:0|1:0,0:0:0:0:
226,44,26316,2,0,P|240:142|244:177,1,116.999996429443,2|2,0:0|3:2,0:0:0:0:
297,0,26790,1,0,1:0:0:0:
149,83,26948,1,2,0:0:0:0:
242,160,27106,6,0,P|228:258|224:293,1,116.999996429443,4|0,3:2|1:2,0:0:0:0:
70,236,27580,2,0,P|85:195|169:193,1,116.999996429443,2|0,0:0|3:0,0:0:0:0:
142,324,28053,1,2,1:2:0:0:
10,288,28211,1,2,0:0:0:0:
10,288,28290,1,0,0:0:0:0:
10,288,28369,5,8,1:3:0:0:
82,142,28527,1,8,1:3:0:0:
228,214,28685,1,4,1:3:0:0:
156,360,28843,1,4,1:3:0:0:
164,368,29158,5,0,3:0:0:0:
164,368,29237,1,0,3:0:0:0:
164,368,29316,1,8,1:3:0:0:
315,296,29474,1,8,1:3:0:0:
146,200,29632,1,4,1:3:0:0:
297,128,29790,1,4,1:3:0:0:
297,128,30106,6,0,L|288:168,2,29.2499991073609,0|0|2,3:0|3:0|0:3,0:0:0:0:
439,19,30422,1,0,1:0:0:0:
476,97,30580,1,8,0:3:0:0:
398,134,30737,1,4,0:3:0:0:
361,56,30895,6,0,P|278:45|249:41,1,104,4|2,3:2|3:2,0:0:0:0:
111,121,31527,2,0,P|115:163|117:185,1,52,2|0,3:2|0:0,0:0:0:0:
213,244,31843,1,2,3:2:0:0:
124,269,32001,2,0,P|182:234|227:255,1,104,2|2,0:0|0:0,0:0:0:0:
304,309,32474,2,0,P|255:321|182:341,1,104,2|2,3:2|3:2,0:0:0:0:
320,162,33106,2,0,P|389:147|443:135,1,104,2|2,1:2|3:0,3:0:0:0:
475,78,33580,6,0,P|482:50|492:18,2,52,2|2|2,0:2|3:2|0:2,0:0:0:0:
402,170,34053,2,0,P|409:219|411:242,1,52,2|2,3:2|0:0,0:0:0:0:
259,105,34369,1,2,3:2:0:0:
259,105,34685,6,0,P|107:75|86:72,1,143.000004364014,6|0,1:2|3:0,0:0:0:0:
0,242,35158,2,0,P|33:185|114:183,1,143.000004364014,6|0,1:2|3:0,0:0:0:0:
178,320,35632,2,0,P|115:301|87:297,1,71.5000021820069,6|0,1:2|1:0,0:0:0:0:
109,300,35869,1,0,1:0:0:0:
109,300,35948,6,0,P|201:284|247:277,1,130,4|2,3:1|3:2,0:0:0:0:
398,332,36422,1,2,0:0:0:0:
307,368,36580,2,0,P|315:334|325:289,1,65,2|0,3:2|0:0,0:0:0:0:
259,169,36895,1,0,1:0:0:0:
385,161,37053,6,0,B|306:133|331:191|232:162,1,130,2|0,0:0|0:0,0:0:0:0:
176,68,37527,2,0,P|220:57|247:49,1,65,2|0,3:2|0:0,0:0:0:0:
173,213,37843,6,0,P|146:204|113:196,2,51.999998413086,2|0|0,3:2|1:0|1:0,0:0:0:0:
229,269,38158,2,0,P|256:260|289:252,2,43.3333333333333,2|8|4,3:2|0:3|0:3,0:0:0:0:
187,333,38474,6,0,P|195:278|202:180,1,130,6|0,3:2|0:0,0:0:0:0:
239,90,38948,2,0,L|243:59,2,21.6666666666667,2|0|0,3:2|3:0|3:0,0:0:0:0:
253,105,39106,2,0,P|211:110|171:117,1,65,4|0,3:2|0:0,0:0:0:0:
32,218,39422,1,2,0:0:0:0:
79,275,39580,6,0,P|73:214|67:141,1,130,2|4,0:0|1:2,0:0:0:0:
155,13,40053,2,0,P|157:41|161:82,1,65,2|0,0:0|3:0,0:0:0:0:
160,77,40290,1,0,3:0:0:0:
160,77,40369,6,0,P|202:84|233:90,1,65,6|0,1:2|0:0,0:0:0:0:
329,162,40685,2,0,L|382:153,2,32.5,2|0|4,1:2|1:0|0:3,0:0:0:0:
276,232,41001,5,6,3:2:0:0:
321,297,41632,1,2,0:0:0:0:
272,360,42106,5,0,3:0:0:0:
272,360,42185,1,0,3:0:0:0:
272,360,42264,1,6,1:2:0:0:
185,279,42422,2,0,P|145:266|82:328,1,130,8|4,0:3|0:3,0:0:0:0:
230,204,42895,1,6,1:2:0:0:
229,170,42974,1,8,0:3:0:0:
229,138,43052,1,4,0:3:0:0:
229,105,43131,1,4,0:3:0:0:
229,73,43210,1,6,1:2:0:0:
229,73,43527,5,6,3:2:0:0:
141,149,43685,1,2,3:2:0:0:
313,88,43843,1,2,1:2:0:0:
148,6,44001,2,0,P|144:74|140:148,1,143.000004364014,2|0,0:0|3:0,0:0:0:0:
24,251,44474,1,2,1:2:0:0:
140,308,44632,6,0,B|50:288|83:340|-2:326,1,143.000004364014,2|0,0:0|3:0,0:0:0:0:
135,226,45106,1,2,1:2:0:0:
223,336,45264,2,0,P|216:218|215:171,1,143.000004364014,2|0,0:0|3:0,0:0:0:0:
354,265,45737,2,0,P|357:323|363:353,1,71.5000021820069,2|0,1:2|0:0,0:0:0:0:
297,203,46053,6,0,P|344:156|439:187,1,143.000004364014,2|0,3:2|1:0,0:0:0:0:
512,252,46527,2,0,P|476:257|442:266,2,71.5000021820069,2|0|0,0:0|3:0|3:0,0:0:0:0:
420,92,47001,2,0,P|415:158|412:189,1,71.5000021820069,2|0,1:2|0:0,0:0:0:0:
215,193,47316,6,0,P|177:149|81:173,2,143.000004364014,2|2|2,3:2|1:2|3:2,0:0:0:0:
103,236,48106,1,0,3:0:0:0:
29,109,48264,2,0,P|25:71|18:23,1,71.5000021820069,2|0,1:2|0:0,0:0:0:0:
170,68,48580,5,6,3:2:0:0:
19,193,48737,1,2,3:2:0:0:
215,193,48895,1,0,1:0:0:0:
98,155,49053,2,0,P|94:225|88:317,1,143.000004364014,2|0,0:0|3:0,0:0:0:0:
271,255,49527,1,2,1:2:0:0:
159,341,49685,6,0,P|203:322|273:384,1,143.000004364014,2|0,0:0|3:0,0:0:0:0:
437,270,50158,1,0,1:0:0:0:
379,358,50316,1,0,3:0:0:0:
379,358,50395,1,0,3:0:0:0:
379,358,50474,2,0,P|362:296|356:276,1,71.5000021820069,2|0,1:2|3:0,0:0:0:0:
259,104,50790,6,0,P|242:166|236:186,1,71.5000021820069,6|0,1:2|0:0,0:0:0:0:
132,243,51106,2,0,B|201:215|194:274|286:251,1,143.000004364014,4|0,3:1|1:0,0:0:0:0:
395,147,51580,2,0,P|387:110|378:68,1,71.5000021820069,2|0,0:0|3:0,0:0:0:0:
342,211,51895,1,8,0:3:0:0:
472,271,52053,1,2,3:2:0:0:
401,327,52211,1,2,3:2:0:0:
479,184,52369,6,0,P|490:31|492:-7,1,155.999995239258,6|0,1:2|3:0,0:0:0:0:
395,147,52843,2,0,P|330:179|275:98,1,155.999995239258,6|0,1:2|3:0,0:0:0:0:
135,36,53316,2,0,P|143:83|148:121,1,77.999997619629,6|0,1:2|1:0,0:0:0:0:
147,113,53553,1,0,1:0:0:0:
147,113,53632,6,0,P|99:97|35:158,1,143.000004364014,4|2,3:2|1:2,0:0:0:0:
184,266,54264,2,0,P|240:273|273:279,1,71.5000021820069,2|0,3:2|3:0,0:0:0:0:
156,193,54580,1,2,1:2:0:0:
103,339,54737,6,0,P|188:348|269:359,1,143.000004364014,2|2,0:0|3:2,0:0:0:0:
378,246,55211,1,0,1:0:0:0:
303,212,55369,1,2,0:0:0:0:
353,326,55527,2,0,P|397:321|426:319,1,71.5000021820069,2|0,3:2|3:0,0:0:0:0:
512,170,55843,2,0,P|468:175|439:177,1,71.5000021820069,6|0,1:2|3:0,0:0:0:0:
313,100,56158,6,0,P|345:155|293:214,1,143.000004364014,4|2,3:2|1:2,0:0:0:0:
134,103,56790,2,0,P|128:52|124:25,1,71.5000021820069,2|0,3:2|3:0,0:0:0:0:
237,144,57106,1,2,1:2:0:0:
93,239,57264,6,0,B|182:246|128:290|235:297,1,143.000004364014,6|2,3:2|3:2,0:0:0:0:
161,179,57737,1,0,1:0:0:0:
20,283,57895,2,0,P|10:212|0:141,1,143.000004364014,2|2,0:0|3:2,0:0:0:0:
122,262,58369,2,0,P|134:320|140:342,1,71.5000021820069,2|0,1:2|0:0,0:0:0:0:
357,284,58685,6,0,B|265:256|292:316|206:292,1,143.000004364014,4|2,3:2|1:2,0:0:0:0:
432,234,59316,2,0,P|438:274|444:319,1,71.5000021820069,2|0,3:2|3:0,0:0:0:0:
297,198,59632,2,0,P|301:162|307:127,1,71.5000021820069,2|0,1:2|0:0,0:0:0:0:
464,60,59948,6,0,P|404:74|353:40,1,107.25000327301,6|0,3:2|0:0,0:0:0:0:
323,34,60264,2,0,P|359:26|402:16,1,71.5000021820069,2|0,1:2|0:0,0:0:0:0:
220,136,60580,2,0,P|184:128|141:118,1,71.5000021820069,2|0,3:2|3:0,0:0:0:0:
357,284,60895,1,2,1:2:0:0:
357,284,61211,6,0,P|332:245|408:160,1,155.999995239258,6|0,1:2|3:0,0:0:0:0:
290,343,61685,2,0,P|208:348|129:354,1,155.999995239258,6|0,1:2|3:0,0:0:0:0:
105,363,62080,1,0,3:0:0:0:
105,363,62158,2,0,P|96:276|86:183,1,155.999995239258,6|0,1:2|3:0,0:0:0:0:
260,88,62632,2,0,B|163:67|205:132|105:118,1,155.999995239258,6|0,1:2|3:0,0:0:0:0:
187,260,63106,2,0,P|242:249|275:244,1,77.999997619629,6|0,1:2|0:0,0:0:0:0:
415,122,63422,1,6,1:2:0:0:
389,108,63500,1,0,1:0:0:0:
360,110,63579,1,0,1:0:0:0:
336,127,63658,1,0,1:0:0:0:
324,153,63737,5,6,3:2:0:0:
474,194,63895,1,2,0:0:0:0:
449,30,64053,1,2,1:2:0:0:
415,122,64211,2,0,P|429:235|436:292,1,143.000004364014,2|2,0:0|3:2,0:0:0:0:
276,340,64685,1,2,1:2:0:0:
210,229,64843,6,0,B|292:202|269:263|369:230,1,143.000004364014,2|0,0:0|0:0,0:0:0:0:
226,145,65316,1,0,1:0:0:0:
132,260,65474,2,0,P|143:298|151:338,2,71.5000021820069,2|0|0,0:0|3:0|3:0,0:0:0:0:
77,53,65948,5,2,1:2:0:0:
15,203,66106,2,0,P|37:152|127:145,1,143.000004364014,2|0,0:0|0:0,0:0:0:0:
292,186,66580,1,2,1:2:0:0:
210,229,66737,2,0,P|216:121|218:79,1,143.000004364014,2|0,0:0|3:0,0:0:0:0:
368,143,67211,2,0,P|369:178|371:214,1,71.5000021820069,0|0,1:2|0:0,0:0:0:0:
424,346,67527,6,0,P|474:294|444:218,2,143.000004364014,2|2|2,3:2|1:2|3:2,0:0:0:0:
345,298,68316,1,0,3:0:0:0:
444,153,68474,2,0,P|495:138|530:128,1,71.5000021820069,2|0,1:2|0:0,0:0:0:0:
329,53,68790,5,6,3:2:0:0:
205,183,68948,1,2,0:2:0:0:
371,214,69106,1,2,1:2:0:0:
265,131,69264,2,0,B|178:114|210:174|113:159,1,143.000004364014,2|2,0:0|3:2,0:0:0:0:
13,80,69737,1,2,1:2:0:0:
148,43,69895,2,0,L|140:95,1,35.7500010910034,2|0,0:0|1:0,0:0:0:0:
49,173,70053,5,2,3:2:0:0:
36,196,70132,1,8,0:3:0:0:
31,222,70210,1,8,0:3:0:0:
34,249,70290,1,8,0:3:0:0:
45,273,70369,2,0,L|103:264,3,35.7500010910034,2|4|4|4,3:2|0:3|0:3|0:3,0:0:0:0:
143,312,70685,5,6,3:2:0:0:
389,201,71001,1,6,3:2:0:0:
242,357,71316,6,0,P|236:285|229:214,1,143.000004364014,6|2,3:2|1:2,0:0:0:0:
367,120,71790,2,0,P|331:116|295:114,1,71.5000021820069,2|0,3:2|3:0,0:0:0:0:
128,98,72106,1,8,0:3:0:0:
229,7,72264,5,2,3:2:0:0:
161,185,72422,1,0,3:0:0:0:
161,185,72501,1,0,3:0:0:0:
161,185,72580,6,0,B|247:156|222:223|319:193,1,155.999995239258,6|6,1:2|1:2,0:0:0:0:
70,302,73211,2,0,P|57:250|44:208,1,77.999997619629,6|0,1:2|0:0,0:0:0:0:
292,370,73527,2,0,P|305:318|318:276,1,77.999997619629,6|0,1:2|1:0,0:0:0:0:
311,294,73764,1,0,1:0:0:0:
311,294,73843,6,0,P|239:301|167:312,1,143.000004364014,4|2,3:2|1:2,0:0:0:0:
335,190,74474,2,0,P|389:181|418:174,1,65,2|0,3:2|3:0,0:0:0:0:
259,142,74790,1,2,1:2:0:0:
437,246,74948,6,0,L|464:90,1,130,6|0,3:2|3:0,0:0:0:0:
317,7,75422,2,0,P|371:18|395:24,1,65,2|0,1:2|3:0,0:0:0:0:
259,142,75737,2,0,P|205:153|181:159,1,65,2|0,0:2|3:0,0:0:0:0:
88,3,76053,2,0,P|134:13|157:54,1,97.5,2|0,1:2|0:0,0:0:0:0:
189,73,76369,6,0,P|86:93|44:101,1,130,6|0,3:2|1:0,0:0:0:0:
259,142,76843,1,6,3:2:0:0:
426,29,77158,1,6,3:2:0:0:
189,73,77474,6,0,P|178:170|171:218,1,130,6|0,3:2|3:0,0:0:0:0:
222,341,77948,1,2,1:2:0:0:
126,354,78106,1,2,3:2:0:0:
126,354,78185,2,0,L|232:340,1,97.5,0|0,1:0|3:0,0:0:0:0:
356,267,78580,1,8,0:3:0:0:
280,201,78737,1,4,0:3:0:0:
322,137,78895,5,4,3:1:0:0:
166,308,81264,5,4,0:3:0:0:
166,308,81343,1,4,0:3:0:0:
166,308,81422,2,0,P|222:290|286:276,1,97.5,6|0,3:2|0:0,0:0:0:0:
295,296,81737,2,0,P|286:269|278:232,1,48.750001859665,0|0,1:2|0:0,0:0:0:0:
344,196,82053,2,0,P|353:169|361:132,1,48.750001859665,2|0,0:2|0:0,0:0:0:0:
260,78,82369,2,0,P|292:72|329:65,1,48.750001859665,2|0,0:0|0:0,0:0:0:0:
211,173,82685,6,0,P|176:168|134:163,1,65,0|0,1:2|0:0,0:0:0:0:
259,280,83001,2,0,P|293:275|336:270,1,65,0|0,1:2|0:0,0:0:0:0:
396,302,83237,1,0,1:0:0:0:
394,315,83316,1,2,1:2:0:0:
496,366,83474,1,0,1:0:0:0:
496,366,83553,1,0,1:0:0:0:
496,366,83632,2,0,L|509:313,1,32.5,2|8,3:2|0:3,0:0:0:0:
451,244,83790,2,0,L|438:191,1,32.5,4|4,0:3|0:3,0:0:0:0:
498,165,83948,6,0,P|420:158|357:152,1,130,6|8,3:2|0:3,0:0:0:0:
304,104,84422,1,2,0:0:0:0:
221,218,84580,5,0,1:0:0:0:
368,153,84737,1,0,1:0:0:0:
231,74,84895,1,0,1:0:0:0:
298,259,85053,5,6,1:2:0:0:
298,259,85369,5,6,1:2:0:0:
87,197,85527,1,0,1:0:0:0:
87,197,85843,5,6,1:2:0:0:
4,366,86001,1,0,1:0:0:0:
4,366,86316,5,6,1:2:0:0:
4,366,86632,5,6,1:2:0:0:
166,150,86790,1,0,1:0:0:0:
256,192,88053,12,4,89001,0:2:0:0:
163,299,90264,5,2,0:0:0:0:
101,351,90895,1,2,0:0:0:0:
37,303,91527,6,0,L|28:255,1,38.9999988098145,2|0,0:0|0:0,0:0:0:0:
77,201,91843,2,0,L|68:153,1,38.9999988098145
231,57,92790,5,2,0:0:0:0:
393,202,93264,2,0,L|429:205,2,21.6666666666667,0|0|0,3:0|3:0|3:0,0:0:0:0:
384,189,93422,2,0,P|315:181|256:181,1,97.5,4|8,1:2|0:3,0:0:0:0:
266,189,93737,1,4,0:3:0:0:
337,104,93895,5,4,0:3:0:0:
337,104,93974,1,4,0:3:0:0:
337,104,94053,2,0,P|343:57|346:28,1,65,4|0,3:2|0:0,0:0:0:0:
478,121,94369,2,0,P|472:168|469:197,1,65,0|0,3:0|0:0,0:0:0:0:
346,288,94685,1,0,3:0:0:0:
421,355,94843,2,0,P|478:342|501:339,1,65,0|0,1:0|3:0,0:0:0:0:
267,224,95158,6,0,P|182:213|115:202,1,130,4|8,1:2|0:3,0:0:0:0:
37,115,95632,1,0,3:0:0:0:
37,114,95948,2,0,P|42:162|46:211,1,97.5,0|0,1:0|1:0,0:0:0:0:
34,238,96264,1,0,3:0:0:0:
135,120,96422,5,0,1:0:0:0:
135,120,96501,1,0,1:0:0:0:
135,120,96580,2,0,P|125:68|123:40,1,71.5000021820069,4|0,3:2|0:0,0:0:0:0:
311,132,96895,2,0,P|274:136|220:146,1,71.5000021820069,0|0,3:0|0:0,0:0:0:0:
363,39,97211,1,0,3:0:0:0:
463,165,97369,1,8,0:3:0:0:
386,221,97527,1,0,3:0:0:0:
456,66,97685,5,6,1:2:0:0:
456,66,98158,5,2,3:2:0:0:
484,154,98316,1,8,0:3:0:0:
357,85,98474,1,0,3:0:0:0:
256,218,98632,5,4,1:2:0:0:
385,171,98790,1,4,1:2:0:0:
201,140,98948,1,0,1:0:0:0:
201,140,99027,1,0,1:0:0:0:
201,140,99106,1,6,3:2:0:0:
256,192,99185,12,4,100843,0:3:0:0:
202,282,101158,5,0,1:0:0:0:
133,143,101316,1,0,1:0:0:0:
325,182,101474,1,0,1:0:0:0:
