osu file format v14

[General]
AudioFilename: audio.mp3
AudioLeadIn: 0
PreviewTime: 42101
Countdown: 0
SampleSet: Soft
StackLeniency: 0.7
Mode: 2
LetterboxInBreaks: 0
WidescreenStoryboard: 1

[Editor]
DistanceSpacing: 0.7
BeatDivisor: 4
GridSize: 8
TimelineZoom: 2

[Metadata]
Title:i:\DRIVE
TitleUnicode:i:\DRIVE
Artist:Hashimoto Miyuki
ArtistUnicode:橋本みゆき
Creator:-Luminate
Version:Cup
Source:リアライブ
Tags:Realive purple software eroge opening op visual novel idrive kukkai [_-kukkai-_]
BeatmapID:2102669
BeatmapSetID:1001972

[Difficulty]
HPDrainRate:3
CircleSize:2.5
OverallDifficulty:6
ApproachRate:6
SliderMultiplier:1.35
SliderTickRate:1

[Events]
//Background and Video events
0,0,"the safest bg for this eroge.jpg",0,0
//Break Periods
//Storyboard Layer 0 (Background)
//Storyboard Layer 1 (Fail)
//Storyboard Layer 2 (Pass)
//Storyboard Layer 3 (Foreground)
//Storyboard Layer 4 (Overlay)
//Storyboard Sound Samples

[TimingPoints]
575,315.789473684211,4,2,1,40,1,0
4838,-100,4,2,1,50,0,0
5627,-100,4,2,1,65,0,0
10680,-100,4,2,1,45,0,0
19522,-100,4,2,1,65,0,0
30890,-100,4,2,1,50,0,0
34680,-100,4,2,1,65,0,0
43522,-100,4,2,1,75,0,1
53627,-100,4,2,1,70,0,1
61206,-100,4,2,1,75,0,1
63417,-100,4,2,1,75,0,0
63732,-100,4,2,1,75,0,1
78890,-100,4,2,1,55,0,0
81417,-100,4,2,1,60,0,0
81575,-100,4,2,1,61,0,0
81732,-100,4,2,1,62,0,0
81890,-100,4,2,1,63,0,0
82048,-100,4,2,1,64,0,0
82206,-100,4,2,1,65,0,0
82364,-100,4,2,1,66,0,0
82522,-100,4,2,1,67,0,0
82680,-100,4,2,1,68,0,0
82996,-100,4,2,1,69,0,0
83311,-100,4,2,1,70,0,0
83943,-100,4,2,1,71,0,0
84101,-100,4,2,1,72,0,0
84259,-100,4,2,1,73,0,0
84417,-100,4,2,1,74,0,0
84575,-100,4,2,1,75,0,0
84732,-100,4,2,1,76,0,0
84890,-100,4,2,1,77,0,0
85048,-100,4,2,1,78,0,0
86943,-100,4,2,1,20,0,0
88996,-100,4,2,1,40,0,0
93259,-100,4,2,1,50,0,0
94048,-100,4,2,1,65,0,0

[Colours]
Combo1 : 173,143,252
Combo2 : 190,7,154
Combo3 : 162,81,81

[HitObjects]
160,296,575,6,0,P|72:248|56:144,1,202.5,2|0,0:0|0:0,0:0:0:0:
176,152,1364,1,2,0:0:0:0:
392,296,1838,6,0,P|392:224|352:168,1,135,2|0,0:0|0:0,0:0:0:0:
224,176,2469,2,0,P|240:88|280:48,1,135,2|0,0:0|0:0,0:0:0:0:
424,328,3101,6,0,P|464:264|392:160,1,202.5,2|0,0:0|0:0,0:0:0:0:
264,160,3890,1,2,0:0:0:0:
40,304,4364,6,0,L|144:192,2,135,2|0|8,0:0|0:0|0:0,0:0:0:0:
40,336,5232,1,8,0:3:0:0:
96,352,5469,1,8,0:1:0:0:
176,352,5627,6,0,L|296:272,1,135,4|8,0:0|0:1,0:0:0:0:
437,217,6259,1,8,0:1:0:0:
477,142,6417,1,10,0:0:0:0:
435,67,6575,1,0,0:0:0:0:
355,242,6732,6,0,P|243:178|235:162,1,135,12|4,0:0|0:3,0:0:0:0:
256,120,7206,1,4,0:3:0:0:
392,263,7522,2,0,L|392:145,1,101.25,8|8,0:0|0:0,0:0:0:0:
304,136,7996,1,8,0:0:0:0:
224,200,8153,6,0,P|200:120|224:72,1,135,4|8,0:0|0:1,0:0:0:0:
344,248,8785,1,8,0:1:0:0:
320,312,8943,1,8,0:0:0:0:
256,328,9101,1,8,0:1:0:0:
152,328,9259,6,0,P|80:312|56:176,1,202.5,12|8,0:0|0:1,0:0:0:0:
208,144,10048,2,0,L|272:96,2,67.5,8|8|2,0:1|0:0|0:0,0:0:0:0:
40,152,10680,5,4,0:0:0:0:
176,200,10996,2,0,L|184:352,1,135,0|2,0:0|0:0,0:0:0:0:
80,344,11627,1,0,0:0:0:0:
160,344,11785,6,0,P|248:296|276:248,1,135,2|0,0:0|0:0,0:0:0:0:
277,205,12259,1,2,0:0:0:0:
242,131,12417,1,0,0:0:0:0:
184,88,12575,1,2,0:0:0:0:
312,32,12890,1,0,0:0:0:0:
152,200,13206,6,0,P|104:272|192:352,1,202.5,8|0,0:1|0:0,0:0:0:0:
256,352,13838,2,0,P|320:320|352:240,1,135,2|0,0:0|0:0,0:0:0:0:
240,208,14469,6,0,P|216:112|240:64,1,135,2|0,0:0|0:0,0:0:0:0:
304,72,14943,1,0,0:0:0:0:
384,80,15101,2,0,P|408:136|376:224,1,135,8|4,0:3|0:3,0:0:0:0:
232,320,15732,5,4,0:3:0:0:
160,312,15890,2,0,P|120:256|128:184,1,135,2|0,0:0|0:1,0:0:0:0:
288,176,16680,2,0,L|296:96,1,67.5,0|8,0:0|0:1,0:0:0:0:
224,104,16996,5,4,0:3:0:0:
216,48,17153,1,2,0:0:0:0:
352,328,17469,2,0,P|392:216|320:152,1,202.5,0|0,0:0|0:0,0:0:0:0:
280,152,18101,1,8,0:1:0:0:
216,144,18259,5,4,0:3:0:0:
360,88,18575,1,2,0:0:0:0:
216,336,18890,2,0,L|152:288,2,67.5,0|2|0,0:0|0:0|0:0,0:0:0:0:
392,336,19522,6,0,P|464:288|472:216,1,135,6|8,0:0|0:0,0:0:0:0:
472,176,19996,1,4,0:0:0:0:
320,176,20311,1,8,0:0:0:0:
264,168,20469,6,0,P|192:136|176:64,1,135,8|4,0:3|0:0,0:0:0:0:
296,40,21101,1,8,0:0:0:0:
184,312,21417,2,0,L|320:264,1,135,8|8,0:1|0:0,0:0:0:0:
392,232,21890,6,0,P|360:176|280:144,1,135,10|0,0:1|0:0,0:0:0:0:
224,144,22364,1,8,0:0:0:0:
96,112,22680,1,8,0:1:0:0:
232,288,22996,1,8,0:0:0:0:
400,280,23311,6,0,P|456:224|456:152,1,135,10|8,0:1|0:0,0:0:0:0:
400,152,23785,2,0,L|299:38,2,135,2|2|2,0:0|0:0|0:0,0:0:0:0:
256,280,24732,5,0,0:0:0:0:
176,264,24890,2,0,L|160:120,1,135,8|8,0:0|0:1,0:0:0:0:
288,136,25522,2,0,L|296:64,1,67.5,8|8,0:0|0:1,0:0:0:0:
224,64,25838,5,4,0:0:0:0:
160,296,25996,2,0,P|88:256|64:208,1,135,2|2,0:0|0:1,0:0:0:0:
184,168,26627,1,2,0:0:0:0:
352,248,26943,6,0,P|416:208|432:144,1,135,4|2,0:0|0:0,0:0:0:0:
296,152,27575,2,0,P|248:64|320:0,1,202.5,10|8,0:1|0:0,0:0:0:0:
384,96,28206,1,8,0:0:0:0:
304,192,28364,6,0,P|240:216|216:288,1,135,4|8,0:0|0:0,0:0:0:0:
280,320,28838,1,8,0:3:0:0:
456,296,29311,6,0,P|432:216|360:192,1,135,8|8,0:0|0:0,0:0:0:0:
328,192,29785,1,8,0:1:0:0:
160,176,30259,1,8,0:0:0:0:
127,119,30416,1,8,0:0:0:0:
136,64,30574,1,8,0:3:0:0:
192,40,30732,1,4,0:3:0:0:
256,48,30890,5,4,0:0:0:0:
384,120,31206,1,8,0:1:0:0:
256,208,31522,1,10,0:1:0:0:
112,264,31838,1,10,0:1:0:0:
288,64,32153,5,8,0:1:0:0:
160,144,32469,1,10,0:1:0:0:
288,224,32785,1,10,0:1:0:0:
432,280,33101,1,8,0:0:0:0:
256,352,33417,6,0,P|168:320|144:272,1,135,10|8,0:1|0:1,0:0:0:0:
280,232,34048,2,0,L|304:144,2,67.5,10|0|10,0:1|0:0|0:1,0:0:0:0:
112,216,34680,6,0,P|152:136|216:120,1,135,8|8,0:0|0:1,0:0:0:0:
256,120,35153,1,8,0:0:0:0:
416,168,35469,2,0,L|424:96,1,67.5,8|8,0:1|0:0,0:0:0:0:
264,288,35943,6,0,L|144:192,2,135,6|8|10,0:0|0:1|0:1,0:0:0:0:
336,288,36732,2,0,P|384:256|400:168,1,135,0|2,0:0|0:0,0:0:0:0:
272,176,37364,6,0,L|264:96,1,67.5,2|8,0:0|0:1,0:0:0:0:
408,104,37838,2,0,L|280:16,1,135,8|8,0:0|0:3,0:0:0:0:
144,320,38469,6,0,P|96:256|176:176,1,202.5,6|8,0:0|0:1,0:0:0:0:
240,176,39101,1,12,0:0:0:0:
384,304,39417,1,8,0:3:0:0:
320,312,39575,6,0,P|256:288|224:216,1,135,8|8,0:0|0:0,0:0:0:0:
240,176,40048,1,8,0:1:0:0:
368,120,40364,1,8,0:0:0:0:
240,80,40680,1,8,0:0:0:0:
424,200,40996,5,8,0:0:0:0:
424,320,41627,1,2,0:0:0:0:
192,304,42259,2,0,P|160:240|264:160,1,202.5,8|8,0:0|0:1,0:0:0:0:
320,152,42890,2,0,P|352:88|304:32,1,135,8|8,0:0|0:0,0:0:0:0:
152,40,43522,6,0,P|104:64|88:152,1,135,4|8,0:0|0:0,0:0:0:0:
128,184,43996,1,10,0:1:0:0:
256,304,44311,2,0,L|264:232,1,67.5,10|8,0:1|0:0,0:0:0:0:
328,240,44627,6,0,P|408:192|424:128,1,135,2|8,0:0|0:1,0:0:0:0:
368,128,45101,1,8,0:0:0:0:
248,64,45417,1,8,0:1:0:0:
120,208,45732,1,10,0:0:0:0:
184,216,45890,6,0,P|232:256|168:360,1,202.5,2|10,0:0|0:0,0:0:0:0:
110,355,46522,1,8,0:1:0:0:
256,240,46996,2,0,L|264:152,1,67.5,8|10,0:0|0:1,0:0:0:0:
192,152,47311,6,0,L|72:40,2,135,2|10|10,0:0|0:0|0:1,0:0:0:0:
336,152,48259,1,10,0:0:0:0:
160,328,48575,6,0,P|128:272|184:200,1,135,4|8,0:0|0:0,0:0:0:0:
224,208,49048,1,10,0:1:0:0:
376,192,49364,2,0,L|368:112,1,67.5,10|8,0:1|0:0,0:0:0:0:
288,112,49680,6,0,L|144:56,1,135,10|8,0:1|0:1,0:0:0:0:
88,112,50153,1,8,0:0:0:0:
200,160,50469,1,8,0:0:0:0:
368,192,50785,1,8,0:0:0:0:
432,224,50943,6,0,P|392:304|328:320,1,135,6|8,0:0|0:1,0:0:0:0:
288,288,51417,2,0,L|272:216,1,67.5,8|2,0:0|0:0,0:0:0:0:
424,208,52048,2,0,L|432:128,1,67.5,4|8,0:3|0:1,0:0:0:0:
368,128,52364,6,0,L|240:88,1,135,8|10,0:0|0:1,0:0:0:0:
168,96,52838,2,0,L|144:240,1,135,8|8,0:0|0:3,0:0:0:0:
216,240,53311,1,8,0:0:0:0:
392,336,53627,6,0,P|424:256|376:216,1,135,4|8,0:0|0:0,0:0:0:0:
256,224,54259,2,0,P|232:152|280:96,1,135,8|10,0:1|0:0,0:0:0:0:
336,104,54732,1,8,0:1:0:0:
192,256,55048,5,10,0:1:0:0:
336,328,55364,1,2,0:0:0:0:
408,304,55522,2,0,P|424:248|384:184,1,135,8|10,0:1|0:0,0:0:0:0:
208,192,56153,6,0,P|112:152|96:104,1,135,6|8,0:0|0:0,0:0:0:0:
240,80,56785,1,8,0:1:0:0:
104,184,57101,2,0,L|96:256,1,67.5,10|4,0:0|0:0,0:0:0:0:
232,272,57575,5,2,0:0:0:0:
384,240,57890,2,0,P|424:208|432:112,1,135,2|8,0:0|0:1,0:0:0:0:
344,184,58364,2,0,P|256:144|232:88,1,135,8|4,0:0|0:0,0:0:0:0:
400,328,58996,5,8,0:0:0:0:
496,264,59311,1,10,0:1:0:0:
400,208,59627,1,8,0:0:0:0:
224,328,59943,1,6,0:0:0:0:
120,264,60258,1,8,0:0:0:0:
224,208,60574,1,10,0:1:0:0:
352,208,60890,1,8,0:0:0:0:
192,320,61206,6,0,P|112:288|72:184,1,202.5,6|8,0:0|0:0,0:0:0:0:
248,216,62153,2,0,P|344:168|384:56,1,202.5,8|8,0:0|0:0,0:0:0:0:
176,56,63101,1,8,0:0:0:0:
272,72,63417,1,8,0:0:0:0:
432,56,63732,6,0,P|480:80|496:168,1,135,4|8,0:0|0:0,0:0:0:0:
456,200,64206,1,2,0:1:0:0:
328,320,64522,2,0,L|320:248,1,67.5,2|8,0:0|0:0,0:0:0:0:
256,256,64837,6,0,P|176:208|160:144,1,135,10|8,0:1|0:1,0:0:0:0:
216,144,65311,1,8,0:0:0:0:
336,80,65627,1,8,0:1:0:0:
464,224,65942,1,10,0:0:0:0:
400,232,66101,6,0,L|248:368,1,202.5,10|8,0:1|0:0,0:0:0:0:
312,360,66732,1,10,0:1:0:0:
456,312,67206,2,0,L|464:232,1,67.5,8|2,0:0|0:0,0:0:0:0:
392,216,67522,6,0,L|272:104,2,135,10|10|10,0:1|0:0|0:1,0:0:0:0:
256,264,68469,1,10,0:0:0:0:
96,320,68785,6,0,P|64:264|120:192,1,135,6|8,0:0|0:0,0:0:0:0:
160,208,69258,1,2,0:0:0:0:
304,208,69574,2,0,L|296:128,1,67.5,10|8,0:1|0:0,0:0:0:0:
232,136,69890,1,10,0:1:0:0:
173,32,70048,6,0,P|289:71|333:226,1,270,8|4,0:0|0:3,0:0:0:0:
181,202,70996,1,10,0:0:0:0:
360,336,71311,6,0,P|424:296|448:232,1,135,4|8,0:0|0:0,0:0:0:0:
384,232,71785,1,2,0:0:0:0:
208,184,72259,2,0,L|200:112,1,67.5,8|8,0:3|0:3,0:0:0:0:
280,112,72575,6,0,L|408:48,2,135,8|8|10,0:0|0:0|0:0,0:0:0:0:
128,120,73522,1,8,0:0:0:0:
304,312,73838,6,0,P|400:264|416:216,1,135,6|8,0:0|0:0,0:0:0:0:
256,216,74469,2,0,L|240:72,1,135,10|8,0:1|0:0,0:0:0:0:
176,312,74943,6,0,P|72:272|64:232,1,135,6|0,0:0|0:0,0:0:0:0:
128,208,75417,1,10,0:0:0:0:
256,176,75732,1,10,0:1:0:0:
376,152,76048,1,10,0:0:0:0:
208,312,76364,6,0,P|208:224|264:192,1,135,6|8,0:0|0:0,0:0:0:0:
320,184,76838,1,10,0:1:0:0:
188,128,77153,1,8,0:0:0:0:
352,344,77469,6,0,P|392:272|352:216,1,135,6|8,0:0|0:1,0:0:0:0:
304,208,77943,1,8,0:0:0:0:
240,200,78101,1,8,0:1:0:0:
384,144,78575,2,0,L|392:56,1,67.5,4|8,0:3|0:1,0:0:0:0:
320,280,78890,6,0,P|304:192|344:160,1,135,4|0,0:3|0:0,0:0:0:0:
400,168,79364,1,2,0:0:0:0:
256,144,79680,1,2,0:0:0:0:
95,257,79996,6,0,L|224:163,1,135,2|2,0:0|0:0,0:0:0:0:
250,120,80469,1,2,0:0:0:0:
248,56,80627,1,0,0:0:0:0:
96,56,81101,2,0,L|88:152,1,67.5,2|8,0:0|0:1,0:0:0:0:
168,160,81417,6,0,L|280:248,1,135,4|8,0:0|0:1,0:0:0:0:
408,272,82048,2,0,L|424:128,1,135,8|8,0:1|0:1,0:0:0:0:
248,312,82680,2,0,L|112:216,2,135,8|8|8,0:0|0:0|0:0,0:0:0:0:
392,312,83627,1,8,0:0:0:0:
224,336,83943,6,0,P|128:280|112:240,1,135,12|8,0:0|0:1,0:0:0:0:
264,216,84575,2,0,L|272:136,1,67.5,8|8,0:3|0:1,0:0:0:0:
208,128,84890,1,4,0:3:0:0:
128,120,85048,1,6,0:0:0:0:
288,248,85364,6,0,L|288:176,1,67.5,2|8,0:0|0:3,0:0:0:0:
416,192,85838,2,0,L|416:112,1,67.5,2|8,0:0|0:3,0:0:0:0:
240,136,86311,1,12,0:3:0:0:
368,272,86627,2,0,L|304:320,1,67.5,2|8,0:0|0:3,0:0:0:0:
256,192,87101,12,0,88680,0:0:0:0:
352,296,88996,6,0,P|440:248|456:144,1,202.5,0|0,0:0|0:0,0:0:0:0:
336,152,89785,1,2,0:0:0:0:
120,296,90259,6,0,P|120:224|160:168,1,135,2|0,0:0|0:0,0:0:0:0:
288,176,90890,2,0,P|272:88|232:48,1,135,2|0,0:0|0:0,0:0:0:0:
88,328,91522,6,0,P|48:264|120:160,1,202.5,2|2,0:0|0:0,0:0:0:0:
248,160,92311,1,2,0:0:0:0:
472,304,92785,6,0,L|368:192,2,135,2|0|8,0:0|0:0|0:0,0:0:0:0:
472,336,93653,1,8,0:3:0:0:
416,352,93890,1,8,0:1:0:0:
336,352,94048,6,0,L|216:272,1,135,4|8,0:0|0:1,0:0:0:0:
72,200,94680,1,8,0:1:0:0:
125,175,94838,1,8,0:0:0:0:
185,146,94996,1,8,0:1:0:0:
266,166,95153,6,0,P|235:79|177:65,1,135,4|8,0:0|0:1,0:0:0:0:
256,120,95627,1,8,0:1:0:0:
432,264,95943,2,0,L|428:145,1,101.25,8|8,0:0|0:0,0:0:0:0:
344,159,96417,1,8,0:0:0:0:
262,161,96574,6,0,L|166:33,1,135,4|8,0:0|0:1,0:0:0:0:
336,248,97206,1,8,0:1:0:0:
312,312,97364,1,8,0:0:0:0:
248,328,97522,1,8,0:1:0:0:
168,304,97680,6,0,P|160:216|272:160,1,202.5,12|8,0:0|0:1,0:0:0:0:
392,136,98469,1,8,0:1:0:0:
248,296,98785,2,0,L|232:216,1,67.5,6|8,0:0|0:0,0:0:0:0:
316,226,99101,5,4,0:0:0:0:
256,192,99417,12,0,100838,0:3:0:0:
306,193,101153,5,8,0:0:0:0:
360,192,101311,1,8,0:0:0:0:
306,193,101469,1,8,0:0:0:0:
