osu file format v14

[General]
AudioFilename: audio.mp3
AudioLeadIn: 0
PreviewTime: 87903
Countdown: 0
SampleSet: Soft
StackLeniency: 0.7
Mode: 0
LetterboxInBreaks: 0
WidescreenStoryboard: 1

[Editor]
Bookmarks: 5749,13134,20519,27903,42672,57441,72211,88826,125749,133134,147903,164518,201441,216211,230980,245749,267903,301134
DistanceSpacing: 0.8
BeatDivisor: 4
GridSize: 32
TimelineZoom: 1.5

[Metadata]
Title:SHINY MOON
TitleUnicode:SHINY MOON
Artist:Hashimoto Miyuki
ArtistUnicode:橋本みゆき
Creator:Shirahane Suou
Version:Insane
Source:月に寄りそう乙女の作法
Tags:tsuki ni yorisou otome no sahou navel japanese video game visual novel eroge insert song 挿入歌 YOUnison 15→ ost videogame electro electronic acchorike アッチョリケ
BeatmapID:2840060
BeatmapSetID:1373779

[Difficulty]
HPDrainRate:5
CircleSize:4
OverallDifficulty:8
ApproachRate:9
SliderMultiplier:2
SliderTickRate:1

[Events]
//Background and Video events
0,0,"bgg.jpg",0,0
//Break Periods
//Storyboard Layer 0 (Background)
//Storyboard Layer 1 (Fail)
//Storyboard Layer 2 (Pass)
//Storyboard Layer 3 (Foreground)
//Storyboard Layer 4 (Overlay)
//Storyboard Sound Samples

[TimingPoints]
211,461.538461538462,4,2,1,50,1,0
5749,-142.857142857143,4,2,1,40,0,0
13134,-111.111111111111,4,2,1,50,0,0
20518,-90.9090909090909,4,2,1,60,0,0
24211,-133.333333333333,4,2,1,60,0,0
27441,-76.9230769230769,4,2,1,60,0,0
40826,-333.333333333333,4,2,1,60,0,0
41518,-76.9230769230769,4,2,1,60,0,0
42672,-111.111111111111,4,2,3,50,0,0
57441,-100,4,2,3,50,0,0
72211,-90.9090909090909,4,2,3,60,0,0
86980,-333.333333333333,4,2,1,60,0,0
87903,-133.333333333333,4,2,1,60,0,0
88826,-66.6666666666667,4,2,1,70,0,1
95749,-50,4,2,1,70,0,1
95980,-133.333333333333,4,2,1,70,0,1
96153,-133.333333333333,4,2,1,40,0,1
96211,-66.6666666666667,4,2,1,70,0,1
103134,-50,4,2,1,70,0,1
103364,-133.333333333333,4,2,1,70,0,1
103537,-133.333333333333,4,2,1,40,0,1
103595,-66.6666666666667,4,2,1,70,0,1
110518,-50,4,2,1,70,0,1
110749,-133.333333333333,4,2,1,70,0,1
110922,-133.333333333333,4,2,1,40,0,1
110980,-66.6666666666667,4,2,1,70,0,1
117903,-50,4,2,1,70,0,1
118134,-133.333333333333,4,2,1,70,0,1
118307,-133.333333333333,4,2,1,40,0,1
118364,-66.6666666666667,4,2,1,70,0,1
122057,-76.9230769230769,4,2,1,60,0,0
133134,-105.263157894737,4,2,3,50,0,0
146057,-166.666666666667,4,2,3,50,0,0
147903,-90.9090909090909,4,2,3,60,0,0
162672,-333.333333333333,4,2,1,60,0,0
163595,-133.333333333333,4,2,1,60,0,0
164518,-66.6666666666667,4,2,1,70,0,1
171441,-50,4,2,1,70,0,1
171672,-133.333333333333,4,2,1,70,0,1
171845,-133.333333333333,4,2,1,40,0,1
171903,-66.6666666666667,4,2,1,70,0,1
178826,-50,4,2,1,70,0,1
179057,-133.333333333333,4,2,1,70,0,1
179230,-133.333333333333,4,2,1,40,0,1
179287,-66.6666666666667,4,2,1,70,0,1
186211,-50,4,2,1,70,0,1
186441,-133.333333333333,4,2,1,70,0,1
186614,-133.333333333333,4,2,1,40,0,1
186672,-66.6666666666667,4,2,1,70,0,1
193595,-50,4,2,1,70,0,1
193826,-133.333333333333,4,2,1,70,0,1
193999,-133.333333333333,4,2,1,40,0,1
194057,-66.6666666666667,4,2,1,70,0,1
197749,-133.333333333333,4,2,1,60,0,0
200518,-76.9230769230769,4,2,1,60,0,0
202595,-90.9090909090909,4,2,1,60,0,0
205134,-76.9230769230769,4,2,1,60,0,0
206287,-90.9090909090909,4,2,1,60,0,0
208826,-76.9230769230769,4,2,1,60,0,0
209980,-90.9090909090909,4,2,1,60,0,0
212518,-76.9230769230769,4,2,1,60,0,0
213672,-90.9090909090909,4,2,1,60,0,0
216211,-133.333333333333,4,2,1,60,0,0
216384,-133.333333333333,4,2,1,40,0,0
216441,-76.9230769230769,4,2,1,60,0,0
223134,-55.5555555555556,4,2,1,60,0,0
223364,-133.333333333333,4,2,1,60,0,0
223537,-133.333333333333,4,2,1,40,0,0
223595,-76.9230769230769,4,2,1,60,0,0
230980,-142.857142857143,4,2,1,40,0,0
245287,-100,4,2,1,40,0,0
245749,-66.6666666666667,4,2,1,70,0,1
252672,-50,4,2,1,70,0,1
252903,-133.333333333333,4,2,1,70,0,1
253076,-133.333333333333,4,2,1,40,0,1
253134,-66.6666666666667,4,2,1,70,0,1
260057,-50,4,2,1,70,0,1
260287,-133.333333333333,4,2,1,70,0,1
260461,-133.333333333333,4,2,1,40,0,1
260518,-66.6666666666667,4,2,1,70,0,1
264211,-76.9230769230769,4,2,1,60,0,0
274826,-55.5555555555556,4,2,1,60,0,0
275057,-133.333333333333,4,2,1,60,0,0
275230,-133.333333333333,4,2,1,40,0,0
275287,-76.9230769230769,4,2,1,60,0,0
282211,-55.5555555555556,4,2,1,60,0,0
282441,-133.333333333333,4,2,1,60,0,0
282614,-133.333333333333,4,2,1,40,0,0
282672,-76.9230769230769,4,2,1,60,0,0
289595,-55.5555555555556,4,2,1,60,0,0
289826,-133.333333333333,4,2,1,60,0,0
289999,-133.333333333333,4,2,1,40,0,0
290057,-76.9230769230769,4,2,1,60,0,0
296980,-55.5555555555556,4,2,1,60,0,0
297211,-133.333333333333,4,2,1,60,0,0
297384,-133.333333333333,4,2,1,40,0,0
297441,-76.9230769230769,4,2,1,60,0,0
298134,-100,4,2,1,60,0,0
299057,-80,4,2,1,60,0,0
299980,-66.6666666666667,4,2,1,60,0,0
300672,-57.1428571428571,4,2,1,60,0,0

[Colours]
Combo1 : 252,233,176
Combo2 : 255,179,251
Combo3 : 157,238,254
Combo4 : 213,181,252

[HitObjects]
256,192,1595,12,0,4826,0:0:0:0:
382,192,5287,6,0,P|321:182|261:264,1,150,4|0,0:1|0:0,0:0:0:0:
265,270,5749,6,0,L|192:261,1,69.9999978637696,2|0,0:2|0:2,0:0:0:0:
182,273,6095,2,0,L|109:264,1,69.9999978637696,2|0,0:2|0:2,0:0:0:0:
92,166,6557,2,0,B|169:108|125:9|125:9|88:89,1,244.999992523194,2|0,0:2|0:0,0:0:0:0:
220,154,7595,6,0,L|314:136,1,69.9999978637696,2|0,0:2|0:2,0:0:0:0:
308,152,7941,2,0,L|402:134,1,69.9999978637696,2|0,0:2|0:2,0:0:0:0:
474,166,8403,2,0,P|440:204|447:263,1,104.999996795654,2|0,0:2|0:2,0:0:0:0:
471,349,8980,2,0,L|393:338,1,69.9999978637696,2|0,0:2|0:2,0:0:0:0:
335,266,9441,6,0,L|207:283,1,104.999996795654,2|0,0:2|0:0,0:0:0:0:
347,169,10134,2,0,L|219:186,1,104.999996795654,2|0,0:2|0:0,0:0:0:0:
359,72,10826,2,0,L|231:89,1,104.999996795654,2|0,0:2|0:0,0:0:0:0:
68,63,11518,6,0,B|88:56|88:56|69:148,1,104.999996795654,2|0,0:2|0:0,0:0:0:0:
148,271,12211,2,0,B|128:278|128:278|147:186,1,104.999996795654,2|0,0:2|0:0,0:0:0:0:
152,167,12672,1,2,0:2:0:0:
256,256,12903,1,0,3:2:0:0:
93,375,13134,5,14,0:2:0:0:
29,224,13595,1,8,0:2:0:0:
93,375,14057,1,8,0:2:0:0:
29,224,14518,1,8,0:2:0:0:
256,256,14980,5,10,0:2:0:0:
256,96,15441,1,8,0:2:0:0:
256,256,15903,1,8,0:2:0:0:
256,96,16364,1,8,0:2:0:0:
419,375,16826,5,10,0:2:0:0:
483,224,17287,1,8,0:2:0:0:
419,375,17749,1,8,0:2:0:0:
483,224,18210,1,8,0:2:0:0:
256,96,18672,5,10,0:2:0:0:
256,256,19133,1,8,0:2:0:0:
256,96,19595,1,8,0:2:0:0:
256,256,20056,1,8,0:2:0:0:
199,187,20287,1,0,3:2:0:0:
98,367,20518,6,0,L|81:242,1,110.000003356934,6|0,3:2|0:0,0:0:0:0:
146,86,20980,2,0,L|64:68,1,55.0000016784668,8|0,0:2|0:0,0:0:0:0:
4,202,21211,2,0,B|60:152|60:152|118:164|118:164|131:174|131:174|202:187,1,220.000006713867,0|0,3:2|3:2,0:0:0:0:
364,261,21903,1,8,0:2:0:0:
203,338,22134,1,0,3:2:0:0:
322,157,22364,6,0,L|301:40,1,110.000003356934,4|0,3:2|0:0,0:0:0:0:
146,176,22826,2,0,L|200:187,1,55.0000016784668,8|0,0:2|0:0,0:0:0:0:
364,261,23057,2,0,B|314:277|259:249|259:249|244:276|242:305|242:305|216:315|203:339,1,220.000006713867,0|0,3:2|3:2,0:0:0:0:
400,384,23749,2,0,L|542:357,1,110.000003356934,8|0,0:2|0:0,0:0:0:0:
407,161,24211,6,0,B|304:167|304:167|250:219|250:219|117:224|117:224|200:119|200:119|105:28|105:28|236:16|236:16|298:62|298:62|408:54,1,862.500032901765,6|0,3:2|0:0,0:0:0:0:
397,54,26980,1,8,0:2:0:0:
501,147,27211,5,0,3:2:0:0:
497,165,27287,5,0,3:2:0:0:
494,183,27364,5,0,3:2:0:0:
491,202,27441,6,0,L|479:277,2,64.9999970245363,8|8|0,0:2|0:2|3:2,0:0:0:0:
255,108,27903,6,0,B|301:152|301:152|291:233,1,129.999994049073,6|0,3:2|1:2,0:0:0:0:
114,219,28249,1,2,0:2:0:0:
89,205,28364,2,0,B|148:194|148:194|164:197|164:197|219:188,1,129.999994049073,8|2,0:2|1:2,0:0:0:0:
350,316,28826,1,2,3:2:0:0:
328,312,28941,1,2,0:2:0:0:
290,330,29057,1,2,1:2:0:0:
268,326,29172,1,2,0:2:0:0:
241,292,29287,2,0,L|170:278,1,64.9999970245363,10|0,0:2|0:0,0:0:0:0:
75,384,29518,2,0,L|138:371,1,64.9999970245363,2|0,1:2|0:0,0:0:0:0:
217,187,29749,6,0,B|196:90|196:90|173:118,1,129.999994049073,2|0,3:2|1:2,0:0:0:0:
2,169,30095,1,2,0:2:0:0:
5,190,30211,2,0,B|54:231|54:231|118:218,1,129.999994049073,8|2,0:2|1:2,0:0:0:0:
92,60,30672,2,0,L|75:141,1,64.9999970245363,2|0,3:2|0:0,0:0:0:0:
197,283,30903,1,2,1:2:0:0:
201,267,31019,1,2,0:2:0:0:
204,251,31134,2,0,L|217:187,1,64.9999970245363,10|0,0:2|0:0,0:0:0:0:
86,313,31364,1,2,1:2:0:0:
90,329,31480,1,2,0:2:0:0:
93,345,31595,6,0,L|122:198,1,129.999994049073,2|0,3:2|1:2,0:0:0:0:
182,73,31941,1,2,0:2:0:0:
193,96,32057,2,0,B|144:137|144:137|80:124,1,129.999994049073,8|2,0:2|1:2,0:0:0:0:
279,38,32519,1,2,3:2:0:0:
295,57,32634,2,0,L|278:145,1,64.9999970245363,2|0,0:2|1:2,0:0:0:0:
358,275,32865,1,2,0:2:0:0:
342,256,32980,2,0,L|359:168,1,64.9999970245363,10|0,0:2|0:0,0:0:0:0:
445,86,33211,2,0,L|381:98,1,64.9999970245363,2|0,1:2|0:0,0:0:0:0:
263,206,33441,6,0,L|125:179,1,129.999994049073,2|0,3:2|1:2,0:0:0:0:
0,103,33787,1,2,0:2:0:0:
15,86,33903,2,0,B|56:135|56:135|43:199,1,129.999994049073,8|2,0:2|1:2,0:0:0:0:
142,345,34364,1,2,3:2:0:0:
126,341,34480,1,2,0:2:0:0:
110,338,34595,2,0,L|179:324,1,64.9999970245363,2|0,1:2|3:2,0:0:0:0:
263,206,34826,2,0,L|199:193,1,64.9999970245363,10|0,0:2|0:0,0:0:0:0:
47,79,35057,1,2,3:2:0:0:
31,83,35173,1,2,0:2:0:0:
15,86,35287,6,0,L|142:110,1,129.999994049073,6|0,3:2|1:2,0:0:0:0:
290,24,35633,1,2,0:2:0:0:
275,7,35749,2,0,B|234:56|234:56|247:120,1,129.999994049073,8|2,0:2|1:2,0:0:0:0:
312,283,36211,1,2,3:2:0:0:
316,261,36326,1,2,0:2:0:0:
298,223,36442,1,2,1:2:0:0:
302,201,36557,1,2,0:2:0:0:
336,174,36672,2,0,L|350:103,1,64.9999970245363,10|0,0:2|0:0,0:0:0:0:
421,0,36903,2,0,L|433:63,1,64.9999970245363,2|0,1:2|0:0,0:0:0:0:
247,120,37134,6,0,L|111:104,1,129.999994049073,2|0,3:2|1:2,0:0:0:0:
11,222,37480,1,2,0:2:0:0:
0,204,37595,2,0,L|129:219,1,129.999994049073,8|2,0:2|1:2,0:0:0:0:
312,283,38057,2,0,L|244:291,1,64.9999970245363,2|0,3:2|0:0,0:0:0:0:
132,365,38287,1,2,1:2:0:0:
148,366,38403,1,2,0:2:0:0:
164,368,38518,2,0,L|156:300,1,64.9999970245363,10|0,0:2|0:0,0:0:0:0:
264,164,38748,1,2,1:2:0:0:
248,163,38864,1,2,0:2:0:0:
232,161,38980,6,0,L|247:292,1,129.999994049073,2|0,3:2|1:2,0:0:0:0:
381,366,39325,1,2,0:2:0:0:
366,383,39441,2,0,B|325:334|325:334|338:270,1,129.999994049073,8|2,0:2|1:2,0:0:0:0:
501,146,39902,1,2,3:2:0:0:
477,156,40018,2,0,L|409:143,1,64.9999970245363,2|0,0:2|1:2,0:0:0:0:
281,68,40249,1,2,0:2:0:0:
305,78,40365,2,0,L|373:65,1,64.9999970245363,10|0,0:2|0:0,0:0:0:0:
475,0,40595,2,0,L|462:68,1,64.9999970245363,2|0,1:2|0:0,0:0:0:0:
330,166,40826,6,0,L|343:234,1,59.9999981689454,2|0,3:2|0:0,0:0:0:0:
485,365,41518,6,0,L|499:288,1,64.9999970245363,8|0,0:2|0:0,0:0:0:0:
384,384,41749,2,0,L|398:307,1,64.9999970245363,8|0,0:2|0:0,0:0:0:0:
330,166,41980,1,2,3:2:0:0:
360,156,42095,1,2,0:2:0:0:
430,188,42211,1,10,0:2:0:0:
460,178,42326,1,2,0:2:0:0:
482,104,42441,2,0,L|467:27,1,64.9999970245363,10|8,0:2|0:2,0:0:0:0:
363,18,42672,6,0,P|317:53|267:44,1,89.9999972534181,6|0,3:2|0:0,0:0:0:0:
163,105,43134,2,0,P|207:109|239:139,1,89.9999972534181,8|0,0:2|0:0,0:0:0:0:
256,176,43480,1,2,0:2:0:0:
256,176,43595,1,0,3:2:0:0:
92,162,43826,1,2,0:2:0:0:
187,282,44057,2,0,L|166:178,1,89.9999972534181,8|0,0:2|0:0,0:0:0:0:
0,139,44518,6,0,L|17:227,1,89.9999972534181,0|0,3:2|0:0,0:0:0:0:
100,311,44980,2,0,P|50:305|11:337,1,89.9999972534181,10|0,0:2|0:0,0:0:0:0:
0,365,45326,2,0,L|56:379,1,44.999998626709,2|0,0:2|3:2,0:0:0:0:
102,209,45672,1,2,0:2:0:0:
188,333,45903,2,0,L|96:310,1,89.9999972534181,8|0,0:2|0:0,0:0:0:0:
33,129,46364,6,0,L|120:107,1,89.9999972534181,2|0,3:2|0:0,0:0:0:0:
236,179,46826,2,0,P|212:138|230:80,1,89.9999972534181,8|0,0:2|0:0,0:0:0:0:
243,62,47172,1,2,0:2:0:0:
243,62,47287,1,0,3:2:0:0:
341,156,47518,1,2,0:2:0:0:
255,276,47749,2,0,L|165:263,1,89.9999972534181,8|0,0:2|0:0,0:0:0:0:
341,156,48211,6,0,L|431:169,1,89.9999972534181,0|0,3:2|0:0,0:0:0:0:
512,279,48672,2,0,P|462:269|424:297,1,89.9999972534181,10|0,0:2|0:0,0:0:0:0:
410,321,49018,2,0,L|422:380,1,44.999998626709,2|0,0:2|3:2,0:0:0:0:
331,250,49364,1,2,0:2:0:0:
226,361,49595,2,0,L|316:348,1,89.9999972534181,8|0,0:2|0:0,0:0:0:0:
142,277,50057,6,0,L|232:264,1,89.9999972534181,2|0,3:2|0:0,0:0:0:0:
320,149,50518,2,0,L|230:162,1,89.9999972534181,8|0,0:2|0:0,0:0:0:0:
196,172,50864,1,2,0:2:0:0:
196,172,50980,1,0,3:2:0:0:
105,61,51211,1,2,0:2:0:0:
0,160,51441,2,0,P|60:169|104:126,1,89.9999972534181,8|0,0:2|0:0,0:0:0:0:
232,264,51903,6,0,L|142:277,1,89.9999972534181,0|0,3:2|0:0,0:0:0:0:
37,368,52364,2,0,P|56:328|47:284,1,89.9999972534181,10|0,0:2|0:0,0:0:0:0:
26,258,52711,2,0,L|8:310,1,44.999998626709,2|0,0:2|3:2,0:0:0:0:
143,277,53057,1,2,0:2:0:0:
0,160,53287,2,0,L|93:174,1,89.9999972534181,8|0,0:2|0:0,0:0:0:0:
232,264,53749,6,0,L|142:277,1,89.9999972534181,2|0,3:2|0:0,0:0:0:0:
246,355,54211,2,0,L|336:342,1,89.9999972534181,8|0,0:2|0:0,0:0:0:0:
371,338,54557,1,2,0:2:0:0:
371,338,54672,1,0,3:2:0:0:
408,180,54903,1,2,0:2:0:0:
512,280,55134,2,0,L|422:267,1,89.9999972534181,8|0,0:2|0:0,0:0:0:0:
346,99,55595,6,0,L|436:86,1,89.9999972534181,0|0,3:2|0:0,0:0:0:0:
320,187,56057,2,0,P|271:190|237:163,1,89.9999972534181,10|0,0:2|0:0,0:0:0:0:
233,141,56403,2,0,L|239:87,1,44.999998626709,2|0,0:2|3:2,0:0:0:0:
162,208,56749,1,2,0:2:0:0:
137,48,56980,1,8,0:2:0:0:
137,48,57441,6,0,P|77:38|18:115,1,150,6|0,3:2|0:0,0:0:0:0:
0,117,57903,2,0,P|49:123|98:132,1,100,8|0,0:2|0:0,0:0:0:0:
127,155,58249,1,2,0:2:0:0:
127,155,58364,1,0,3:2:0:0:
224,16,58595,1,2,0:2:0:0:
337,132,58826,2,0,P|287:123|238:116,1,100,8|0,0:2|0:0,0:0:0:0:
400,39,59287,6,0,P|449:92|444:165,1,150,0|0,3:2|0:0,0:0:0:0:
420,196,59749,2,0,P|429:246|436:295,1,100,10|0,0:2|0:0,0:0:0:0:
453,332,60095,1,2,0:2:0:0:
453,332,60211,2,0,P|404:325|365:354,1,100,0|2,3:2|0:2,0:0:0:0:
226,239,60672,1,8,0:2:0:0:
252,384,60903,1,0,1:2:0:0:
334,239,61134,6,0,P|322:165|309:92,1,150,2|0,3:2|0:0,0:0:0:0:
283,61,61595,2,0,P|231:53|186:93,1,100,8|0,0:2|0:0,0:0:0:0:
180,115,61941,1,2,0:2:0:0:
180,115,62057,1,0,3:2:0:0:
104,0,62287,1,2,0:2:0:0:
22,121,62518,2,0,P|30:170|40:219,1,100,8|0,0:2|0:0,0:0:0:0:
222,256,62980,6,0,P|162:253|113:333,1,150,0|0,3:2|0:0,0:0:0:0:
91,342,63441,2,0,P|139:345|190:351,1,100,10|0,0:2|0:0,0:0:0:0:
223,384,63787,1,2,0:2:0:0:
222,384,63903,2,0,P|271:377|321:373,1,100,0|2,3:2|0:2,0:0:0:0:
376,202,64364,1,8,0:2:0:0:
452,340,64595,1,0,1:2:0:0:
291,278,64826,6,0,B|250:237|250:237|282:133,1,150,2|0,3:2|0:0,0:0:0:0:
302,127,65287,2,0,L|278:24,1,100,8|0,0:2|0:0,0:0:0:0:
247,0,65634,1,2,0:2:0:0:
247,0,65749,1,0,3:2:0:0:
200,113,65980,1,2,0:2:0:0:
374,60,66211,2,0,P|423:67|472:77,1,100,8|0,0:2|0:3,0:3:0:0:
512,263,66672,6,0,P|456:215|384:226,1,150,0|0,3:2|0:0,0:0:0:0:
358,251,67134,2,0,P|308:241|259:233,1,100,10|0,0:2|0:3,0:3:0:0:
231,207,67480,1,2,0:2:0:0:
231,207,67595,2,0,P|181:215|132:224,1,100,0|2,3:2|0:2,0:3:0:0:
0,291,68057,1,8,0:2:0:0:
120,341,68287,1,0,1:2:0:0:
30,183,68518,6,0,P|40:108|52:34,1,150,2|0,3:2|0:0,0:0:0:0:
76,9,68980,2,0,P|127:0|174:27,1,100,8|0,0:2|0:0,0:0:0:0:
197,45,69326,1,2,0:2:0:0:
197,45,69441,1,0,3:2:0:0:
122,148,69672,1,2,0:2:0:0:
262,215,69903,2,0,L|371:191,1,100,8|0,0:2|0:0,0:0:0:0:
472,46,70364,6,0,B|428:29|428:29|455:133,1,150,0|0,3:2|0:0,0:0:0:0:
485,150,70826,2,0,L|468:254,1,100,10|0,0:2|0:0,0:0:0:0:
479,292,71172,1,2,0:2:0:0:
479,292,71287,2,0,P|422:281|374:315,1,100,0|2,3:2|0:2,0:0:0:0:
248,213,71749,1,8,0:2:0:0:
278,356,71980,1,0,1:2:0:0:
351,198,72211,6,0,B|330:97|330:97|304:84|269:99,1,165.000005035401,6|0,3:2|0:0,0:0:0:0:
241,121,72672,2,0,B|193:114|193:114|179:122|179:122|121:113,1,110.000003356934,8|0,0:2|0:0,0:0:0:0:
102,89,73018,1,2,0:2:0:0:
102,89,73134,1,0,3:2:0:0:
215,207,73364,1,2,0:2:0:0:
92,305,73595,2,0,B|66:190|66:190|138:222,1,165.000005035401,8|0,0:2|0:0,0:0:0:0:
103,324,74057,6,0,L|-7:312,1,110.000003356934,0|0,3:2|0:0,0:0:0:0:
8,186,74403,1,0,0:0:0:0:
0,197,74518,2,0,L|110:209,1,110.000003356934,10|0,0:2|0:0,0:0:0:0:
143,216,74864,1,2,0:2:0:0:
143,216,74980,1,0,3:2:0:0:
211,122,75211,1,2,0:2:0:0:
98,108,75441,1,8,0:2:0:0:
256,230,75672,1,0,1:2:0:0:
280,32,75903,6,0,P|222:2|125:54,1,165.000005035401,2|0,3:2|0:0,0:0:0:0:
98,108,76364,2,0,L|120:227,1,110.000003356934,8|0,0:2|0:0,0:0:0:0:
128,256,76711,1,2,0:2:0:0:
128,256,76826,1,0,3:2:0:0:
22,173,77057,1,2,0:2:0:0:
211,122,77287,2,0,L|334:137,1,110.000003356934,8|0,0:2|0:0,0:0:0:0:
483,231,77749,6,0,L|373:244,1,110.000003356934,0|0,3:2|0:0,0:0:0:0:
259,329,78095,1,0,0:0:0:0:
269,342,78211,2,0,B|295:294|295:294|273:224,1,110.000003356934,10|0,0:2|0:0,0:0:0:0:
258,210,78557,1,2,0:2:0:0:
258,210,78672,1,0,3:2:0:0:
158,330,78903,1,2,0:2:0:0:
158,330,79018,1,0,3:2:0:0:
158,330,79134,1,8,0:2:0:0:
124,169,79364,1,0,1:2:0:0:
259,329,79595,6,0,L|433:308,1,165.000005035401,2|0,3:2|0:0,0:0:0:0:
483,253,80057,2,0,B|437:223|437:223|361:238,1,110.000003356934,8|0,0:2|0:0,0:0:0:0:
344,244,80403,1,2,0:2:0:0:
344,244,80518,1,0,3:2:0:0:
301,82,80749,1,2,0:2:0:0:
138,200,80980,2,0,B|242:213|242:213|264:192|258:156,1,165.000005035401,8|0,0:2|0:0,0:0:0:0:
181,113,81441,6,0,P|127:105|78:130,1,110.000003356934,0|0,3:2|0:0,0:0:0:0:
88,272,81787,1,0,0:0:0:0:
95,282,81903,2,0,P|148:289|197:264,1,110.000003356934,10|0,0:2|0:0,0:0:0:0:
220,236,82249,1,2,0:2:0:0:
220,236,82364,1,0,3:2:0:0:
316,300,82595,1,2,0:2:0:0:
323,184,82826,1,8,0:2:0:0:
213,352,83057,1,0,1:2:0:0:
138,200,83287,6,0,B|149:130|149:130|161:116|161:116|175:28,1,165.000005035401,2|0,3:2|0:0,0:0:0:0:
148,7,83749,2,0,P|90:2|35:57,1,110.000003356934,8|0,0:2|0:0,0:0:0:0:
41,69,84095,1,2,0:2:0:0:
41,69,84211,1,0,3:2:0:0:
138,200,84441,1,2,0:2:0:0:
257,74,84672,2,0,P|308:54|360:67,1,110.000003356934,8|0,0:2|0:0,0:0:0:0:
487,176,85018,1,0,0:2:0:0:
491,163,85134,6,0,B|435:156|435:156|393:195,1,110.000003356934,2|0,3:2|0:0,0:0:0:0:
267,259,85480,1,2,0:2:0:0:
259,245,85595,2,0,B|315:238|315:238|357:277,1,110.000003356934,8|2,0:2|0:2,0:0:0:0:
373,309,85941,1,2,0:2:0:0:
373,309,86057,1,0,3:2:0:0:
279,146,86287,1,2,0:2:0:0:
279,146,86403,1,0,3:2:0:0:
279,146,86518,1,8,0:2:0:0:
279,350,86749,1,0,1:2:0:0:
172,186,86980,6,0,L|159:290,1,104.999996795654,4|0,3:2|0:0,0:0:0:0:
55,300,87903,6,0,L|64:225,1,75.0000028610231,2|0,0:2|0:0,0:0:0:0:
60,174,88249,1,8,0:2:0:0:
60,174,88364,1,10,0:2:0:0:
159,290,88595,1,0,3:2:0:0:
219,98,88826,6,0,B|255:93|255:93|301:116,1,75.0000028610231,6|0,3:2|0:0,0:0:0:0:
452,164,89057,1,2,1:2:0:0:
456,197,89172,2,0,B|420:202|420:202|374:179,1,75.0000028610231,2|8,0:2|0:2,0:0:0:0:
391,17,89403,2,0,L|373:112,1,75.0000028610231,2|0,0:2|1:2,0:0:0:0:
244,189,89634,1,2,0:2:0:0:
250,218,89749,6,0,L|290:430,1,150.000005722046,0|0,3:2|1:2,0:0:0:0:
129,184,90211,1,10,0:2:0:0:
76,168,90326,1,2,0:2:0:0:
25,190,90441,1,2,1:2:0:0:
1,239,90557,1,2,0:2:0:0:
13,293,90672,6,0,L|100:275,1,75.0000028610231,2|0,3:2|0:0,0:0:0:0:
258,338,90902,1,2,1:2:0:0:
278,365,91018,2,0,L|204:380,1,75.0000028610231,2|8,0:2|0:2,0:0:0:0:
161,231,91249,2,0,L|234:215,1,75.0000028610231,2|0,0:2|1:2,0:0:0:0:
294,98,91480,1,2,0:2:0:0:
442,180,91595,5,0,3:2:0:0:
442,180,91826,2,0,B|408:198|408:198|357:193,1,75.0000028610231,2|0,1:2|0:0,0:0:0:0:
374,33,92057,2,0,B|392:67|392:67|387:118,1,75.0000028610231,10|0,0:2|0:0,0:0:0:0:
214,253,92287,1,2,1:2:0:0:
246,251,92402,1,0,0:0:0:0:
280,247,92518,6,0,L|294:97,1,150.000005722046,2|0,3:2|1:2,0:0:0:0:
151,14,92864,1,2,0:2:0:0:
176,1,92980,2,0,L|169:76,1,75.0000028610231,8|0,0:2|0:0,0:0:0:0:
47,191,93211,2,0,L|122:184,1,75.0000028610231,2|0,1:2|0:0,0:0:0:0:
175,344,93441,6,0,B|107:349|107:349|91:359|91:359|-4:367,1,150.000005722046,2|0,3:2|1:2,0:0:0:0:
233,257,93787,1,2,0:2:0:0:
259,273,93903,2,0,B|277:307|277:307|272:358,1,75.0000028610231,8|0,0:2|0:0,0:0:0:0:
136,254,94134,2,0,B|118:220|118:220|123:169,1,75.0000028610231,2|0,1:2|0:0,0:0:0:0:
207,0,94364,6,0,L|207:158,1,150.000005722046,2|0,3:2|1:2,0:0:0:0:
369,223,94710,1,2,0:2:0:0:
342,243,94826,2,0,L|342:168,1,75.0000028610231,8|0,0:2|0:0,0:0:0:0:
438,58,95057,2,0,L|438:133,1,75.0000028610231,2|0,1:2|0:0,0:0:0:0:
233,257,95287,6,0,B|168:249|168:249|147:260|147:260|86:251,1,150.000005722046,2|0,3:2|1:2,0:0:0:0:
0,128,95633,1,0,3:2:0:0:
78,70,95749,6,0,B|106:111|106:111|87:192,1,100,10|0,0:2|0:0,0:0:0:0:
11,285,95980,6,0,P|1:254|12:219,1,56.2500021457673,0|0,3:2|0:0,0:0:0:0:
87,251,96211,6,0,L|160:239,1,75.0000028610231,6|0,3:2|0:0,0:0:0:0:
257,96,96441,1,2,1:2:0:0:
220,90,96557,2,0,L|232:163,1,75.0000028610231,2|8,0:2|0:2,0:0:0:0:
345,276,96787,2,0,L|332:202,1,75.0000028610231,2|0,0:2|1:2,0:0:0:0:
257,302,97018,1,2,0:2:0:0:
267,335,97134,6,0,P|329:379|415:335,1,150.000005722046,0|0,3:2|1:2,0:0:0:0:
134,227,97595,1,10,0:2:0:0:
80,214,97710,1,2,0:2:0:0:
29,236,97825,1,2,1:2:0:0:
0,284,97941,1,2,0:2:0:0:
5,339,98057,6,0,L|83:326,1,75.0000028610231,2|0,3:2|0:0,0:0:0:0:
257,302,98287,1,2,1:2:0:0:
228,315,98403,2,0,B|224:352|224:352|242:385,1,75.0000028610231,2|8,0:2|0:2,0:0:0:0:
352,310,98634,2,0,B|356:273|356:273|337:240,1,75.0000028610231,2|0,0:2|1:2,0:0:0:0:
275,141,98864,1,2,0:2:0:0:
134,227,98980,5,0,3:2:0:0:
134,227,99211,2,0,L|222:213,1,75.0000028610231,2|0,1:2|0:0,0:0:0:0:
211,21,99441,2,0,L|136:32,1,75.0000028610231,10|0,0:2|0:0,0:0:0:0:
275,141,99672,1,2,1:2:0:0:
312,135,99787,1,0,0:0:0:0:
349,129,99903,6,0,B|370:57|370:57|323:-1,1,150.000005722046,2|0,3:2|1:2,0:0:0:0:
167,126,100249,1,2,0:2:0:0:
145,153,100364,2,0,L|134:228,1,75.0000028610231,8|0,0:2|0:0,0:0:0:0:
295,308,100595,2,0,L|284:233,1,75.0000028610231,2|0,1:2|0:0,0:0:0:0:
56,278,100826,6,0,B|114:325|114:325|186:304,1,150.000005722046,0|0,3:2|1:2,0:0:0:0:
339,153,101172,1,2,0:2:0:0:
312,135,101287,2,0,L|237:146,1,75.0000028610231,8|0,0:2|0:0,0:0:0:0:
295,308,101518,2,0,L|370:296,1,75.0000028610231,2|0,1:2|0:0,0:0:0:0:
470,143,101749,6,0,B|440:179|440:179|423:76,1,150.000005722046,2|0,3:2|1:2,0:3:0:0:
239,18,102095,1,2,0:2:0:0:
255,0,102211,2,0,L|267:75,1,75.0000028610231,8|0,0:2|0:0,0:0:0:0:
131,202,102441,2,0,L|143:127,1,75.0000028610231,2|0,1:2|0:0,0:0:0:0:
333,151,102672,6,0,L|309:299,1,150.000005722046,2|0,3:2|1:2,0:0:0:0:
125,317,103018,1,2,3:2:0:0:
198,384,103134,6,0,L|214:277,1,100,10|0,0:2|0:0,0:0:0:0:
225,136,103364,6,0,L|216:191,1,56.2500021457673,0|0,3:2|0:0,0:0:0:0:
209,205,103595,6,0,L|284:217,1,75.0000028610231,6|0,3:2|0:0,0:0:0:0:
434,290,103826,1,2,1:2:0:0:
397,296,103942,2,0,L|409:221,1,75.0000028610231,2|8,0:2|0:2,0:0:0:0:
336,68,104172,2,0,L|348:143,1,75.0000028610231,2|0,0:2|1:2,0:3:0:0:
213,285,104403,1,2,0:2:0:0:
195,313,104518,6,0,P|125:333|65:291,1,150.000005722046,0|0,3:2|1:2,0:0:0:0:
0,37,104980,1,10,0:2:0:0:
50,14,105095,1,2,0:2:0:0:
104,28,105210,1,2,1:2:0:0:
138,71,105326,1,2,0:2:0:0:
139,126,105441,6,0,L|35:142,1,75.0000028610231,2|0,3:2|0:0,0:0:0:0:
229,54,105673,1,2,1:2:0:0:
266,48,105787,2,0,B|284:81|284:81|272:152,1,75.0000028610231,2|8,0:2|0:2,0:0:0:0:
213,283,106018,2,0,B|194:249|194:249|206:178,1,75.0000028610231,2|0,0:2|1:2,0:0:0:0:
277,117,106249,1,2,0:2:0:0:
370,219,106364,5,0,3:2:0:0:
370,219,106595,2,0,L|281:234,1,75.0000028610231,2|0,1:2|0:0,0:0:0:0:
191,381,106826,2,0,L|264:368,1,75.0000028610231,10|0,0:2|0:0,0:0:0:0:
387,311,107057,2,0,L|374:384,1,75.0000028610231,2|0,1:2|0:3,0:3:0:0:
296,231,107287,6,0,L|323:68,1,150.000005722046,2|0,3:2|1:2,0:3:0:0:
508,91,107634,1,2,0:2:0:0:
485,115,107749,2,0,B|449:121|449:121|415:102,1,75.0000028610231,8|0,0:2|0:0,0:0:0:0:
302,0,107980,2,0,B|337:-6|337:-6|371:12,1,75.0000028610231,2|0,1:2|0:0,0:0:0:0:
220,141,108211,6,0,L|72:116,1,150.000005722046,2|0,3:2|1:2,0:3:0:0:
15,264,108557,1,2,0:2:0:0:
0,239,108672,2,0,L|73:251,1,75.0000028610231,8|0,0:2|0:3,0:3:0:0:
176,367,108903,2,0,B|157:333|157:333|163:297,1,75.0000028610231,2|0,1:2|0:0,0:0:0:0:
318,269,109134,6,0,B|354:299|354:299|251:316,1,150.000005722046,2|0,3:2|1:2,0:3:0:0:
173,186,109480,1,2,0:2:0:0:
150,209,109595,2,0,L|223:221,1,75.0000028610231,8|0,0:2|0:3,0:3:0:0:
316,102,109826,2,0,L|242:114,1,75.0000028610231,2|0,1:2|0:3,0:3:0:0:
397,154,110057,6,0,B|420:83|420:83|378:18,1,150.000005722046,2|0,3:2|1:2,0:0:0:0:
307,187,110403,1,0,3:2:0:0:
398,248,110518,6,0,L|511:227,1,100,10|0,0:2|0:3,0:3:0:0:
316,102,110749,6,0,L|248:112,1,56.2500021457673,0|0,3:2|0:3,0:3:0:0:
242,114,110980,6,0,L|254:40,1,75.0000028610231,6|0,3:2|0:3,0:3:0:0:
109,145,111211,1,2,1:2:0:0:
139,169,111326,2,0,L|151:95,1,75.0000028610231,2|8,0:2|0:2,0:3:0:0:
307,187,111557,2,0,L|233:199,1,75.0000028610231,2|0,0:2|1:2,0:3:0:0:
170,360,111787,1,2,0:2:0:0:
147,344,111903,6,0,P|205:301|276:316,1,150.000005722046,0|0,3:2|1:2,0:0:0:0:
512,354,112364,1,10,0:2:0:0:
459,369,112479,1,2,0:2:0:0:
412,340,112594,1,2,1:2:0:0:
401,287,112710,1,2,0:2:0:0:
433,242,112826,6,0,L|450:145,1,75.0000028610231,2|0,3:2|0:0,0:0:0:0:
320,53,113057,1,2,1:2:0:0:
353,39,113172,2,0,L|340:112,1,75.0000028610231,2|8,0:2|0:2,0:0:0:0:
229,275,113403,2,0,L|242:201,1,75.0000028610231,2|0,0:2|1:2,0:0:0:0:
321,250,113634,1,2,0:2:0:0:
359,369,113749,5,0,3:2:0:0:
359,369,113980,2,0,L|263:353,1,75.0000028610231,2|0,1:2|0:0,0:0:0:0:
155,287,114211,2,0,L|251:271,1,75.0000028610231,10|0,0:2|0:0,0:0:0:0:
71,344,114441,2,0,B|52:310|52:310|58:274,1,75.0000028610231,2|0,1:2|0:0,0:0:0:0:
179,151,114672,6,0,L|327:176,1,150.000005722046,2|0,3:2|1:2,0:3:0:0:
464,83,115018,1,2,0:2:0:0:
482,101,115134,2,0,L|408:88,1,75.0000028610231,8|0,0:2|0:3,0:3:0:0:
287,0,115364,2,0,L|299:74,1,75.0000028610231,2|0,1:2|0:3,0:3:0:0:
431,199,115595,6,0,L|405:349,1,150.000005722046,2|0,3:2|1:2,0:3:0:0:
234,314,115941,1,2,0:2:0:0:
228,335,116057,2,0,B|262:354|262:354|298:348,1,75.0000028610231,8|0,0:2|0:0,0:0:0:0:
327,176,116287,2,0,B|293:157|293:157|257:163,1,75.0000028610231,2|0,1:2|0:0,0:0:0:0:
125,303,116518,6,0,B|165:239|165:239|142:168,1,150.000005722046,2|0,3:2|1:2,0:0:0:0:
21,68,116864,1,2,0:2:0:0:
2,94,116980,2,0,L|76:105,1,75.0000028610231,8|0,0:2|0:3,0:3:0:0:
200,0,117211,2,0,L|125:10,1,75.0000028610231,2|0,1:2|0:3,0:3:0:0:
257,162,117441,6,0,L|405:183,1,150.000005722046,2|0,3:2|1:2,0:3:0:0:
472,19,117787,1,0,3:2:0:0:
512,113,117903,6,0,L|394:95,1,100,10|0,0:2|0:3,0:3:0:0:
257,27,118134,6,0,L|321:17,1,56.2500021457673,0|0,3:2|0:3,0:3:0:0:
332,0,118364,6,0,B|328:65|328:65|336:80|336:80|335:181,1,150.000005722046,6|2,3:2|0:2,0:0:0:0:
239,300,118711,1,2,0:2:0:0:
256,315,118826,2,0,L|257:232,1,75.0000028610231,8|2,0:2|0:2,0:0:0:0:
97,138,119057,2,0,B|156:107|156:107|183:140|241:149|241:149|208:158|186:176,1,225.000008583069,2|0,3:2|0:0,0:0:0:0:
170,205,119518,1,0,3:2:0:0:
244,39,119749,1,8,0:2:0:0:
410,159,119980,2,0,L|318:145,1,75.0000028610231,2|0,3:2|0:0,0:0:0:0:
257,240,120211,6,0,P|336:240|383:319,1,150.000005722046,6|0,3:2|0:0,0:0:0:0:
242,343,120557,1,2,0:2:0:0:
217,352,120672,2,0,L|131:340,1,75.0000028610231,8|0,0:2|0:0,0:0:0:0:
0,229,120903,2,0,B|76:211|76:211|92:219|92:219|174:198|174:198|108:167,1,225.000008583069,2|0,3:2|0:0,0:0:0:0:
100,166,121364,1,0,3:2:0:0:
257,240,121595,1,8,0:2:0:0:
259,29,121826,2,0,L|167:47,1,75.0000028610231,2|0,3:2|0:0,0:0:0:0:
0,0,122057,5,12,0:2:0:0:
0,164,122518,1,8,0:2:0:0:
0,0,122980,1,8,0:2:0:0:
0,164,123441,1,8,0:2:0:0:
231,82,123903,5,8,0:2:0:0:
231,246,124364,1,8,0:2:0:0:
231,82,124826,1,8,0:2:0:0:
383,167,125057,5,0,3:2:0:0:
365,171,125133,5,0,3:2:0:0:
347,174,125210,5,0,3:2:0:0:
328,177,125287,6,0,L|250:162,2,64.9999970245363,8|8|0,0:2|0:2|3:2,0:0:0:0:
431,82,125749,6,0,B|475:131|475:131|463:224,1,129.999994049073,6|0,3:2|1:2,0:0:0:0:
406,326,126095,1,2,0:2:0:0:
383,318,126211,2,0,B|432:274|432:274|525:286,1,129.999994049073,8|2,0:2|1:2,0:0:0:0:
264,384,126672,2,0,L|108:363,1,129.999994049073,2|0,3:2|1:2,0:0:0:0:
127,229,127018,1,2,0:2:0:0:
139,218,127134,2,0,B|143:250|143:250|129:289,1,64.9999970245363,8|0,0:2|0:0,0:0:0:0:
46,384,127364,2,0,B|42:352|42:352|56:313,1,64.9999970245363,2|0,1:2|0:0,0:0:0:0:
212,294,127595,6,0,L|340:311,1,129.999994049073,2|0,3:2|1:2,0:0:0:0:
495,380,127941,1,2,0:2:0:0:
475,384,128057,2,0,B|431:335|431:335|443:242,1,129.999994049073,8|2,0:2|1:2,0:0:0:0:
274,83,128518,1,2,3:2:0:0:
291,73,128634,2,0,B|282:129|282:129|294:144|294:144|284:220,1,129.999994049073,2|2,0:2|0:2,0:0:0:0:
212,294,128980,2,0,L|147:285,1,64.9999970245363,10|0,0:2|0:0,0:0:0:0:
120,175,129211,2,0,L|184:184,1,64.9999970245363,2|0,1:2|0:0,0:0:0:0:
301,289,129441,6,0,L|429:270,1,129.999994049073,2|0,3:2|1:2,0:0:0:0:
512,143,129787,1,2,0:2:0:0:
512,160,129903,2,0,B|450:178|450:178|395:142,1,129.999994049073,8|2,0:2|1:2,0:0:0:0:
212,33,130364,2,0,B|246:17|246:17|227:120,1,129.999994049073,2|0,3:2|1:2,0:0:0:0:
83,113,130711,1,2,0:2:0:0:
78,96,130826,2,0,B|110:92|110:92|139:106,1,64.9999970245363,8|0,0:2|0:0,0:0:0:0:
244,194,131057,2,0,B|211:197|211:197|182:183,1,64.9999970245363,2|0,1:2|0:0,0:0:0:0:
311,94,131287,6,0,L|327:229,1,129.999994049073,2|0,3:2|1:2,0:0:0:0:
447,318,131633,1,2,0:2:0:0:
458,301,131749,2,0,B|396:282|396:282|341:318,1,129.999994049073,8|2,0:2|1:2,0:0:0:0:
166,374,132210,1,2,3:2:0:0:
177,361,132326,2,0,L|168:296,1,64.9999970245363,2|0,0:2|1:2,0:0:0:0:
33,189,132557,1,2,3:2:0:0:
46,209,132672,2,0,L|110:217,1,64.9999970245363,10|0,0:2|0:0,0:0:0:0:
227,124,132903,2,0,L|162:132,1,64.9999970245363,2|0,3:2|0:0,0:0:0:0:
0,73,133134,6,0,P|55:89|121:21,1,142.49999619484,6|0,3:2|0:0,0:0:0:0:
146,14,133595,2,0,P|192:21|239:29,1,94.9999974632264,8|0,0:2|0:0,0:0:0:0:
271,53,133941,1,2,0:2:0:0:
271,53,134057,1,0,3:2:0:0:
163,132,134287,1,2,0:2:0:0:
276,244,134518,2,0,L|254:135,1,94.9999974632264,8|0,0:2|0:0,0:0:0:0:
384,12,134980,6,0,L|355:151,1,142.49999619484,0|0,3:2|0:0,0:0:0:0:
348,186,135441,2,0,P|409:208|451:183,1,94.9999974632264,10|0,0:2|0:0,0:0:0:0:
472,185,135787,1,2,0:2:0:0:
472,185,135903,2,0,L|460:294,1,94.9999974632264,0|2,3:2|0:2,0:0:0:0:
349,384,136364,1,8,0:2:0:0:
475,384,136595,1,0,1:2:0:0:
344,272,136826,6,0,P|275:260|217:299,1,142.49999619484,2|0,3:2|0:0,0:0:0:0:
194,326,137287,2,0,L|171:207,1,94.9999974632264,8|0,0:2|0:0,0:0:0:0:
181,193,137634,1,2,0:2:0:0:
181,193,137749,1,0,3:2:0:0:
102,308,137980,1,2,0:2:0:0:
0,206,138211,2,0,B|39:232|39:232|86:221,1,94.9999974632264,8|0,0:2|0:0,0:0:0:0:
251,120,138672,6,0,L|278:259,1,142.49999619484,0|0,3:2|0:0,0:0:0:0:
296,288,139134,2,0,P|341:254|384:264,1,94.9999974632264,10|0,0:2|0:0,0:0:0:0:
411,280,139480,1,2,0:2:0:0:
411,280,139595,1,0,3:2:0:0:
458,137,139826,1,2,0:2:0:0:
458,137,139941,1,0,3:2:0:0:
458,137,140057,1,8,0:2:0:0:
512,249,140287,1,0,3:2:0:0:
357,177,140518,6,0,P|366:107|377:36,1,142.49999619484,2|0,3:2|0:0,0:0:0:0:
386,0,140980,2,0,P|341:30|286:17,1,94.9999974632264,8|0,0:2|0:0,0:0:0:0:
270,6,141326,1,2,0:2:0:0:
270,6,141441,1,0,3:2:0:0:
231,140,141672,1,2,0:2:0:0:
84,80,141903,2,0,L|193:58,1,94.9999974632264,8|0,0:2|0:0,0:0:0:0:
312,192,142364,6,0,P|272:234|182:224,1,142.49999619484,0|0,3:2|0:0,0:0:0:0:
158,217,142826,2,0,P|149:264|144:311,1,94.9999974632264,10|0,0:2|0:0,0:0:0:0:
137,352,143172,1,2,0:2:0:0:
137,352,143287,2,0,P|183:344|224:365,1,94.9999974632264,0|2,3:2|0:2,0:0:0:0:
364,296,143749,1,8,0:2:0:0:
228,370,143980,1,0,1:2:0:0:
285,207,144211,6,0,P|276:136|263:66,1,142.49999619484,2|0,3:2|0:0,0:0:0:0:
240,36,144672,2,0,P|198:69|143:61,1,94.9999974632264,8|0,0:2|0:0,0:0:0:0:
125,46,145018,1,2,0:2:0:0:
125,46,145134,1,0,3:2:0:0:
86,164,145364,1,2,0:2:0:0:
17,20,145595,2,0,L|-2:130,1,94.9999974632264,8|0,0:2|0:0,0:0:0:0:
32,265,146057,5,0,3:2:0:0:
32,265,146518,5,2,0:2:0:0:
112,308,146864,5,2,0:2:0:0:
194,250,147211,5,2,0:2:0:0:
194,250,147672,1,0,1:2:0:0:
343,325,147903,6,0,P|289:319|245:371,1,110.000003356934,6|0,3:2|1:2,0:0:0:0:
107,379,148249,1,0,0:0:0:0:
126,384,148364,2,0,P|117:328|104:276,1,110.000003356934,8|0,0:2|1:2,0:0:0:0:
83,249,148711,1,2,0:2:0:0:
83,249,148826,1,0,3:2:0:0:
171,124,149057,1,2,1:2:0:0:
291,238,149287,2,0,P|355:251|416:170,1,165.000005035401,8|0,0:2|0:0,0:0:0:0:
441,135,149749,6,0,P|386:143|333:156,1,110.000003356934,0|0,3:2|1:2,0:0:0:0:
230,65,150095,1,0,0:0:0:0:
244,74,150211,2,0,P|304:77|339:38,1,110.000003356934,10|0,0:2|1:2,0:0:0:0:
332,0,150557,2,0,P|304:-1|277:0,1,55.0000016784668,2|0,0:2|3:2,0:0:0:0:
123,63,150903,1,2,1:2:0:0:
230,183,151134,2,0,P|236:128|244:73,1,110.000003356934,8|0,0:2|1:2,0:0:0:0:
34,157,151595,6,0,P|87:152|133:181,1,110.000003356934,2|0,3:2|1:2,0:0:0:0:
147,219,151941,1,0,0:0:0:0:
147,219,152057,2,0,P|139:273|132:328,1,110.000003356934,8|0,0:2|1:2,0:0:0:0:
144,365,152403,1,2,0:2:0:0:
144,365,152518,1,0,3:2:0:0:
234,261,152749,1,2,1:2:0:0:
317,360,152980,2,0,P|376:365|424:325,1,110.000003356934,8|0,0:2|1:2,0:0:0:0:
512,213,153441,6,0,P|458:205|403:198,1,110.000003356934,0|0,3:2|1:2,0:0:0:0:
324,112,153787,1,0,0:0:0:0:
308,119,153903,2,0,P|365:123|408:75,1,110.000003356934,10|0,0:2|1:2,0:0:0:0:
416,57,154249,2,0,L|405:2,1,55.0000016784668,2|0,0:2|3:2,0:0:0:0:
498,117,154595,1,2,1:2:0:0:
498,117,154711,1,0,3:2:0:0:
498,117,154826,1,8,0:2:0:0:
322,37,155057,1,0,3:2:0:0:
403,198,155287,6,0,L|388:312,1,110.000003356934,2|0,3:2|1:2,0:0:0:0:
284,376,155634,1,0,0:0:0:0:
294,384,155749,2,0,L|279:274,1,110.000003356934,8|0,0:2|1:2,0:0:0:0:
252,242,156095,1,2,0:2:0:0:
252,242,156211,1,0,3:2:0:0:
389,307,156441,1,2,1:2:0:0:
198,368,156672,2,0,B|133:399|87:343|87:343|116:315,1,165.000005035401,8|0,0:2|0:0,0:0:0:0:
141,291,157134,6,0,P|133:236|123:182,1,110.000003356934,0|0,3:2|1:2,0:0:0:0:
66,77,157480,1,0,0:0:0:0:
57,89,157595,2,0,P|116:95|162:57,1,110.000003356934,10|0,0:2|1:2,0:0:0:0:
193,53,157941,2,0,L|181:-4,1,55.0000016784668,2|0,0:2|3:2,0:0:0:0:
287,116,158287,1,2,1:2:0:0:
123,182,158518,2,0,P|183:172|236:213,1,110.000003356934,8|0,0:2|1:2,0:0:0:0:
394,90,158980,6,0,P|382:144|375:199,1,110.000003356934,2|0,3:2|1:2,0:0:0:0:
430,324,159326,1,0,0:0:0:0:
437,314,159441,2,0,P|389:289|336:300,1,110.000003356934,8|0,0:2|1:2,0:0:0:0:
313,328,159787,1,2,0:2:0:0:
313,328,159903,1,0,3:2:0:0:
224,195,160134,1,2,1:2:0:0:
102,312,160364,2,0,L|213:294,1,110.000003356934,8|0,0:2|1:2,0:0:0:0:
269,106,160711,1,0,0:2:0:0:
256,95,160826,6,0,P|202:87|154:113,1,110.000003356934,2|0,3:2|1:2,0:0:0:0:
37,73,161172,1,2,0:2:0:0:
49,56,161287,2,0,L|69:192,1,110.000003356934,8|2,0:2|1:2,0:0:0:0:
75,204,161634,1,2,0:2:0:0:
75,204,161749,1,0,3:2:0:0:
210,294,161980,1,2,1:2:0:0:
210,294,162095,1,0,3:2:0:0:
210,294,162211,1,8,0:2:0:0:
82,329,162441,1,0,3:2:0:0:
216,124,162672,6,0,P|255:156|262:207,1,104.999996795654,4|0,3:2|0:0,0:0:0:0:
339,296,163595,6,0,L|249:313,1,75.0000028610231,2|0,0:2|0:0,0:0:0:0:
231,314,163941,1,8,0:2:0:0:
231,314,164057,1,10,0:2:0:0:
375,206,164287,1,0,3:2:0:0:
228,50,164518,6,0,L|213:148,1,75.0000028610231,6|0,3:2|0:0,0:0:0:0:
83,248,164748,1,2,1:2:0:0:
112,271,164864,2,0,L|123:196,1,75.0000028610231,2|8,0:2|0:2,0:0:0:0:
29,80,165095,2,0,L|103:91,1,75.0000028610231,2|0,0:2|1:2,0:0:0:0:
227,229,165326,1,2,0:2:0:0:
259,223,165441,6,0,L|448:193,1,150.000005722046,0|0,3:2|1:2,0:0:0:0:
158,351,165903,1,10,0:2:0:0:
103,361,166018,1,2,0:2:0:0:
53,338,166133,1,2,1:2:0:0:
25,290,166249,1,2,0:2:0:0:
29,235,166364,6,0,L|15:151,1,75.0000028610231,2|0,3:2|0:0,0:0:0:0:
189,128,166594,1,2,1:2:0:0:
192,160,166710,2,0,B|160:178|160:178|121:174,1,75.0000028610231,2|8,0:2|0:2,0:0:0:0:
0,56,166941,2,0,B|38:52|38:52|70:70,1,75.0000028610231,2|0,0:2|1:2,0:0:0:0:
189,128,167172,1,2,0:2:0:0:
112,271,167287,5,0,3:2:0:0:
112,271,167518,2,0,L|206:285,1,75.0000028610231,2|0,1:2|0:0,0:0:0:0:
340,207,167749,2,0,L|246:221,1,75.0000028610231,10|0,0:2|0:0,0:0:0:0:
108,373,167980,1,2,1:2:0:0:
145,378,168095,1,0,0:0:0:0:
182,384,168211,6,0,L|365:354,1,150.000005722046,2|0,3:2|1:2,0:0:0:0:
492,282,168557,1,2,0:2:0:0:
469,308,168672,2,0,B|431:315|431:315|388:297,1,75.0000028610231,8|0,0:2|0:0,0:0:0:0:
409,140,168903,2,0,B|434:169|434:169|439:215,1,75.0000028610231,2|0,1:2|0:0,0:0:0:0:
260,295,169134,6,0,L|111:270,1,150.000005722046,2|0,3:2|1:2,0:0:0:0:
65,97,169480,1,2,0:2:0:0:
93,101,169595,2,0,B|108:136|108:136|85:206,1,75.0000028610231,8|0,0:2|0:0,0:0:0:0:
19,314,169826,2,0,B|4:279|4:279|27:209,1,75.0000028610231,2|0,1:2|0:0,0:0:0:0:
194,189,170057,6,0,B|258:178|258:178|277:185|277:185|341:177,1,150.000005722046,2|0,3:2|1:2,0:0:0:0:
498,97,170403,1,2,0:2:0:0:
479,120,170518,2,0,L|402:108,1,75.0000028610231,8|0,0:2|0:0,0:0:0:0:
284,0,170749,2,0,L|296:77,1,75.0000028610231,2|0,1:2|0:0,0:0:0:0:
434,220,170980,6,0,L|410:368,1,150.000005722046,2|0,3:2|1:2,0:0:0:0:
248,303,171326,1,0,3:2:0:0:
312,236,171441,6,0,B|339:276|339:276|327:341,1,100,8|0,0:2|0:0,0:0:0:0:
207,384,171672,6,0,L|151:376,1,56.2500021457673,0|0,3:2|0:0,0:0:0:0:
126,369,171903,6,0,L|141:267,1,75.0000028610231,6|0,3:2|0:0,0:0:0:0:
13,177,172134,1,2,1:2:0:0:
7,215,172249,2,0,B|40:233|40:233|81:225,1,75.0000028610231,2|8,0:2|0:2,0:0:0:0:
184,72,172480,2,0,B|151:54|151:54|109:61,1,75.0000028610231,2|0,0:2|1:2,0:0:0:0:
181,204,172711,1,2,0:2:0:0:
209,218,172826,6,0,B|276:207|276:207|291:214|291:214|370:202,1,150.000005722046,0|0,3:2|1:2,0:0:0:0:
512,22,173287,1,10,0:2:0:0:
460,0,173402,1,2,0:2:0:0:
405,7,173517,1,2,1:2:0:0:
362,42,173633,1,2,0:2:0:0:
343,94,173749,6,0,L|417:107,1,75.0000028610231,2|0,3:2|0:0,0:0:0:0:
447,257,173980,1,2,1:2:0:0:
471,229,174096,2,0,L|397:216,1,75.0000028610231,2|8,0:2|0:2,0:0:0:0:
279,290,174326,2,0,B|314:309|314:309|348:304,1,75.0000028610231,2|0,0:2|1:2,0:0:0:0:
397,216,174557,1,2,0:2:0:0:
255,139,174672,5,0,3:2:0:0:
255,139,174903,2,0,L|167:157,1,75.0000028610231,2|0,1:2|0:0,0:0:0:0:
6,206,175134,2,0,L|79:221,1,75.0000028610231,10|0,0:2|0:0,0:0:0:0:
224,369,175364,1,2,1:2:0:0:
187,376,175479,1,0,0:0:0:0:
150,384,175595,6,0,L|172:220,1,150.000005722046,2|0,3:2|1:2,0:0:0:0:
346,223,175941,1,2,0:2:0:0:
342,258,176057,2,0,B|315:285|315:285|275:291,1,75.0000028610231,8|0,0:2|0:0,0:0:0:0:
195,131,176287,2,0,B|232:140|232:140|257:172,1,75.0000028610231,2|0,1:2|0:0,0:0:0:0:
77,313,176518,6,0,B|43:338|43:338|51:230,1,150.000005722046,2|0,3:2|1:2,0:0:0:0:
110,52,176864,1,2,0:2:0:0:
93,37,176980,2,0,L|87:112,1,75.0000028610231,8|0,0:2|0:0,0:0:0:0:
176,310,177211,2,0,L|170:234,1,75.0000028610231,2|0,1:2|0:0,0:0:0:0:
283,46,177441,6,0,P|354:31|416:71,1,150.000005722046,2|0,3:2|1:2,0:0:0:0:
344,233,177787,1,2,0:2:0:0:
328,210,177903,2,0,L|336:126,1,75.0000028610231,8|0,0:2|0:0,0:0:0:0:
512,48,178134,2,0,L|504:122,1,75.0000028610231,2|0,1:2|0:0,0:0:0:0:
442,342,178364,6,0,B|375:331|375:331|360:338|360:338|281:326,1,150.000005722046,2|0,3:2|1:2,0:0:0:0:
186,176,178711,1,0,3:2:0:0:
152,261,178826,6,0,B|202:271|202:271|264:240,1,100,10|0,0:2|0:0,0:0:0:0:
390,139,179057,6,0,P|362:141|334:135,1,56.2500021457673,0|0,3:2|0:0,0:0:0:0:
278,84,179287,6,0,L|289:8,1,75.0000028610231,6|0,3:2|0:0,0:0:0:0:
153,157,179517,1,2,1:2:0:0:
186,176,179633,2,0,L|197:100,1,75.0000028610231,2|8,0:2|0:2,0:0:0:0:
29,35,179864,2,0,L|39:109,1,75.0000028610231,2|0,0:2|1:2,0:0:0:0:
99,290,180095,1,2,0:2:0:0:
131,277,180211,6,0,P|57:230|-23:265,1,150.000005722046,0|0,3:2|1:2,0:0:0:0:
233,366,180672,1,10,0:2:0:0:
287,377,180787,1,2,0:2:0:0:
337,354,180902,1,2,1:2:0:0:
365,306,181018,1,2,0:2:0:0:
359,251,181134,6,0,L|270:237,1,75.0000028610231,2|0,3:2|0:0,0:0:0:0:
215,78,181365,1,2,1:2:0:0:
253,73,181480,2,0,B|270:105|270:105|258:156,1,75.0000028610231,2|8,0:2|0:2,0:0:0:0:
192,288,181711,2,0,B|175:256|175:256|186:205,1,75.0000028610231,2|0,0:2|1:2,0:0:0:0:
215,78,181941,1,2,0:2:0:0:
355,156,182057,5,0,3:2:0:0:
355,156,182287,2,0,L|429:167,1,75.0000028610231,2|0,1:2|0:0,0:0:0:0:
411,366,182518,2,0,L|336:354,1,75.0000028610231,10|0,0:2|0:0,0:0:0:0:
183,219,182749,2,0,L|257:230,1,75.0000028610231,2|0,1:2|0:0,0:0:0:0:
94,344,182980,6,0,B|57:369|57:369|80:255,1,150.000005722046,2|0,3:2|1:2,0:0:0:0:
0,131,183326,1,2,0:2:0:0:
0,160,183441,2,0,L|74:148,1,75.0000028610231,8|0,0:2|0:0,0:0:0:0:
218,15,183672,2,0,L|143:26,1,75.0000028610231,2|0,1:2|0:0,0:0:0:0:
183,219,183903,6,0,L|339:194,1,150.000005722046,2|0,3:2|1:2,0:0:0:0:
385,38,184249,1,2,0:2:0:0:
354,32,184364,2,0,B|339:66|339:66|350:119,1,75.0000028610231,8|0,0:2|0:0,0:0:0:0:
425,239,184595,2,0,B|440:204|440:204|429:151,1,75.0000028610231,2|0,1:2|0:0,0:0:0:0:
240,110,184826,6,0,L|91:133,1,150.000005722046,2|0,3:2|1:2,0:0:0:0:
0,250,185172,1,2,0:2:0:0:
0,223,185287,2,0,L|74:234,1,75.0000028610231,8|0,0:2|0:0,0:0:0:0:
192,353,185518,2,0,B|178:318|178:318|184:278,1,75.0000028610231,2|0,1:2|0:0,0:0:0:0:
413,285,185749,6,0,B|347:321|347:321|275:300,1,150.000005722046,2|0,3:2|1:2,0:0:0:0:
171,160,186095,1,0,3:2:0:0:
273,113,186211,6,0,L|254:228,1,100,10|0,0:2|0:0,0:0:0:0:
183,74,186441,6,0,L|192:16,1,56.2500021457673,0|0,3:2|0:0,0:0:0:0:
211,0,186672,6,0,L|301:12,1,75.0000028610231,6|0,3:2|0:0,0:0:0:0:
436,106,186903,1,2,1:2:0:0:
442,70,187019,2,0,L|367:79,1,75.0000028610231,2|8,0:2|0:2,0:0:0:0:
257,212,187249,2,0,L|331:202,1,75.0000028610231,2|0,0:2|1:2,0:0:0:0:
439,368,187480,1,2,0:2:0:0:
461,344,187595,6,0,P|403:299|331:311,1,150.000005722046,0|0,3:2|1:2,0:0:0:0:
78,384,188057,1,10,0:2:0:0:
132,373,188172,1,2,0:2:0:0:
169,332,188287,1,2,1:2:0:0:
172,277,188403,1,2,0:2:0:0:
142,231,188518,6,0,L|46:243,1,75.0000028610231,2|0,3:2|0:0,0:0:0:0:
294,315,188748,1,2,1:2:0:0:
331,310,188864,2,0,B|340:274|340:274|320:230,1,75.0000028610231,2|8,0:2|0:2,0:0:0:0:
228,103,189095,2,0,B|219:139|219:139|239:183,1,75.0000028610231,2|0,0:2|1:2,0:0:0:0:
324,239,189326,1,2,0:2:0:0:
404,123,189441,5,0,3:2:0:0:
404,123,189672,2,0,L|317:131,1,75.0000028610231,2|0,1:2|0:0,0:0:0:0:
191,6,189903,2,0,L|265:12,1,75.0000028610231,10|0,0:2|0:0,0:0:0:0:
138,147,190134,2,0,L|63:140,1,75.0000028610231,2|0,1:2|0:0,0:0:0:0:
12,339,190364,6,0,P|71:291|161:325,1,150.000005722046,2|0,3:2|1:2,0:0:0:0:
274,376,190711,1,2,0:2:0:0:
237,384,190826,2,0,L|249:298,1,75.0000028610231,8|0,0:2|0:0,0:0:0:0:
138,147,191057,2,0,L|224:159,1,75.0000028610231,2|0,1:2|0:0,0:0:0:0:
357,296,191287,6,0,L|508:274,1,150.000005722046,2|0,3:2|1:2,0:0:0:0:
400,135,191634,1,2,0:2:0:0:
425,125,191749,2,0,L|414:200,1,75.0000028610231,8|0,0:2|0:0,0:0:0:0:
247,309,191980,2,0,L|257:234,1,75.0000028610231,2|0,1:2|0:0,0:0:0:0:
294,21,192211,6,0,B|332:39|332:39|226:62,1,150.000005722046,2|0,3:2|1:2,0:0:0:0:
68,164,192557,1,2,0:2:0:0:
64,136,192672,2,0,L|150:148,1,75.0000028610231,8|0,0:2|0:0,0:0:0:0:
328,228,192903,2,0,B|292:219|292:219|248:239,1,75.0000028610231,2|0,1:2|0:0,0:0:0:0:
148,384,193134,6,0,B|154:324|154:324|168:306|168:306|176:225,1,150.000005722046,2|0,3:2|1:2,0:0:0:0:
68,164,193480,1,0,3:2:0:0:
2,227,193595,6,0,B|42:258|42:258|92:252,1,100,10|0,0:2|0:0,0:0:0:0:
313,133,193826,6,0,L|257:141,1,56.2500021457673,0|0,3:2|0:0,0:0:0:0:
236,145,194057,6,0,B|205:79|205:79|255:-7,1,150.000005722046,6|2,3:2|0:2,0:0:0:0:
403,72,194403,1,2,0:2:0:0:
419,104,194518,2,0,L|405:190,1,75.0000028610231,8|2,0:2|0:2,0:0:0:0:
307,350,194749,2,0,B|265:304|265:304|339:289|339:289|353:299|353:299|424:287,1,225.000008583069,0|0,3:2|0:0,0:0:0:0:
453,269,195211,1,0,3:2:0:0:
236,145,195441,1,8,0:2:0:0:
431,30,195672,2,0,L|417:116,1,75.0000028610231,2|2,3:2|0:2,0:0:0:0:
277,270,195903,6,0,L|127:251,1,150.000005722046,6|0,3:2|0:0,0:0:0:0:
16,100,196249,1,2,0:2:0:0:
0,127,196364,2,0,L|75:117,1,75.0000028610231,8|0,0:2|0:0,0:0:0:0:
238,0,196595,2,0,B|194:44|194:44|223:76|235:146|235:146|257:117|272:111,1,225.000008583069,2|0,3:2|0:0,0:0:0:0:
309,103,197057,1,0,3:2:0:0:
79,16,197287,1,8,0:2:0:0:
128,251,197518,2,0,L|145:162,1,75.0000028610231,2|0,3:2|0:0,0:0:0:0:
277,16,197749,6,0,B|365:-13|352:66|450:26|450:26|408:141|448:193|514:216|566:156|531:104|489:87|415:123|386:175|384:224|411:272|464:287|464:287|464:348|416:369|416:369|372:330|317:341|317:341|347:367,1,862.500032901765,4|0,3:2|0:0,0:0:0:0:
346,384,200518,1,10,0:2:0:0:
265,255,200749,5,0,3:2:0:0:
280,251,200826,5,0,3:2:0:0:
296,248,200903,5,0,3:2:0:0:
312,244,200980,6,0,L|322:171,2,64.9999970245363,8|8|0,0:2|0:2|3:2,0:0:0:0:
135,0,201441,6,0,L|117:128,1,129.999994049073,6|0,3:2|1:2,0:0:0:0:
32,252,201787,1,2,0:2:0:0:
12,220,201903,2,0,L|76:228,1,64.9999970245363,8|0,0:2|0:0,0:0:0:0:
209,321,202134,2,0,B|167:278|167:278|185:194,1,129.999994049073,2|0,1:2|3:2,0:0:0:0:
325,31,202595,5,0,1:2:0:0:
328,45,202711,1,0,1:2:0:0:
330,58,202826,2,0,L|262:68,1,55.0000016784668,8|0,0:2|0:0,0:0:0:0:
337,149,203057,2,0,L|269:159,1,55.0000016784668,0|0,1:2|0:0,0:0:0:0:
261,249,203287,6,0,L|369:232,1,110.000003356934,0|0,3:2|1:2,0:0:0:0:
475,317,203634,1,0,1:2:0:0:
486,305,203749,2,0,B|432:295|432:295|379:328,1,110.000003356934,8|0,0:2|1:2,0:0:0:0:
483,193,204211,6,0,L|483:83,1,110.000003356934,0|0,3:2|1:2,0:0:0:0:
360,34,204557,1,0,1:2:0:0:
374,29,204672,2,0,B|397:78|397:78|379:138,1,110.000003356934,8|0,0:2|1:2,0:0:0:0:
152,107,205134,6,0,B|202:99|202:99|227:109|227:109|278:102,1,129.999994049073,2|0,3:2|1:2,0:0:0:0:
301,250,205480,1,2,0:2:0:0:
326,225,205596,2,0,L|255:235,1,64.9999970245363,8|0,0:2|0:0,0:0:0:0:
132,219,205826,2,0,B|167:205|167:205|145:301,1,129.999994049073,2|0,1:2|3:2,0:0:0:0:
42,168,206287,5,0,1:2:0:0:
38,158,206403,1,0,1:2:0:0:
35,148,206518,2,0,L|91:140,1,55.0000016784668,8|0,0:2|0:0,0:0:0:0:
103,45,206749,2,0,L|48:52,1,55.0000016784668,0|0,1:2|0:0,0:0:0:0:
184,102,206980,6,0,B|207:52|207:52|193:0,1,110.000003356934,0|0,3:2|1:2,0:0:0:0:
270,113,207327,1,0,1:2:0:0:
287,120,207442,2,0,L|396:111,1,110.000003356934,8|0,0:2|1:2,0:0:0:0:
235,227,207903,6,0,B|185:204|185:204|133:218,1,110.000003356934,0|0,3:2|1:2,0:0:0:0:
150,364,208249,1,0,3:2:0:0:
167,350,208364,2,0,L|180:274,1,55.0000016784668,8|0,0:2|0:0,0:0:0:0:
40,214,208595,2,0,L|49:268,1,55.0000016784668,0|0,3:2|0:0,0:0:0:0:
264,336,208826,6,0,L|408:316,1,129.999994049073,2|0,3:2|1:2,0:0:0:0:
494,215,209172,1,2,0:2:0:0:
512,246,209287,2,0,L|440:235,1,64.9999970245363,8|0,0:2|0:0,0:0:0:0:
330,146,209518,2,0,B|365:132|365:132|343:228,1,129.999994049073,2|0,1:2|3:2,0:0:0:0:
170,158,209980,5,0,1:2:0:0:
180,155,210095,1,0,1:2:0:0:
190,153,210211,2,0,L|203:80,1,55.0000016784668,8|0,0:2|0:0,0:0:0:0:
116,32,210441,2,0,L|106:86,1,55.0000016784668,0|0,1:2|0:0,0:0:0:0:
44,233,210672,6,0,B|98:223|98:223|164:262,1,110.000003356934,0|0,3:2|1:2,0:0:0:0:
126,365,211018,1,0,1:2:0:0:
121,375,211134,2,0,B|67:385|67:385|1:346,1,110.000003356934,8|0,0:2|1:2,0:0:0:0:
233,327,211595,6,0,L|351:340,1,110.000003356934,0|0,3:2|1:2,0:0:0:0:
428,239,211941,1,0,1:2:0:0:
422,228,212057,2,0,B|368:218|368:218|302:257,1,110.000003356934,8|0,0:2|1:2,0:0:0:0:
91,136,212518,6,0,B|141:128|141:128|166:138|166:138|217:131,1,129.999994049073,2|0,3:2|1:2,0:0:0:0:
328,29,212864,1,2,0:2:0:0:
295,16,212980,2,0,L|204:30,1,64.9999970245363,8|0,0:2|0:0,0:0:0:0:
331,131,213211,2,0,B|399:142|399:142|455:109,1,129.999994049073,2|0,1:2|3:0,0:0:0:0:
502,335,213672,5,0,1:2:0:0:
507,326,213787,1,0,1:2:0:0:
512,317,213903,2,0,L|436:331,1,55.0000016784668,8|0,0:2|0:0,0:0:0:0:
361,357,214134,2,0,L|370:302,1,55.0000016784668,0|0,1:2|0:0,0:0:0:0:
454,229,214364,6,0,L|429:97,1,110.000003356934,0|0,3:2|1:2,0:0:0:0:
501,2,214711,1,0,1:2:0:0:
512,9,214826,2,0,B|468:39|468:39|400:30,1,110.000003356934,8|0,0:2|1:2,0:0:0:0:
241,100,215287,2,0,L|317:110,1,55.0000016784668,0|0,3:2|0:0,0:0:0:0:
372,219,215518,5,0,3:2:0:0:
353,221,215594,5,0,3:2:0:0:
335,223,215671,5,0,3:2:0:0:
317,226,215748,5,10,0:2:0:0:
223,191,215903,5,2,3:2:0:0:
179,280,216057,5,2,3:2:0:0:
91,227,216211,6,0,L|32:241,1,56.2500021457673,2|0,0:2|0:0,0:0:0:0:
23,225,216441,6,0,L|33:160,1,64.9999970245363,0|2,3:2|0:2,0:0:0:0:
149,61,216672,2,0,B|115:47|115:47|135:157,1,129.999994049073,8|2,0:2|1:2,0:0:0:0:
333,273,217134,5,2,3:2:0:0:
308,291,217249,2,0,L|318:213,1,64.9999970245363,2|0,0:2|1:2,0:0:0:0:
384,95,217480,1,0,0:0:0:0:
412,100,217595,2,0,B|361:138|361:138|294:125,1,129.999994049073,10|0,0:2|1:2,0:0:0:0:
149,61,217941,1,2,0:2:0:0:
175,44,218057,6,0,L|253:54,1,64.9999970245363,0|0,3:2|0:0,0:0:0:0:
342,209,218287,1,2,1:2:0:0:
316,226,218403,2,0,L|238:216,1,64.9999970245363,2|8,0:2|0:2,0:3:0:0:
141,156,218634,2,0,B|156:206|156:206|144:234|144:234|165:304,1,129.999994049073,2|0,0:2|0:0,0:0:0:0:
305,340,218980,6,0,P|237:333|191:388,1,129.999994049073,2|0,3:2|1:2,0:0:0:0:
385,384,219326,1,2,0:2:0:0:
400,354,219441,2,0,L|390:288,1,64.9999970245363,8|0,0:2|0:0,0:0:0:0:
307,162,219672,2,0,L|316:226,1,64.9999970245363,2|0,1:2|0:0,0:0:0:0:
482,382,219903,5,0,3:2:0:0:
497,352,220018,2,0,L|477:222,1,129.999994049073,2|0,0:2|0:0,0:0:0:0:
456,98,220364,1,10,0:2:0:0:
316,226,220595,1,2,1:2:0:0:
283,236,220711,1,2,0:2:0:0:
250,246,220826,6,0,L|186:232,1,64.9999970245363,0|0,3:2|0:0,0:0:0:0:
82,126,221057,2,0,L|145:139,1,64.9999970245363,2|0,1:2|0:0,0:0:0:0:
298,63,221287,1,8,0:2:0:0:
274,38,221403,2,0,B|236:88|236:88|245:166,1,129.999994049073,2|0,0:2|0:0,0:0:0:0:
138,331,221749,6,0,B|204:323|204:323|254:361,1,129.999994049073,2|0,3:2|1:2,0:0:0:0:
388,278,222095,1,2,0:2:0:0:
363,264,222211,2,0,L|299:278,1,64.9999970245363,8|0,0:2|0:0,0:0:0:0:
409,384,222441,2,0,L|472:369,1,64.9999970245363,2|0,1:2|0:0,0:0:0:0:
445,199,222672,6,0,B|395:161|395:161|328:168,1,129.999994049073,2|0,3:2|1:2,0:0:0:0:
156,137,223018,1,2,3:2:0:0:
230,66,223134,6,0,L|245:163,1,89.9999972534181,8|0,0:2|0:0,0:0:0:0:
195,290,223364,6,0,L|186:234,1,56.2500021457673,2|0,3:2|0:0,0:0:0:0:
184,221,223595,5,0,3:2:0:0:
25,14,223941,1,2,0:2:0:0:
9,37,224057,2,0,L|87:23,1,64.9999970245363,8|0,0:2|0:0,0:0:0:0:
230,66,224287,6,0,B|165:56|165:56|112:101,1,129.999994049073,2|0,1:2|3:2,0:0:0:0:
296,145,224634,2,0,B|337:93|337:93|324:25,1,129.999994049073,2|0,0:2|0:0,0:0:0:0:
186,157,224980,2,0,L|208:304,1,129.999994049073,10|0,0:2|1:2,0:0:0:0:
319,362,225326,1,2,0:2:0:0:
295,379,225441,6,0,L|304:314,1,64.9999970245363,0|0,3:2|0:0,0:0:0:0:
421,226,225672,2,0,L|356:235,1,64.9999970245363,2|0,1:2|0:0,0:0:0:0:
199,132,225903,1,8,0:2:0:0:
186,157,226018,2,0,L|314:137,1,129.999994049073,2|0,0:2|0:0,0:0:0:0:
436,20,226364,6,0,B|394:68|394:68|404:133,1,129.999994049073,2|0,3:2|1:2,0:0:0:0:
501,280,226711,1,2,0:2:0:0:
512,246,226826,2,0,L|502:181,1,64.9999970245363,8|0,0:2|0:0,0:0:0:0:
391,320,227057,2,0,L|400:384,1,64.9999970245363,2|0,1:2|0:0,0:0:0:0:
286,280,227287,5,0,3:2:0:0:
307,257,227403,2,0,B|356:216|356:216|421:226,1,129.999994049073,2|0,0:2|0:0,0:0:0:0:
311,369,227749,2,0,B|259:362|259:362|233:379|233:379|161:371,1,129.999994049073,10|0,0:2|1:2,0:0:0:0:
65,296,228095,1,2,0:2:0:0:
47,326,228211,6,0,L|126:309,1,64.9999970245363,0|0,3:2|0:0,0:0:0:0:
218,218,228441,2,0,L|201:297,1,64.9999970245363,2|0,1:2|0:0,0:0:0:0:
73,200,228672,1,8,0:2:0:0:
80,169,228787,2,0,L|114:10,1,129.999994049073,2|0,0:2|0:0,0:0:0:0:
300,90,229134,6,0,B|251:131|251:131|186:121,1,129.999994049073,2|0,3:2|1:2,0:0:0:0:
278,4,229480,1,2,0:2:0:0:
315,0,229595,2,0,L|396:12,1,64.9999970245363,8|0,0:2|0:0,0:0:0:0:
512,96,229826,2,0,L|431:108,1,64.9999970245363,2|0,1:2|0:0,0:0:0:0:
331,241,230057,5,2,3:2:0:0:
331,241,230287,1,8,0:2:0:0:
341,199,230402,1,8,0:2:0:0:
332,157,230517,1,10,0:2:0:0:
306,123,230633,1,8,0:2:0:0:
267,103,230748,1,8,0:2:0:0:
224,103,230863,1,8,0:2:0:0:
186,121,230980,6,0,L|178:194,1,69.9999978637696,6|0,3:2|0:2,0:0:0:0:
187,206,231326,2,0,L|179:279,1,69.9999978637696,2|0,0:2|0:2,0:0:0:0:
246,352,231787,2,0,B|374:310|347:409|488:349,1,244.999992523194,2|0,0:2|0:0,0:0:0:0:
512,267,232826,6,0,L|498:193,1,69.9999978637696,2|0,0:2|0:2,0:0:0:0:
508,182,233172,2,0,L|494:108,1,69.9999978637696,2|0,0:2|0:2,0:0:0:0:
417,55,233634,2,0,P|381:91|330:88,1,104.999996795654,2|0,0:2|0:2,0:0:0:0:
244,41,234211,2,0,L|234:111,1,69.9999978637696,2|0,0:2|0:2,0:0:0:0:
176,209,234672,6,0,P|222:196|280:217,1,104.999996795654,2|0,0:2|0:0,0:0:0:0:
269,379,235364,2,0,P|234:345|223:284,1,104.999996795654,2|0,0:2|0:0,0:0:0:0:
370,214,236057,2,0,P|358:260|311:300,1,104.999996795654,2|0,0:2|0:0,0:0:0:0:
133,344,236749,6,0,L|15:329,1,104.999996795654,2|0,0:2|0:0,0:0:0:0:
143,205,237441,2,0,L|60:194,1,69.9999978637696,2|0,0:2|0:0,0:0:0:0:
33,188,237787,1,8,0:2:0:0:
33,188,237903,1,10,0:2:0:0:
175,117,238134,1,0,3:2:0:0:
55,45,238364,6,0,P|94:51|131:39,1,69.9999978637696,2|0,3:2|0:2,0:0:0:0:
141,25,238711,2,0,P|174:17|209:23,1,69.9999978637696,2|0,0:2|0:2,0:0:0:0:
337,151,239172,2,0,B|288:245|192:211|192:211|234:197|249:171,1,244.999992523194,2|0,0:2|0:0,0:0:0:0:
101,159,240211,6,0,L|91:231,1,69.9999978637696,2|0,0:2|0:2,0:0:0:0:
80,236,240557,2,0,L|70:308,1,69.9999978637696,2|0,0:2|0:2,0:0:0:0:
133,366,241018,2,0,L|241:348,1,104.999996795654,2|0,0:2|0:2,0:0:0:0:
302,282,241595,2,0,L|372:293,1,69.9999978637696,2|0,0:2|0:2,0:0:0:0:
486,368,242057,6,0,B|460:343|460:343|470:260,1,104.999996795654,2|0,0:2|0:0,0:0:0:0:
380,114,242749,2,0,B|406:139|406:139|396:222,1,104.999996795654,2|0,0:2|0:0,0:0:0:0:
286,305,243441,2,0,B|260:280|260:280|270:197,1,104.999996795654,2|0,0:2|0:0,0:0:0:0:
133,71,244134,6,0,P|170:78|224:35,1,104.999996795654,2|0,0:2|0:0,0:0:0:0:
368,0,244826,2,0,P|343:28|353:96,1,104.999996795654,2|0,0:2|0:0,0:0:0:0:
363,85,245287,6,0,P|298:85|257:172,1,150,4|0,0:1|0:0,0:0:0:0:
245,185,245749,6,0,L|337:202,1,75.0000028610231,6|0,3:2|0:0,0:0:0:0:
464,345,245980,1,2,1:2:0:0:
471,308,246096,2,0,L|397:321,1,75.0000028610231,2|8,0:2|0:2,0:0:0:0:
274,373,246326,2,0,L|287:299,1,75.0000028610231,2|0,0:2|1:2,0:0:0:0:
427,213,246557,1,2,0:2:0:0:
418,177,246672,6,0,L|388:17,1,150.000005722046,0|0,3:2|1:2,0:0:0:0:
150,1,247134,1,10,0:2:0:0:
200,24,247249,1,2,0:2:0:0:
230,70,247364,1,2,1:2:0:0:
231,126,247480,1,2,0:2:0:0:
202,173,247595,6,0,L|110:185,1,75.0000028610231,2|0,3:2|0:0,0:0:0:0:
6,62,247825,1,2,1:2:0:0:
0,99,247941,2,0,L|74:89,1,75.0000028610231,2|8,0:2|0:2,0:0:0:0:
274,13,248172,2,0,L|200:23,1,75.0000028610231,2|0,0:2|1:2,0:0:0:0:
156,100,248403,1,2,0:2:0:0:
309,197,248518,5,0,3:2:0:0:
309,197,248749,2,0,L|322:109,1,75.0000028610231,2|0,1:2|0:0,0:0:0:0:
512,187,248980,2,0,L|438:198,1,75.0000028610231,10|0,0:2|0:0,0:0:0:0:
330,384,249211,1,2,1:2:0:0:
324,346,249326,1,0,0:0:0:0:
319,309,249441,6,0,B|394:298|394:298|450:346,1,150.000005722046,2|0,3:2|1:2,0:0:0:0:
242,363,249787,1,2,0:2:0:0:
211,359,249903,2,0,L|116:348,1,75.0000028610231,8|0,0:2|0:0,0:0:0:0:
171,195,250134,2,0,B|193:227|193:227|182:290,1,75.0000028610231,2|0,1:2|0:0,0:0:0:0:
43,384,250364,6,0,L|74:182,1,150.000005722046,2|0,3:2|1:2,0:0:0:0:
19,80,250711,1,2,0:2:0:0:
0,106,250826,2,0,L|74:94,1,75.0000028610231,8|0,0:2|0:0,0:0:0:0:
201,0,251057,2,0,L|189:74,1,75.0000028610231,2|0,1:2|0:0,0:0:0:0:
323,200,251287,6,0,B|354:167|354:167|239:185,1,150.000005722046,2|0,3:2|1:2,0:0:0:0:
228,368,251634,1,2,0:2:0:0:
260,349,251749,2,0,L|271:274,1,75.0000028610231,8|0,0:2|0:0,0:0:0:0:
154,161,251980,2,0,L|165:235,1,75.0000028610231,2|0,1:2|0:0,0:0:0:0:
354,346,252211,6,0,B|418:335|418:335|437:342|437:342|501:334,1,150.000005722046,2|0,3:2|1:2,0:0:0:0:
378,255,252557,1,0,3:2:0:0:
427,165,252672,6,0,B|466:194|466:194|475:244,1,100,10|0,0:2|0:0,0:0:0:0:
322,162,252903,6,0,L|334:101,1,56.2500021457673,0|0,3:2|0:0,0:0:0:0:
336,93,253134,6,0,L|243:78,1,75.0000028610231,6|0,3:2|0:0,0:0:0:0:
139,212,253364,1,2,1:2:0:0:
136,185,253480,2,0,L|210:196,1,75.0000028610231,2|8,0:2|0:2,0:0:0:0:
304,335,253711,2,0,L|292:260,1,75.0000028610231,2|0,0:2|1:2,0:0:0:0:
438,89,253941,1,2,0:2:0:0:
456,116,254057,6,0,L|432:264,1,150.000005722046,0|0,3:2|1:2,0:0:0:0:
180,349,254518,1,10,0:2:0:0:
124,354,254633,1,2,0:2:0:0:
77,327,254748,1,2,1:2:0:0:
54,277,254864,1,2,0:2:0:0:
65,223,254980,6,0,L|160:209,1,75.0000028610231,2|0,3:2|0:0,0:0:0:0:
286,270,255211,1,2,1:2:0:0:
249,275,255326,2,0,L|238:200,1,75.0000028610231,2|8,0:2|0:2,0:0:0:0:
369,96,255557,2,0,B|334:112|334:112|288:108,1,75.0000028610231,2|0,0:2|1:2,0:0:0:0:
238,200,255787,1,2,0:2:0:0:
131,56,255903,5,0,3:2:0:0:
131,56,256134,2,0,L|211:43,1,75.0000028610231,2|0,1:2|0:0,0:0:0:0:
26,104,256364,2,0,B|7:73|7:73|12:34,1,75.0000028610231,10|0,0:2|0:0,0:0:0:0:
126,145,256595,2,0,B|131:183|131:183|112:214,1,75.0000028610231,2|0,1:2|0:0,0:0:0:0:
0,341,256826,6,0,P|81:324|136:383,1,150.000005722046,2|0,3:2|1:2,0:0:0:0:
258,272,257172,1,2,0:2:0:0:
274,299,257287,2,0,L|175:285,1,75.0000028610231,8|0,0:2|0:0,0:0:0:0:
126,145,257518,2,0,L|200:155,1,75.0000028610231,2|0,1:2|0:0,0:0:0:0:
370,28,257749,6,0,B|328:7|328:7|354:120,1,150.000005722046,2|0,3:2|1:2,0:0:0:0:
491,222,258095,1,2,0:2:0:0:
506,195,258210,2,0,L|407:208,1,75.0000028610231,8|0,0:2|0:0,0:0:0:0:
274,299,258441,2,0,L|348:288,1,75.0000028610231,2|0,1:2|0:0,0:0:0:0:
209,141,258672,6,0,B|144:150|144:150|128:163|128:163|54:175,1,150.000005722046,2|0,3:2|1:2,0:0:0:0:
44,22,259018,1,2,0:2:0:0:
71,10,259134,2,0,L|85:106,1,75.0000028610231,8|0,0:2|0:0,0:0:0:0:
258,219,259364,2,0,L|183:229,1,75.0000028610231,2|0,1:2|0:0,0:0:0:0:
17,384,259595,6,0,P|69:321|43:243,1,150.000005722046,2|0,3:2|1:2,0:0:0:0:
179,124,259941,1,0,3:2:0:0:
81,84,260057,6,0,L|101:224,1,100,10|0,0:2|0:0,0:0:0:0:
194,298,260287,6,0,L|185:242,1,56.2500021457673,0|0,3:2|0:0,0:0:0:0:
184,230,260518,6,0,B|248:219|248:219|267:226|267:226|341:215,1,150.000005722046,6|2,3:2|0:2,0:0:0:0:
315,50,260864,1,2,0:2:0:0:
288,65,260980,2,0,B|269:98|269:98|282:141,1,75.0000028610231,8|2,0:2|0:2,0:0:0:0:
432,189,261211,2,0,B|466:132|466:132|435:108|421:54|421:54|414:88|382:122,1,225.000008583069,0|0,3:2|0:0,0:0:0:0:
370,134,261672,1,0,3:2:0:0:
274,319,261903,1,8,0:2:0:0:
164,75,262134,2,0,L|153:170,1,75.0000028610231,2|0,3:2|0:0,0:0:0:0:
14,239,262364,6,0,P|85:223|147:261,1,150.000005722046,6|0,3:2|0:0,0:0:0:0:
38,364,262711,1,2,0:2:0:0:
61,384,262826,2,0,L|69:309,1,75.0000028610231,8|0,0:2|0:0,0:0:0:0:
155,149,263057,2,0,B|226:156|226:156|246:181|246:181|332:188|332:188|307:138,1,225.000008583069,2|0,3:2|0:0,0:0:0:0:
308,123,263518,1,0,3:2:0:0:
348,339,263749,1,8,0:2:0:0:
493,149,263980,2,0,L|408:140,1,75.0000028610231,2|0,3:2|0:0,0:0:0:0:
245,45,264211,5,8,0:2:0:0:
409,24,264672,1,8,0:2:0:0:
245,45,265134,1,8,0:2:0:0:
409,24,265595,1,8,0:2:0:0:
219,263,266057,5,8,0:2:0:0:
383,242,266518,1,8,0:2:0:0:
219,263,266980,1,8,0:2:0:0:
293,349,267211,5,0,3:2:0:0:
298,328,267287,5,0,3:2:0:0:
303,307,267364,5,0,3:2:0:0:
309,286,267441,6,0,L|289:203,2,64.9999970245363,8|8|0,3:2|3:2|3:2,3:2:0:0:
93,238,267903,6,0,B|148:245|148:245|166:256|166:256|219:263,1,129.999994049073,6|0,3:2|1:2,0:0:0:0:
298,328,268249,1,2,0:2:0:0:
293,349,268364,2,0,L|164:371,1,129.999994049073,8|2,0:2|1:2,0:0:0:0:
6,281,268826,6,0,B|-12:223|-12:223|29:153,1,129.999994049073,2|0,3:2|1:2,0:0:0:0:
147,223,269172,1,2,0:2:0:0:
158,238,269287,2,0,L|89:238,1,64.9999970245363,8|0,0:2|0:0,0:0:0:0:
111,115,269518,1,2,1:2:0:0:
122,100,269633,1,2,0:2:0:0:
133,85,269749,6,0,L|276:85,1,129.999994049073,2|0,3:2|1:2,0:0:0:0:
373,88,270095,1,2,0:2:0:0:
363,76,270211,2,0,B|338:136|338:136|365:204,1,129.999994049073,8|2,0:2|1:2,0:0:0:0:
512,332,270672,6,0,B|452:307|452:307|384:334,1,129.999994049073,2|0,3:2|1:2,0:0:0:0:
281,369,271018,1,2,0:2:0:0:
292,381,271134,2,0,L|301:317,1,64.9999970245363,8|0,0:2|0:0,0:0:0:0:
241,192,271364,1,2,1:2:0:0:
238,208,271479,1,2,0:2:0:0:
235,223,271595,6,0,L|374:194,1,129.999994049073,2|0,3:2|1:2,0:0:0:0:
354,78,271941,1,2,0:2:0:0:
365,87,272057,2,0,B|305:112|305:112|244:88,1,129.999994049073,8|2,0:2|1:2,0:0:0:0:
34,43,272518,6,0,B|66:28|66:28|49:125,1,129.999994049073,2|0,3:2|1:2,0:0:0:0:
14,236,272864,1,2,0:2:0:0:
1,229,272980,2,0,L|79:213,1,64.9999970245363,8|0,0:2|0:0,0:0:0:0:
179,162,273211,1,2,1:2:0:0:
163,158,273326,1,2,0:2:0:0:
147,155,273441,6,0,L|174:289,1,129.999994049073,2|0,3:2|1:2,0:0:0:0:
290,363,273787,1,2,0:2:0:0:
285,381,273903,2,0,B|260:321|260:321|283:260,1,129.999994049073,8|2,0:2|1:2,0:0:0:0:
488,318,274364,6,0,B|428:343|428:343|367:319,1,129.999994049073,2|0,3:2|1:2,0:0:0:0:
511,215,274711,1,2,3:2:0:0:
428,160,274826,6,0,L|428:266,1,89.9999972534181,8|0,0:2|0:0,0:0:0:0:
283,347,275057,6,0,L|283:290,1,56.2500021457673,2|0,3:2|0:0,0:0:0:0:
284,260,275287,6,0,B|221:239|221:239|143:268,1,129.999994049073,2|0,3:2|1:2,0:0:0:0:
38,312,275634,1,2,0:2:0:0:
47,316,275749,2,0,B|79:328|79:328|63:226,1,129.999994049073,8|2,0:2|1:2,0:0:0:0:
0,51,276211,6,0,B|59:73|59:73|122:52,1,129.999994049073,2|0,3:2|1:2,0:0:0:0:
229,31,276557,1,2,0:2:0:0:
220,22,276672,2,0,L|206:102,1,64.9999970245363,8|0,0:2|0:0,0:0:0:0:
275,203,276903,1,2,1:2:0:0:
277,186,277018,1,2,0:2:0:0:
280,170,277134,6,0,B|339:147|339:147|402:168,1,129.999994049073,2|0,3:2|1:2,0:0:0:0:
478,274,277480,1,2,0:2:0:0:
488,265,277595,2,0,B|433:256|433:256|413:263|413:263|342:251,1,129.999994049073,8|2,0:2|1:2,0:0:0:0:
170,384,278057,6,0,B|191:321|191:321|168:262,1,129.999994049073,2|0,3:2|1:2,0:3:0:0:
25,313,278403,1,2,0:2:0:0:
34,327,278518,2,0,L|106:327,1,64.9999970245363,8|0,0:2|0:0,0:0:0:0:
248,208,278749,1,2,1:2:0:0:
239,194,278865,1,2,0:2:0:0:
230,180,278980,6,0,B|167:159|167:159|108:182,1,129.999994049073,2|0,3:2|1:2,0:3:0:0:
0,224,279326,1,2,0:2:0:0:
7,231,279441,2,0,L|6:85,1,129.999994049073,8|2,0:2|1:2,0:0:0:0:
187,0,279903,6,0,P|233:42|295:34,1,129.999994049073,2|0,3:2|1:2,0:0:0:0:
374,127,280249,1,2,0:2:0:0:
373,116,280364,2,0,L|298:130,1,64.9999970245363,8|0,0:2|0:0,0:0:0:0:
186,138,280595,1,2,1:2:0:0:
201,135,280710,1,2,0:2:0:0:
217,132,280826,6,0,L|241:262,1,129.999994049073,2|0,3:2|1:2,0:0:0:0:
163,359,281172,1,2,0:2:0:0:
154,350,281287,2,0,B|209:341|209:341|229:348|229:348|300:336,1,129.999994049073,8|2,0:2|1:2,0:0:0:0:
461,251,281749,6,0,P|397:261|346:224,1,129.999994049073,2|0,3:2|1:2,0:0:0:0:
512,173,282095,1,2,3:2:0:0:
432,85,282211,6,0,L|418:191,1,89.9999972534181,8|0,0:2|0:0,0:0:0:0:
241,260,282441,6,0,L|249:196,1,56.2500021457673,2|0,3:2|0:0,0:0:0:0:
260,186,282672,6,0,P|208:148|146:159,1,129.999994049073,6|0,3:2|1:2,0:0:0:0:
32,105,283018,1,2,0:2:0:0:
39,93,283134,2,0,L|64:228,1,129.999994049073,8|2,0:2|1:2,0:0:0:0:
239,361,283595,6,0,B|294:352|294:352|314:359|314:359|385:347,1,129.999994049073,2|0,3:2|1:2,0:0:0:0:
458,269,283941,1,2,0:2:0:0:
465,278,284057,2,0,L|382:265,1,64.9999970245363,8|0,0:2|0:0,0:0:0:0:
277,144,284287,1,2,1:2:0:0:
275,157,284402,1,2,0:2:0:0:
273,171,284518,6,0,B|332:194|332:194|395:173,1,129.999994049073,2|0,3:2|1:2,0:3:0:0:
343,72,284864,1,2,0:2:0:0:
336,63,284980,2,0,B|277:40|277:40|214:61,1,129.999994049073,8|2,0:2|1:2,0:3:0:0:
127,268,285441,6,0,B|158:282|158:282|139:189,1,129.999994049073,2|0,3:2|1:2,0:0:0:0:
50,136,285787,1,2,0:2:0:0:
42,152,285903,2,0,L|59:233,1,64.9999970245363,8|0,0:2|0:0,0:0:0:0:
7,376,286134,1,2,1:2:0:0:
3,360,286249,1,2,0:2:0:0:
0,344,286364,6,0,P|62:333|114:370,1,129.999994049073,2|0,3:2|1:2,0:0:0:0:
230,370,286711,1,2,0:2:0:0:
222,384,286826,2,0,L|206:243,1,129.999994049073,8|2,0:2|1:2,0:0:0:0:
421,111,287287,6,0,L|406:240,1,129.999994049073,2|0,3:2|1:2,0:0:0:0:
461,350,287634,1,2,0:2:0:0:
468,340,287749,2,0,L|403:332,1,64.9999970245363,8|0,0:2|0:0,0:0:0:0:
269,353,287980,1,2,1:2:0:0:
285,354,288095,1,2,0:2:0:0:
301,356,288211,6,0,L|315:226,1,129.999994049073,2|0,3:2|1:2,0:0:0:0:
324,105,288557,1,2,0:2:0:0:
335,108,288672,2,0,P|283:144|221:133,1,129.999994049073,8|2,0:2|1:2,0:0:0:0:
13,238,289134,6,0,P|75:227|126:263,1,129.999994049073,2|0,3:2|1:2,0:0:0:0:
283,343,289480,1,2,3:2:0:0:
191,384,289595,6,0,L|204:295,1,89.9999972534181,8|0,0:2|0:0,0:0:0:0:
360,158,289826,6,0,L|352:216,1,56.2500021457673,2|0,3:2|0:0,0:0:0:0:
362,227,290057,6,0,P|300:242|243:214,1,129.999994049073,6|0,3:2|1:2,0:0:0:0:
116,254,290403,1,2,0:2:0:0:
127,264,290518,2,0,L|146:130,1,129.999994049073,8|2,0:2|1:2,0:0:0:0:
297,0,290980,6,0,B|351:10|351:10|368:23|368:23|438:36,1,129.999994049073,2|0,3:2|1:2,0:0:0:0:
507,126,291326,1,2,0:2:0:0:
512,113,291441,2,0,L|435:128,1,64.9999970245363,8|0,0:2|0:0,0:0:0:0:
329,152,291671,1,2,1:2:0:0:
344,155,291787,1,2,0:2:0:0:
360,158,291903,6,0,B|369:213|369:213|362:233|362:233|374:304,1,129.999994049073,2|0,3:2|1:2,0:0:0:0:
499,363,292249,1,2,0:2:0:0:
507,351,292364,2,0,B|444:336|444:336|387:379,1,129.999994049073,8|2,0:2|1:2,0:0:0:0:
178,361,292826,6,0,B|241:376|241:376|298:333,1,129.999994049073,2|0,3:2|1:2,0:0:0:0:
241,202,293172,1,2,0:2:0:0:
227,213,293287,2,0,L|215:301,1,64.9999970245363,8|0,0:2|0:0,0:0:0:0:
93,361,293518,1,2,1:2:0:0:
95,344,293633,1,2,0:2:0:0:
97,328,293749,6,0,L|114:199,1,129.999994049073,2|0,3:2|1:2,0:0:0:0:
126,63,294095,1,2,0:2:0:0:
140,74,294211,2,0,P|92:116|28:114,1,129.999994049073,8|2,0:2|1:2,0:0:0:0:
218,277,294672,6,0,L|366:251,1,129.999994049073,2|0,3:2|1:2,0:0:0:0:
266,127,295018,1,2,0:2:0:0:
278,121,295134,2,0,L|265:195,1,64.9999970245363,8|0,0:2|0:0,0:0:0:0:
140,74,295364,1,2,1:2:0:0:
142,57,295479,1,2,0:2:0:0:
145,41,295595,6,0,B|200:32|200:32|220:39|220:39|291:27,1,129.999994049073,2|0,3:2|1:2,0:0:0:0:
412,29,295941,1,2,0:2:0:0:
397,23,296057,2,0,B|359:11|359:11|379:123,1,129.999994049073,8|2,0:2|1:2,0:0:0:0:
512,283,296518,6,0,P|460:244|387:265,1,129.999994049073,2|0,3:2|1:2,0:0:0:0:
278,121,296864,1,2,3:2:0:0:
249,212,296980,6,0,L|353:194,1,89.9999972534181,8|0,0:2|0:0,0:0:0:0:
468,38,297211,6,0,L|412:28,1,56.2500021457673,2|0,3:2|0:0,0:0:0:0:
397,23,297441,6,0,B|342:23|342:23|323:33|323:33|251:33,1,129.999994049073,6|2,3:2|0:2,0:0:0:0:
88,114,297903,1,10,0:2:0:0:
228,271,298134,6,0,L|202:107,1,150,6|0,3:2|0:0,0:0:0:0:
183,88,298595,1,2,3:2:0:0:
117,270,298826,1,8,0:2:0:0:
310,167,299057,6,0,P|385:152|456:256,1,187.5,6|0,3:2|0:0,0:0:0:0:
460,267,299518,1,2,0:2:0:0:
180,202,299749,1,8,0:2:0:0:
352,17,299980,6,0,B|448:-8|505:61|505:61|436:101,1,225.000008583069,6|0,3:2|0:0,0:0:0:0:
428,115,300441,1,2,3:2:0:0:
189,64,300672,6,0,B|261:5|261:5|284:192,1,262.500002503395,10|0,0:2|0:0,0:0:0:0:
298,310,301134,5,4,0:1:0:0:
