osu file format v14

[General]
AudioFilename: audio.ogg
AudioLeadIn: 0
PreviewTime: 50988
Countdown: 0
SampleSet: Soft
StackLeniency: 0.7
Mode: 0
LetterboxInBreaks: 0
WidescreenStoryboard: 0

[Editor]
DistanceSpacing: 1.6
BeatDivisor: 4
GridSize: 32
TimelineZoom: 1

[Metadata]
Title:Princess Primp! (TV Size)
TitleUnicode:Princess Primp! (TV Size)
Artist:Hashimoto Miyuki
ArtistUnicode:橋本みゆき
Creator:KennethBBG
Version:Lover!
Source:プリンセスラバー!
Tags:プリンセス プリンプ Ricotta Princess Lover! iredi -aqua Aqua Laplus- La+ aurorance anime japanese female vocal vocalist j-pop jpop pop eroge galgame visual novel vn video game プリラバ chokix 畑亜貴 虹音 double flower
BeatmapID:3979881
BeatmapSetID:1927304

[Difficulty]
HPDrainRate:6
CircleSize:4.3
OverallDifficulty:8
ApproachRate:9
SliderMultiplier:1.8
SliderTickRate:1

[Events]
//Background and Video events
0,0,"BG.jpg",0,0
//Break Periods
//Storyboard Layer 0 (Background)
//Storyboard Layer 1 (Fail)
//Storyboard Layer 2 (Pass)
//Storyboard Layer 3 (Foreground)
//Storyboard Layer 4 (Overlay)
//Storyboard Sound Samples

[TimingPoints]
1187,370.37037037037,4,2,1,70,1,0
1187,-153.846153846153,4,2,1,70,0,0
1372,-153.846153846153,4,2,1,50,0,0
2668,-153.846153846153,4,2,1,70,0,0
2853,-153.846153846153,4,2,1,50,0,0
4149,-153.846153846153,4,2,1,70,0,0
4427,-153.846153846153,4,2,1,50,0,0
5631,-153.846153846153,4,2,1,70,0,0
6001,-153.846153846153,4,2,1,50,0,0
7298,370.37037037037,4,2,1,75,1,0
7298,-117.647058823529,4,2,1,75,0,0
9056,-117.647058823529,4,2,1,5,0,0
9149,-117.647058823529,4,2,1,75,0,0
9705,-83.3333333333333,4,2,1,75,0,0
9982,-83.3333333333333,4,2,1,75,0,0
10075,-111.111111111111,4,2,1,75,0,0
13223,-133.333333333333,4,2,1,55,0,0
21927,-111.111111111111,4,2,1,55,0,0
22204,-111.111111111111,4,2,1,5,0,0
22297,-111.111111111111,4,2,1,55,0,0
23594,-111.111111111111,4,2,1,55,0,0
23779,-111.111111111111,4,2,1,70,0,0
24520,-111.111111111111,4,2,1,55,0,0
25075,-125,4,2,1,60,0,0
33779,-125,4,2,1,65,0,0
36922,-125,4,2,1,60,0,0
36927,-125,4,2,1,60,0,0
41649,-125,4,2,1,5,0,0
41742,-125,4,2,1,60,0,0
43964,-125,4,2,1,60,0,0
45631,-111.111111111111,4,2,1,65,0,0
48594,-111.111111111111,4,2,1,70,0,0
50260,-111.111111111111,4,2,1,75,0,0
51001,-111.111111111111,4,2,1,60,0,0
51742,-100,4,2,1,85,0,1
56278,-100,4,2,1,5,0,1
56372,-100,4,2,1,85,0,1
60631,-86.9565217391304,4,2,1,85,0,1
60908,-86.9565217391304,4,2,1,5,0,1
61001,-86.9565217391304,4,2,1,85,0,1
61927,-86.9565217391304,4,2,1,85,0,0
62204,-86.9565217391304,4,2,1,5,0,0
62297,-86.9565217391304,4,2,1,85,0,0
63594,-100,4,2,1,85,0,1
68130,-100,4,2,1,5,0,1
68223,-100,4,2,1,85,0,1
70816,-86.9565217391304,4,2,1,85,0,0
71742,-86.9565217391304,4,2,1,65,0,0
72483,-133.333333333333,4,2,1,65,0,0
77668,-117.647058823529,4,2,1,65,0,0
78409,-117.647058823529,4,2,1,75,0,0
84335,-117.647058823529,4,2,1,75,0,0
85816,-117.647058823529,4,2,1,80,0,0
86093,-117.647058823529,4,2,1,5,0,0
86186,-117.647058823529,4,2,1,80,0,0
86742,-83.3333333333333,4,2,1,85,0,0
87019,-83.3333333333333,4,2,1,85,0,0
87112,-83.3333333333333,4,2,1,85,0,0
87297,-83.3333333333333,4,2,1,80,0,0
87483,-83.3333333333333,4,2,1,75,0,0
87668,-83.3333333333333,4,2,1,70,0,0
87853,-83.3333333333333,4,2,1,65,0,0
88038,-83.3333333333333,4,2,1,60,0,0
88223,-83.3333333333333,4,2,1,55,0,0
88409,-83.3333333333333,4,2,1,50,0,0
88594,-83.3333333333333,4,2,1,45,0,0
88779,-83.3333333333333,4,2,1,40,0,0
88964,-83.3333333333333,4,2,1,35,0,0
89149,-83.3333333333333,4,2,1,30,0,0
89335,-83.3333333333333,4,2,1,25,0,0
89520,-83.3333333333333,4,2,1,20,0,0
89705,-83.3333333333333,4,2,1,15,0,0
89890,-83.3333333333333,4,2,1,10,0,0
90075,-83.3333333333333,4,2,1,5,0,0

[Colours]
Combo1 : 255,184,113
Combo2 : 138,197,255
Combo3 : 255,168,255

[HitObjects]
0,144,1187,6,0,B|37:170|39:222|39:222|60:173|102:160,1,175.499991966248,6|2,3:2|0:2,0:0:0:0:
181,133,1927,1,2,0:2:0:0:
342,184,2298,1,2,0:2:0:0:
305,103,2483,1,0,0:0:0:0:
449,131,2668,6,0,P|424:246|405:360,1,233.999989288331,6|2,3:2|0:2,0:0:0:0:
294,313,3594,1,2,0:2:0:0:
210,349,3779,1,2,0:2:0:0:
54,234,3964,1,10,0:2:0:0:
103,380,4149,6,0,B|101:268|154:309|144:204,1,175.499991966248,6|2,3:2|0:2,0:0:0:0:
78,128,4890,1,2,0:2:0:0:
257,79,5261,1,2,0:2:0:0:
176,8,5446,1,0,0:0:0:0:
222,225,5631,6,0,P|233:163|255:91,1,116.999994644165,6|2,3:2|1:2,0:0:0:0:
257,79,6094,1,2,1:2:0:0:
257,79,6186,5,2,1:2:0:0:
358,21,6372,1,2,1:2:0:0:
453,68,6557,1,2,1:2:0:0:
269,169,6742,5,10,0:2:0:0:
170,16,6927,1,10,0:2:0:0:
373,172,7112,5,10,0:2:0:0:
373,172,7205,1,10,0:2:0:0:
373,172,7298,2,0,P|363:248|359:281,1,76.5000014591217,6|0,3:2|0:0,0:0:0:0:
219,381,7668,2,0,P|209:305|194:215,1,153.000002918243,8|0,0:2|3:2,0:0:0:0:
100,113,8223,1,2,0:2:0:0:
268,174,8409,1,10,0:2:0:0:
104,290,8594,1,2,0:2:0:0:
318,350,8779,6,0,P|327:277|337:205,1,114.750002188683,2|0,3:2|0:0,0:0:0:0:
338,209,9149,1,10,0:2:0:0:
429,54,9335,2,0,P|439:130|443:163,1,76.5000014591217,2|0,0:2|3:2,0:0:0:0:
219,113,9705,1,2,0:2:0:0:
332,17,9890,1,8,0:2:0:0:
66,86,10075,6,0,P|76:158|93:256,1,161.999995056153,6|0,3:2|0:0,0:0:0:0:
208,377,10631,1,8,0:2:0:0:
217,209,10816,1,0,0:0:0:0:
33,326,11001,2,0,P|109:336|142:340,1,80.9999975280763,0|0,3:2|0:0,0:0:0:0:
320,247,11372,1,10,0:2:0:0:
301,222,11464,1,2,0:2:0:0:
276,207,11557,1,2,0:2:0:0:
246,202,11649,1,2,0:2:0:0:
216,209,11742,5,10,0:2:0:0:
349,382,11927,1,10,0:2:0:0:
413,106,12483,5,10,0:2:0:0:
271,324,12668,1,10,0:2:0:0:
31,171,13223,6,0,P|101:156|185:141,1,135.000005149842,6|8,3:2|0:2,0:0:0:0:
306,197,13779,1,2,0:2:0:0:
259,90,13964,1,2,3:2:0:0:
206,224,14149,2,0,P|215:264|222:300,1,67.5000025749208,2|8,0:2|0:2,0:0:0:0:
334,340,14520,6,0,P|341:304|348:269,1,67.5000025749208,2|0,0:2|3:2,0:0:0:0:
228,369,14890,2,0,P|192:376|157:383,1,67.5000025749208,2|8,0:2|0:2,0:0:0:0:
21,296,15260,2,0,P|56:303|91:310,1,67.5000025749208,2|0,0:2|3:2,0:0:0:0:
137,156,15631,5,2,0:2:0:0:
208,224,15816,1,10,0:2:0:0:
297,175,16001,1,2,0:2:0:0:
253,0,16186,6,0,P|236:74|219:145,1,135.000005149842,0|8,3:2|0:2,0:0:0:0:
384,194,16742,1,2,0:2:0:0:
337,104,16927,1,2,3:2:0:0:
206,224,17112,2,0,P|246:215|282:208,1,67.5000025749208,2|8,0:2|0:2,0:0:0:0:
370,346,17483,6,0,P|330:337|294:330,1,67.5000025749208,2|0,0:2|3:2,0:0:0:0:
384,194,17853,2,0,L|401:277,1,67.5000025749208,2|8,0:2|0:2,0:0:0:0:
454,132,18223,1,2,0:2:0:0:
454,132,18316,1,8,0:2:0:0:
454,132,18409,1,0,3:2:0:0:
337,104,18594,1,2,0:2:0:0:
473,233,18779,1,10,0:2:0:0:
512,53,18964,1,2,3:2:0:0:
384,194,19149,6,0,P|300:218|240:230,2,135.000005149842,0|8|0,3:2|0:2|3:2,0:0:0:0:
305,63,20075,1,2,0:2:0:0:
196,128,20260,2,0,P|236:137|272:144,1,67.5000025749208,10|2,0:2|0:2,0:0:0:0:
246,337,20631,6,0,P|162:313|102:301,1,135.000005149842,0|10,3:2|0:2,0:0:0:0:
105,141,21186,2,0,P|114:181|121:217,1,67.5000025749208,2|0,0:2|3:2,0:0:0:0:
246,337,21557,2,0,P|253:301|260:266,1,67.5000025749208,2|8,0:2|0:2,0:0:0:0:
495,193,21927,6,0,P|435:183|381:247,1,121.499996292114,4|0,3:2|0:0,0:0:0:0:
371,248,22297,1,0,3:2:0:0:
446,363,22483,2,0,P|452:329|464:276,1,80.9999975280763,8|0,0:2|0:0,0:0:0:0:
286,342,22853,2,0,L|231:335,3,40.4999987640381,2|2|2|2,3:2|0:2|0:2|0:2,0:0:0:0:
358,132,23223,2,0,L|403:128,1,40.4999987640381,10|0,0:2|0:0,0:0:0:0:
254,245,23409,1,2,0:2:0:0:
254,245,23501,1,2,0:0:0:0:
254,245,23594,1,0,3:2:0:0:
181,111,23779,5,14,0:2:0:0:
371,248,23964,1,14,0:2:0:0:
144,374,24149,1,14,0:2:0:0:
144,374,24520,1,0,3:2:0:0:
54,210,24705,1,8,0:2:0:0:
0,300,24890,5,8,0:2:0:0:
0,300,24983,1,8,0:2:0:0:
0,300,25075,2,0,P|70:285|154:270,1,144,4|8,3:2|0:2,0:0:0:0:
260,119,25631,1,2,0:2:0:0:
295,259,25816,1,2,3:2:0:0:
141,172,26001,2,0,P|181:181|217:188,1,72,2|8,0:2|0:2,0:0:0:0:
397,65,26372,6,0,P|361:72|326:79,1,72,2|0,0:2|3:2,0:0:0:0:
386,234,26742,2,0,P|393:198|400:163,1,72,2|8,0:2|0:2,0:0:0:0:
295,259,27112,2,0,P|302:294|309:329,1,72,2|0,0:2|3:2,0:0:0:0:
486,257,27483,1,2,0:2:0:0:
399,163,27668,1,8,0:2:0:0:
229,318,27853,5,2,0:2:0:0:
229,318,27946,1,2,0:2:0:0:
229,318,28038,2,0,P|155:301|84:284,1,144,0|8,3:2|0:2,0:0:0:0:
214,197,28594,1,2,0:2:0:0:
142,98,28779,1,2,3:2:0:0:
42,201,28964,2,0,P|82:192|118:185,1,72,2|8,0:2|0:2,0:0:0:0:
61,32,29335,6,0,P|52:72|45:108,1,72,2|0,0:2|3:2,0:0:0:0:
214,0,29705,2,0,L|228:70,1,72,2|8,0:2|0:2,0:0:0:0:
391,22,30075,2,0,L|321:8,1,72,2|0,0:2|3:2,0:0:0:0:
495,178,30446,1,2,0:2:0:0:
463,53,30631,1,8,0:2:0:0:
340,106,30816,1,2,3:2:0:0:
388,277,31001,6,0,P|403:207|424:138,2,144,0|8|0,3:2|0:2|3:2,0:0:0:0:
340,106,31927,1,2,0:2:0:0:
238,206,32112,2,0,P|278:197|314:190,1,72,10|2,0:2|0:2,0:0:0:0:
118,129,32483,6,0,P|109:169|91:287,1,144,2|10,3:2|0:2,0:0:0:0:
169,379,33038,1,0,0:0:0:0:
0,294,33223,1,2,3:2:0:0:
190,214,33409,2,0,P|184:250|179:294,1,72,2|8,0:2|0:2,0:0:0:0:
323,360,33779,6,0,P|362:365|392:349,1,72,6|0,3:2|0:0,0:0:0:0:
321,254,34149,1,2,3:2:0:0:
478,186,34335,2,0,P|472:223|464:261,1,72,10|0,0:2|0:0,0:0:0:0:
374,156,34705,1,2,3:2:0:0:
478,84,34890,1,2,3:2:0:0:
374,156,35075,1,8,0:2:0:0:
214,30,35260,6,0,L|300:5,1,72,6|0,3:2|0:0,0:0:0:0:
238,178,35631,1,10,0:2:0:0:
92,97,35816,2,0,L|6:72,1,72,10|8,0:2|0:2,0:0:0:0:
0,67,36094,1,8,0:2:0:0:
0,67,36186,1,10,0:2:0:0:
166,227,36372,1,8,0:2:0:0:
18,350,36557,1,10,0:2:0:0:
66,218,36742,1,8,0:2:0:0:
145,384,36927,6,0,B|194:369|241:352|241:352|267:371|299:381,1,144,4|10,3:2|0:2,0:0:0:0:
411,313,37483,1,2,0:2:0:0:
320,216,37668,2,0,P|323:250|329:292,1,72,2|2,3:2|0:2,0:0:0:0:
507,186,38038,1,10,0:2:0:0:
445,108,38223,1,2,0:2:0:0:
249,59,38409,6,0,P|279:114|361:123,1,144,2|10,3:2|0:2,0:0:0:0:
414,29,38964,2,0,P|379:32|338:38,1,72,2|0,0:2|3:2,0:0:0:0:
197,138,39335,2,0,P|232:142|268:146,1,72,2|8,0:2|0:2,0:0:0:0:
171,277,39705,1,2,0:2:0:0:
99,203,39890,6,0,P|110:118|126:45,1,144,2|10,3:2|0:2,0:0:0:0:
209,20,40446,1,2,0:2:0:0:
14,1,40631,2,0,P|18:36|22:72,1,72,2|2,3:2|0:2,0:0:0:0:
181,170,41001,1,10,0:2:0:0:
44,253,41186,1,2,0:2:0:0:
163,384,41372,6,0,P|159:349|143:261,1,108,2|0,3:2|0:0,0:0:0:0:
135,250,41742,1,10,0:2:0:0:
269,148,41927,2,0,P|264:183|260:219,1,72,2|0,0:2|3:2,0:0:0:0:
393,384,42297,2,0,P|389:349|384:308,1,72,2|8,0:2|0:2,0:0:0:0:
450,195,42668,1,2,3:2:0:0:
259,219,42853,6,0,P|290:242|334:243,1,72,6|2,3:2|0:2,0:0:0:0:
297,58,43223,1,10,0:2:0:0:
196,128,43409,1,2,0:2:0:0:
387,111,43594,2,0,P|381:67|373:24,1,72,2|2,3:2|0:2,0:0:0:0:
212,0,43964,1,8,0:2:0:0:
277,200,44149,6,0,P|287:119|297:55,1,144,6|0,3:2|0:0,0:0:0:0:
196,128,44705,1,10,0:2:0:0:
358,210,44890,1,2,0:2:0:0:
296,57,45075,1,2,3:2:0:0:
187,207,45260,2,0,P|151:200|115:196,1,72,2|8,0:2|0:2,0:0:0:0:
310,384,45631,6,0,B|302:337|289:287|289:287|311:312|343:316,1,161.999995056153,6|0,3:2|0:0,0:0:0:0:
455,384,46186,2,0,P|461:340|469:297,1,80.9999975280763,8|0,0:2|0:0,0:0:0:0:
357,212,46557,1,0,3:2:0:0:
485,148,46742,1,0,0:0:0:0:
357,212,46927,2,0,P|316:205|276:200,1,80.9999975280763,8|2,0:2|0:2,0:0:0:0:
251,201,47205,1,8,0:2:0:0:
251,201,47297,1,0,3:2:0:0:
100,103,47483,5,2,0:2:0:0:
208,291,47668,1,10,0:2:0:0:
27,199,47853,1,2,0:2:0:0:
214,119,48038,2,0,P|220:75|228:32,1,80.9999975280763,2|2,3:2|0:2,0:0:0:0:
230,20,48316,1,2,0:0:0:0:
230,20,48409,1,10,0:2:0:0:
357,212,48594,6,0,P|434:236|496:189,1,161.999995056153,14|0,0:2|3:2,0:0:0:0:
512,378,49149,2,0,P|472:370|432:365,1,80.9999975280763,8|0,0:2|0:0,0:0:0:0:
249,255,49520,1,6,3:2:0:0:
252,275,49612,1,2,0:2:0:0:
254,295,49705,1,2,0:2:0:0:
256,315,49797,1,2,0:2:0:0:
261,336,49890,2,0,P|309:330|349:325,1,80.9999975280763,10|2,0:2|0:2,0:0:0:0:
399,83,50260,5,14,0:2:0:0:
155,242,50446,1,14,0:2:0:0:
411,348,50631,1,14,0:2:0:0:
411,348,51186,5,0,3:2:0:0:
221,299,51372,1,10,0:2:0:0:
326,142,51557,5,8,0:2:0:0:
326,142,51649,1,8,0:2:0:0:
326,142,51742,2,0,P|417:128|464:207,1,180,6|8,3:2|0:2,0:0:0:0:
311,359,52297,1,2,0:2:0:0:
489,299,52483,2,0,P|430:290|373:283,1,90,2|0,3:2|0:0,0:0:0:0:
218,384,52853,1,10,0:2:0:0:
283,182,53038,6,0,P|300:277|313:373,1,180,2|0,0:2|0:0,0:0:0:0:
126,334,53594,1,8,0:2:0:0:
126,334,53964,2,0,P|135:275|142:218,1,90,2|0,3:2|0:0,0:0:0:0:
0,166,54335,2,0,P|9:225|16:282,1,90,10|0,0:2|0:0,0:0:0:0:
201,148,54705,6,0,B|311:150|257:208|368:212,1,180,2|8,3:2|0:2,0:0:0:0:
508,68,55260,1,2,0:2:0:0:
387,10,55446,2,0,P|370:55|377:100,1,90,2|0,3:2|0:0,0:0:0:0:
456,183,55816,1,10,0:2:0:0:
298,358,56001,2,0,P|223:348|148:335,1,135,6|0,3:2|0:0,0:0:0:0:
337,218,56372,5,2,3:2:0:0:
170,152,56557,1,10,0:2:0:0:
238,309,56742,1,2,0:2:0:0:
238,309,56835,1,2,0:2:0:0:
238,309,56927,2,0,P|243:264|250:219,1,90,0|0,3:2|0:0,0:0:0:0:
99,31,57297,5,10,0:2:0:0:
0,215,57482,1,2,0:2:0:0:
170,152,57668,2,0,P|125:146|80:139,1,90,6|2,3:2|0:2,0:0:0:0:
155,336,58038,1,10,0:2:0:0:
272,230,58223,2,0,P|183:245|94:259,1,180,2|0,0:2|0:0,0:0:0:0:
221,72,58779,5,10,0:2:0:0:
374,206,58964,1,2,0:2:0:0:
405,63,59149,1,2,3:2:0:0:
272,249,59335,1,2,0:2:0:0:
474,191,59520,1,10,0:2:0:0:
402,384,59705,2,0,P|388:294|374:206,1,180,2|0,0:2|0:0,0:0:0:0:
452,101,60260,1,8,0:2:0:0:
358,212,60446,5,2,0:2:0:0:
117,47,60631,2,0,P|193:28|247:115,1,155.250002961159,6|0,3:2|0:0,0:0:0:0:
232,102,61001,1,10,0:2:0:0:
55,211,61186,1,2,0:2:0:0:
15,96,61372,1,0,3:2:0:0:
164,200,61557,1,2,0:2:0:0:
4,307,61742,1,8,0:2:0:0:
268,188,61927,6,0,P|324:230|413:218,1,155.250002961159,6|0,3:2|0:0,0:0:0:0:
429,209,62297,1,8,0:2:0:0:
370,22,62483,2,0,P|358:72|351:123,1,103.500001974106,8|8,0:2|0:2,0:0:0:0:
512,384,62853,2,0,P|505:332|492:282,1,103.500001974106,2|0,3:2|0:0,0:0:0:0:
512,144,63223,1,10,0:2:0:0:
258,197,63409,5,8,0:2:0:0:
258,197,63501,1,8,0:0:0:0:
258,197,63594,2,0,B|222:200|181:213|181:213|154:200|154:200|114:214|72:220,1,180,6|8,3:2|0:2,0:0:0:0:
197,24,64149,1,2,0:2:0:0:
0,60,64335,2,0,P|47:74|90:84,1,90,2|0,3:2|0:0,0:0:0:0:
0,202,64705,1,10,0:2:0:0:
166,363,64890,6,0,B|219:347|270:330|270:330|306:348|338:361,1,180,2|0,0:2|0:0,0:0:0:0:
260,197,65446,1,10,0:2:0:0:
143,255,65631,1,2,0:2:0:0:
258,97,65816,2,0,P|317:106|374:113,1,90,2|0,3:2|0:0,0:0:0:0:
507,232,66186,2,0,P|462:237|417:244,1,90,10|0,0:2|0:0,0:0:0:0:
244,0,66557,6,0,P|332:15|421:28,1,180,6|10,3:2|0:2,0:0:0:0:
260,197,67112,1,2,0:2:0:0:
135,114,67297,2,0,P|118:68|125:23,1,90,0|0,3:2|0:0,0:0:0:0:
258,97,67668,1,10,0:2:0:0:
139,306,67853,6,0,P|205:294|272:285,1,135,6|0,3:2|0:0,0:0:0:0:
300,277,68223,1,0,0:0:0:0:
356,135,68409,1,10,0:2:0:0:
203,199,68594,1,0,0:0:0:0:
392,382,68779,2,0,P|397:337|404:292,1,90,2|0,3:2|0:0,0:0:0:0:
265,99,69149,5,10,0:2:0:0:
392,36,69335,1,2,3:2:0:0:
507,178,69520,6,0,P|435:195|348:106,1,180,6|10,3:2|0:2,0:0:0:0:
160,155,70075,1,2,0:2:0:0:
249,0,70260,1,8,0:2:0:0:
254,33,70352,1,8,0:2:0:0:
259,66,70445,1,10,0:2:0:0:
265,99,70537,1,8,0:2:0:0:
270,133,70630,1,0,3:2:0:0:
129,375,70816,6,0,P|134:330|146:258,1,103.500001974106,14|0,0:2|0:0,0:0:0:0:
355,134,71186,1,14,0:2:0:0:
90,15,71372,1,14,0:2:0:0:
349,226,72112,5,10,0:2:0:0:
484,331,72297,1,8,0:2:0:0:
484,331,72390,1,8,0:2:0:0:
484,331,72483,2,0,P|415:343|326:363,1,135.000005149842,6|0,3:2|0:0,0:0:0:0:
167,271,73038,1,2,3:2:0:0:
248,384,73223,2,0,P|255:318|274:223,1,135.000005149842,10|0,0:2|0:0,0:0:0:0:
218,155,73779,1,0,3:2:0:0:
165,272,73964,6,0,P|111:259|71:253,1,67.5000025749208,2|0,0:2|3:2,0:0:0:0:
0,209,74335,1,0,3:2:0:0:
0,209,74705,2,0,P|13:263|19:303,1,67.5000025749208,8|0,0:2|0:0,0:0:0:0:
104,375,75075,2,0,P|110:337|120:300,1,67.5000025749208,2|0,0:2|3:2,0:0:0:0:
227,154,75446,6,0,B|142:163|181:198|97:206,1,135.000005149842,2|0,3:2|3:2,0:0:0:0:
212,303,76001,1,0,0:0:0:0:
264,234,76187,2,0,P|296:225|329:218,1,67.5000025749208,8|2,0:2|0:2,0:0:0:0:
417,271,76558,1,2,0:2:0:0:
498,171,76743,1,2,3:2:0:0:
138,63,77112,5,10,0:2:0:0:
89,217,77297,1,2,3:2:0:0:
0,53,77483,1,2,3:2:0:0:
187,190,77668,1,2,0:2:0:0:
249,23,77853,1,2,3:2:0:0:
77,125,78038,1,10,0:2:0:0:
201,301,78223,5,0,3:2:0:0:
201,301,78316,1,0,3:2:0:0:
201,301,78409,2,0,P|267:251|342:275,1,153.000002918243,6|8,3:2|0:2,0:0:0:0:
446,193,78964,1,2,0:2:0:0:
346,91,79149,1,0,3:2:0:0:
346,91,79520,1,10,0:2:0:0:
470,27,79705,1,2,0:2:0:0:
351,179,79890,6,0,P|298:168|178:136,1,153.000002918243,2|8,3:2|0:2,0:0:0:0:
242,0,80446,2,0,P|255:54|261:94,1,76.5000014591217,2|0,0:2|3:2,0:0:0:0:
165,220,80816,1,2,0:2:0:0:
57,140,81001,1,10,0:2:0:0:
130,326,81186,6,0,B|223:334|194:284|278:290,1,153.000002918243,6|0,3:2|3:2,0:0:0:0:
421,368,81742,2,0,P|367:355|327:349,1,76.5000014591217,8|0,0:2|0:0,0:0:0:0:
395,149,82112,1,8,3:2:0:0:
398,178,82204,1,8,0:2:0:0:
400,207,82297,1,8,0:2:0:0:
403,235,82389,1,8,0:2:0:0:
405,264,82482,1,8,3:2:0:0:
301,205,82668,1,0,3:2:0:0:
133,371,82853,5,6,3:2:0:0:
133,20,83964,5,8,0:2:0:0:
0,132,84149,1,2,3:2:0:0:
0,132,84242,1,2,0:2:0:0:
0,132,84335,2,0,P|76:122|109:118,1,76.5000014591217,6|0,3:2|0:0,0:0:0:0:
190,240,84705,2,0,P|114:230|81:226,1,76.5000014591217,8|0,0:2|0:0,0:0:0:0:
200,142,85075,1,0,3:2:0:0:
317,286,85260,1,2,0:2:0:0:
389,98,85446,1,10,0:2:0:0:
269,202,85631,1,2,0:2:0:0:
411,369,85816,6,0,P|420:296|430:224,1,114.750002188683,6|0,3:2|0:0,0:0:0:0:
431,224,86186,1,10,0:2:0:0:
299,33,86372,2,0,P|309:109|313:142,1,76.5000014591217,6|0,3:2|0:0,0:0:0:0:
218,267,86742,1,10,0:2:0:0:
128,198,86927,1,8,0:2:0:0:
33,377,87112,5,6,3:2:0:0:
256,192,87205,12,0,90260,0:0:0:0:
