osu file format v14

[General]
AudioFilename: audio.ogg
AudioLeadIn: 0
PreviewTime: 50988
Countdown: 0
SampleSet: Soft
StackLeniency: 0.7
Mode: 0
LetterboxInBreaks: 0
WidescreenStoryboard: 1

[Editor]
DistanceSpacing: 1.6
BeatDivisor: 4
GridSize: 32
TimelineZoom: 1.6

[Metadata]
Title:Princess Primp! (TV Size)
TitleUnicode:Princess Primp! (TV Size)
Artist:Hashimoto Miyuki
ArtistUnicode:橋本みゆき
Creator:KennethBBG
Version:Hard!
Source:プリンセスラバー!
Tags:プリンセス プリンプ Ricotta Princess Lover! iredi -aqua Aqua Laplus- La+ aurorance anime japanese female vocal vocalist j-pop jpop pop eroge galgame visual novel vn video game プリラバ chokix 畑亜貴 虹音 double flower
BeatmapID:3979878
BeatmapSetID:1927304

[Difficulty]
HPDrainRate:4
CircleSize:3.5
OverallDifficulty:6
ApproachRate:7
SliderMultiplier:1.35
SliderTickRate:1

[Events]
//Background and Video events
0,0,"BG.jpg",0,0
//Break Periods
//Storyboard Layer 0 (Background)
//Storyboard Layer 1 (Fail)
//Storyboard Layer 2 (Pass)
//Storyboard Layer 3 (Foreground)
//Storyboard Layer 4 (Overlay)
//Storyboard Sound Samples

[TimingPoints]
1187,370.37037037037,4,2,1,70,1,0
1187,-125,4,2,1,70,0,0
1372,-125,4,2,1,50,0,0
2668,-125,4,2,1,70,0,0
2853,-125,4,2,1,50,0,0
4149,-125,4,2,1,70,0,0
4427,-125,4,2,1,50,0,0
5631,-117.647058823529,4,2,1,70,0,0
6001,-117.647058823529,4,2,1,50,0,0
7298,370.37037037037,4,2,1,75,1,0
7298,-111.111111111111,4,2,1,75,0,0
13223,-117.647058823529,4,2,1,55,0,0
23779,-117.647058823529,4,2,1,70,0,0
24520,-117.647058823529,4,2,1,55,0,0
25075,-117.647058823529,4,2,1,60,0,0
33779,-117.647058823529,4,2,1,65,0,0
36922,-117.647058823529,4,2,1,60,0,0
36927,-111.111111111111,4,2,1,60,0,0
43964,-111.111111111111,4,2,1,60,0,0
45631,-111.111111111111,4,2,1,65,0,0
48594,-111.111111111111,4,2,1,70,0,0
50260,-111.111111111111,4,2,1,75,0,0
51001,-142.857142857143,4,2,1,60,0,0
51742,-99.9999999999999,4,2,1,85,0,1
61927,-99.9999999999999,4,2,1,85,0,0
63594,-99.9999999999999,4,2,1,85,0,1
71742,-99.9999999999999,4,2,1,65,0,1
72297,-142.857142857143,4,2,1,65,0,0
78409,-111.111111111111,4,2,1,75,0,0
82853,-192.307692307692,4,2,1,75,0,0
84335,-111.111111111111,4,2,1,75,0,0
85816,-111.111111111111,4,2,1,80,0,0
86742,-111.111111111111,4,2,1,85,0,0
87112,-214.244518951913,4,2,1,85,0,0
87297,-214.244518951913,4,2,1,80,0,0
87483,-214.244518951913,4,2,1,75,0,0
87668,-214.244518951913,4,2,1,70,0,0
87853,-214.244518951913,4,2,1,65,0,0
88038,-214.244518951913,4,2,1,60,0,0
88223,-214.244518951913,4,2,1,55,0,0
88409,-214.244518951913,4,2,1,50,0,0
88594,-214.244518951913,4,2,1,45,0,0
88779,-214.244518951913,4,2,1,40,0,0
88964,-214.244518951913,4,2,1,35,0,0
89149,-214.244518951913,4,2,1,30,0,0
89335,-214.244518951913,4,2,1,25,0,0
89520,-214.244518951913,4,2,1,20,0,0
89705,-214.244518951913,4,2,1,15,0,0
89890,-214.244518951913,4,2,1,10,0,0
90075,-214.244518951913,4,2,1,5,0,0

[Colours]
Combo1 : 255,184,113
Combo2 : 138,197,255
Combo3 : 255,168,255

[HitObjects]
0,127,1187,6,0,P|51:130|141:57,1,162,6|2,3:2|0:2,0:0:0:0:
209,12,1927,1,2,0:2:0:0:
342,115,2298,1,2,0:2:0:0:
511,23,2668,6,0,P|482:151|470:249,1,216,6|2,3:2|0:2,0:0:0:0:
504,334,3594,1,2,0:2:0:0:
504,334,3779,2,0,L|442:318,1,54,2|10,0:2|0:2,0:0:0:0:
362,294,4149,6,0,B|256:292|295:342|196:333,1,162,6|2,3:2|0:2,0:0:0:0:
128,347,4890,1,2,0:2:0:0:
4,258,5261,1,2,0:2:0:0:
132,146,5631,2,0,P|190:136|258:115,1,114.750002188683,6|2,3:2|1:2,0:0:0:0:
275,119,6094,1,2,1:2:0:0:
275,119,6186,5,2,1:2:0:0:
360,158,6372,2,0,L|369:239,1,57.3750010943413,2|2,1:2|1:2,0:0:0:0:
323,291,6742,1,10,0:2:0:0:
323,291,6927,1,10,0:2:0:0:
241,274,7112,5,10,0:2:0:0:
241,274,7205,1,10,0:2:0:0:
241,274,7298,2,0,P|180:282|120:289,2,121.499996292114,6|8|0,3:2|0:2|3:2,0:0:0:0:
307,195,8223,1,2,0:2:0:0:
263,110,8409,1,10,0:2:0:0:
263,110,8594,1,2,0:2:0:0:
171,159,8779,6,0,P|103:151|37:132,1,121.499996292114,2|10,3:2|0:2,0:0:0:0:
19,229,9335,1,2,0:2:0:0:
81,369,9705,2,0,P|117:376|158:358,1,60.7499981460572,2|8,0:2|0:2,0:0:0:0:
224,322,10075,6,0,P|233:255|248:178,1,121.499996292114,6|0,3:2|0:0,0:0:0:0:
279,111,10631,2,0,P|315:104|388:145,1,121.499996292114,8|0,0:2|3:2,0:0:0:0:
491,307,11372,2,0,L|479:351,3,30.3749990730286,10|2|2|2,0:2|0:2|0:2|0:2,0:0:0:0:
467,382,11742,5,10,0:2:0:0:
377,344,11927,1,10,0:2:0:0:
199,275,12483,5,10,0:2:0:0:
255,193,12668,1,10,0:2:0:0:
464,100,13223,6,0,P|418:110|353:68,1,114.750002188683,6|8,3:2|0:2,0:0:0:0:
258,56,13779,1,2,0:2:0:0:
258,56,13964,2,0,P|252:27|246:0,2,57.3750010943413,2|2|8,3:2|0:2|0:2,0:0:0:0:
175,96,14520,2,0,P|164:163|155:235,2,114.750002188683,2|2|2,0:2|0:2|0:2,0:0:0:0:
184,279,15631,2,0,P|239:291|296:301,1,114.750002188683,2|2,0:2|0:2,0:0:0:0:
371,364,16186,6,0,P|428:358|481:386,1,114.750002188683,0|8,3:2|0:2,0:0:0:0:
496,292,16742,2,0,P|501:263|508:236,2,57.3750010943413,2|2|2,0:2|3:2|0:2,0:0:0:0:
416,248,17297,1,8,0:2:0:0:
432,157,17483,2,0,P|443:90|452:18,2,114.750002188683,2|2|2,0:2|0:2|0:2,0:0:0:0:
248,162,18594,2,0,L|235:98,2,57.3750010943413,2|10|2,0:2|0:2|3:2,0:0:0:0:
215,272,19149,6,0,P|268:252|325:256,2,114.750002188683,0|8|0,3:2|0:2|3:2,0:0:0:0:
137,334,20075,1,2,0:2:0:0:
42,298,20260,2,0,P|45:269|46:240,1,57.3750010943413,10|2,0:2|0:2,0:0:0:0:
21,137,20631,2,0,P|100:160|157:171,1,114.750002188683,0|10,3:2|0:2,0:0:0:0:
200,104,21186,1,2,0:2:0:0:
354,16,21557,2,0,P|388:23|421:29,1,57.3750010943413,2|8,0:2|0:2,0:0:0:0:
445,109,21927,6,0,P|411:153|420:208,1,114.750002188683,4|0,3:2|3:2,0:0:0:0:
481,288,22483,2,0,P|449:294|350:306,1,114.750002188683,8|2,0:2|3:2,0:0:0:0:
270,273,23038,1,2,0:2:0:0:
270,273,23223,2,0,P|272:212|240:161,1,114.750002188683,10|0,0:2|3:2,0:0:0:0:
141,119,23779,5,14,0:2:0:0:
216,57,23964,1,14,0:2:0:0:
148,0,24149,1,14,0:2:0:0:
0,130,24520,2,0,L|12:198,1,57.3750010943413,0|8,3:2|0:2,0:0:0:0:
0,290,24890,5,8,0:2:0:0:
0,290,24983,1,8,0:2:0:0:
0,290,25075,2,0,P|46:280|111:322,1,114.750002188683,4|8,3:2|0:2,0:0:0:0:
169,375,25631,1,2,0:2:0:0:
260,352,25816,1,2,3:2:0:0:
260,352,26001,2,0,P|251:315|245:281,1,57.3750010943413,2|8,0:2|0:2,0:0:0:0:
313,231,26372,6,0,P|347:224|434:264,2,114.750002188683,2|2|2,0:2|0:2|0:2,0:0:0:0:
298,47,27483,2,0,P|253:54|179:4,1,114.750002188683,2|2,0:2|0:2,0:0:0:0:
120,68,28038,6,0,B|132:113|132:113|103:196,1,114.750002188683,0|8,3:2|0:2,0:0:0:0:
40,238,28594,1,2,0:2:0:0:
83,321,28779,1,2,3:2:0:0:
83,321,28964,2,0,P|121:312|155:306,1,57.3750010943413,2|8,0:2|0:2,0:0:0:0:
195,243,29335,5,2,0:2:0:0:
361,200,29705,2,0,L|350:278,1,57.3750010943413,2|8,0:2|0:2,0:0:0:0:
323,346,30075,2,0,P|378:335|427:362,1,114.750002188683,2|2,0:2|0:2,0:0:0:0:
499,314,30631,1,8,0:2:0:0:
475,230,30816,1,2,3:2:0:0:
475,230,31001,6,0,P|489:164|509:99,2,114.750002188683,0|8|0,3:2|0:2|3:2,0:0:0:0:
386,204,31927,2,0,P|348:195|314:188,2,57.3750010943413,2|10|2,0:2|0:2|0:2,0:0:0:0:
355,291,32483,6,0,P|316:319|244:310,1,114.750002188683,2|10,3:2|0:2,0:0:0:0:
107,383,33223,1,2,3:2:0:0:
46,320,33409,2,0,P|41:291|35:263,1,57.3750010943413,2|8,0:2|0:2,0:0:0:0:
0,175,33779,6,0,P|54:163|108:214,1,114.750002188683,6|2,3:2|3:2,0:0:0:0:
172,172,34335,1,10,0:2:0:0:
224,31,34705,1,2,3:2:0:0:
224,31,34890,2,0,P|258:25|294:17,1,57.3750010943413,2|8,3:2|0:2,0:0:0:0:
387,60,35260,6,0,L|513:91,1,114.750002188683,6|10,3:2|0:0,0:0:0:0:
468,191,35816,2,0,P|412:160|401:158,1,57.3750010943413,10|8,0:2|0:2,0:0:0:0:
335,208,36186,1,10,0:2:0:0:
335,208,36372,1,8,0:2:0:0:
355,294,36557,1,10,0:2:0:0:
355,294,36743,1,8,0:2:0:0:
252,356,36927,6,0,B|207:342|180:327|180:327|151:343|127:359,1,121.499996292114,4|10,3:2|0:2,0:0:0:0:
51,334,37483,1,2,0:2:0:0:
109,264,37668,2,0,P|112:232|117:192,1,60.7499981460572,2|2,3:2|0:2,0:0:0:0:
31,167,38038,2,0,P|27:133|23:99,1,60.7499981460572,10|2,0:2|0:2,0:0:0:0:
96,51,38409,6,0,P|124:103|201:112,1,121.499996292114,2|10,3:2|0:2,0:0:0:0:
233,39,38964,1,2,0:2:0:0:
366,160,39335,2,0,L|428:151,1,60.7499981460572,2|8,0:2|0:2,0:0:0:0:
512,106,39705,1,2,0:2:0:0:
483,216,39890,6,0,P|471:275|465:336,1,121.499996292114,2|10,3:2|0:2,0:0:0:0:
382,375,40446,1,2,0:2:0:0:
337,295,40631,2,0,P|340:262|344:229,1,60.7499981460572,2|2,3:2|0:2,0:0:0:0:
294,157,41001,2,0,P|291:124|287:90,1,60.7499981460572,10|2,0:2|0:2,0:0:0:0:
228,27,41372,6,0,P|173:32|106:80,1,121.499996292114,2|10,3:2|0:2,0:0:0:0:
45,118,41927,1,2,0:2:0:0:
97,249,42297,2,0,P|100:279|103:309,1,60.7499981460572,2|8,0:2|0:2,0:0:0:0:
37,371,42668,1,2,3:2:0:0:
178,380,42853,5,6,3:2:0:0:
178,380,43038,1,2,0:2:0:0:
265,359,43223,2,0,P|306:365|347:372,1,60.7499981460572,10|2,0:2|0:2,0:0:0:0:
412,322,43594,1,2,3:2:0:0:
509,304,43779,2,0,P|504:275|499:245,1,60.7499981460572,2|8,0:2|0:2,0:0:0:0:
451,139,44149,6,0,P|461:58|470:-3,1,121.499996292114,6|0,3:2|0:0,0:0:0:0:
369,55,44705,2,0,P|333:55|299:78,1,60.7499981460572,10|2,0:2|0:2,0:0:0:0:
281,151,45075,1,2,3:2:0:0:
228,225,45260,2,0,P|194:218|160:215,1,60.7499981460572,2|8,0:2|0:2,0:0:0:0:
82,283,45631,6,0,P|56:247|79:161,1,121.499996292114,6|0,3:2|0:0,0:0:0:0:
137,132,46186,2,0,L|154:12,2,121.499996292114,8|0|8,0:2|3:2|0:2,0:0:0:0:
197,209,47112,2,0,L|209:280,1,60.7499981460572,2|0,0:2|3:2,0:0:0:0:
195,359,47483,5,2,0:2:0:0:
281,377,47668,2,0,L|352:365,1,60.7499981460572,10|2,0:2|0:2,0:0:0:0:
399,297,48038,2,0,P|405:255|412:215,1,60.7499981460572,2|2,3:2|0:2,0:0:0:0:
421,195,48316,1,2,0:0:0:0:
421,195,48409,1,10,0:2:0:0:
391,78,48594,6,0,P|318:101|260:56,1,121.499996292114,14|0,0:2|3:2,0:0:0:0:
191,83,49149,2,0,P|153:75|115:70,1,60.7499981460572,8|0,0:2|0:0,0:0:0:0:
57,125,49520,2,0,L|5:134,3,30.3749990730286,6|2|2|2,3:2|0:2|0:2|0:2,0:0:0:0:
0,167,49890,2,0,P|6:212|11:250,1,60.7499981460572,10|2,0:2|0:2,0:0:0:0:
37,313,50260,5,14,0:2:0:0:
101,378,50446,1,14,0:2:0:0:
192,376,50631,1,14,0:2:0:0:
310,160,51186,5,0,3:2:0:0:
282,235,51372,1,10,0:2:0:0:
376,296,51557,5,8,0:2:0:0:
376,296,51649,1,8,0:2:0:0:
376,296,51742,2,0,P|388:232|408:153,1,135,6|8,3:2|0:2,0:0:0:0:
484,112,52297,1,2,0:2:0:0:
415,43,52483,2,0,P|359:51|315:60,1,67.5,2|0,3:2|0:0,0:0:0:0:
255,24,52853,1,10,0:2:0:0:
219,111,53038,6,0,P|235:200|245:273,1,135,2|0,0:2|0:0,0:0:0:0:
275,336,53594,1,8,0:2:0:0:
77,378,53964,2,0,P|41:361|42:314,1,67.5,2|0,3:2|0:0,0:0:0:0:
90,257,54335,2,0,P|83:204|75:175,1,67.5,10|0,0:2|0:0,0:0:0:0:
88,83,54705,6,0,B|144:135|242:89,1,135,2|8,3:2|0:2,0:0:0:0:
317,84,55260,1,2,0:2:0:0:
317,84,55446,2,0,P|301:127|308:169,1,67.5,2|0,3:2|0:0,0:0:0:0:
312,235,55816,1,10,0:2:0:0:
429,300,56001,6,0,P|438:229|459:144,1,135,6|2,3:2|3:2,0:0:0:0:
495,67,56557,1,10,0:2:0:0:
411,10,56742,2,0,L|264:46,1,135,2|0,0:2|0:0,0:0:0:0:
223,128,57297,1,10,0:2:0:0:
141,73,57483,1,2,0:2:0:0:
50,113,57668,6,0,P|56:155|63:197,1,67.5,6|2,3:2|0:2,0:0:0:0:
47,288,58038,1,10,0:2:0:0:
47,288,58223,2,0,P|131:274|175:305,1,135,2|0,0:2|0:0,0:0:0:0:
270,312,58779,2,0,P|276:270|283:228,1,67.5,10|2,0:2|0:2,0:0:0:0:
224,167,59149,5,2,3:2:0:0:
224,167,59335,1,2,0:2:0:0:
256,71,59520,1,10,0:2:0:0:
354,95,59705,2,0,B|464:147|385:174|525:219,1,202.5,2|8,0:2|0:2,0:0:0:0:
512,305,60446,1,2,0:2:0:0:
436,381,60631,6,0,P|383:343|321:363,1,135,6|10,3:2|0:2,0:0:0:0:
238,334,61186,2,0,L|252:261,1,67.5,2|0,0:2|3:2,0:0:0:0:
219,185,61557,2,0,L|206:118,1,67.5,2|8,0:2|0:2,0:0:0:0:
171,0,61927,6,0,P|119:39|34:6,1,135,6|8,3:2|0:2,0:0:0:0:
3,103,62483,1,8,0:2:0:0:
87,231,62853,2,0,P|75:299|70:340,1,67.5,2|0,3:2|0:0,0:0:0:0:
24,371,63223,1,10,0:2:0:0:
138,384,63409,5,8,0:2:0:0:
138,384,63501,1,8,0:0:0:0:
138,384,63594,2,0,P|202:372|281:352,1,135,6|8,3:2|0:2,0:0:0:0:
311,272,64149,1,2,0:2:0:0:
311,272,64335,2,0,P|319:216|328:172,1,67.5,2|0,3:2|0:0,0:0:0:0:
258,134,64705,1,10,0:2:0:0:
293,46,64890,6,0,P|359:18|425:59,1,135,2|0,0:2|0:0,0:0:0:0:
464,122,65446,1,10,0:2:0:0:
464,122,65631,1,2,0:2:0:0:
450,215,65816,2,0,L|466:290,1,67.5,2|0,3:2|0:0,0:0:0:0:
452,384,66187,2,0,P|399:377|370:369,1,67.5,10|0,0:2|0:0,0:0:0:0:
337,262,66557,6,0,B|266:227|210:279,1,135,6|10,3:2|0:2,0:0:0:0:
140,335,67112,1,2,0:2:0:0:
107,251,67298,2,0,P|91:208|98:166,1,67.5,0|0,3:2|0:0,0:0:0:0:
183,172,67668,1,10,0:2:0:0:
163,53,67853,6,0,P|92:44|7:23,1,135,6|0,3:2|0:0,0:0:0:0:
0,119,68409,2,0,P|4:161|11:203,1,67.5,10|0,0:2|0:0,0:0:0:0:
77,249,68779,2,0,P|72:282|69:316,1,67.5,2|0,3:2|0:0,0:0:0:0:
142,376,69149,1,10,0:2:0:0:
206,306,69335,1,2,3:2:0:0:
309,369,69520,6,0,P|325:301|241:219,1,135,6|10,3:2|0:2,0:0:0:0:
223,194,70075,1,2,0:2:0:0:
255,107,70260,2,0,L|316:115,3,33.75,8|8|10|8,0:2|0:2|0:2|0:2,0:0:0:0:
336,108,70631,1,0,3:2:0:0:
411,164,70816,6,0,P|416:207|427:274,1,67.5,14|0,0:2|0:0,0:0:0:0:
333,269,71186,1,14,0:2:0:0:
401,338,71372,1,14,0:2:0:0:
0,373,72112,5,10,0:2:0:0:
73,309,72297,1,8,0:2:0:0:
73,309,72390,1,8,0:2:0:0:
73,309,72483,2,0,P|85:244|104:160,1,141.749995674133,6|2,3:2|3:2,0:0:0:0:
3,74,73223,2,0,P|65:68|154:50,1,141.749995674133,10|0,0:2|3:2,0:0:0:0:
229,77,73964,6,0,P|280:89|337:96,1,94.4999971160889,2|0,0:2|3:2,0:0:0:0:
430,187,74705,1,8,0:2:0:0:
433,326,75075,2,0,P|442:360|446:379,1,47.2499985580445,2|0,0:2|3:2,0:0:0:0:
352,384,75446,6,0,P|313:362|298:302,1,94.4999971160889,2|0,3:2|3:2,0:0:0:0:
112,254,76186,2,0,P|88:245|66:239,1,47.2499985580445,8|2,0:2|0:2,0:0:0:0:
35,152,76557,1,2,0:2:0:0:
109,95,76743,1,2,3:2:0:0:
293,94,77112,6,0,L|287:47,2,47.2499985580445,10|2|2,0:2|3:2|3:2,0:0:0:0:
319,186,77668,2,0,L|366:192,1,47.2499985580445,2|2,0:2|3:2,0:0:0:0:
458,195,78038,1,10,0:2:0:0:
390,297,78223,5,0,3:2:0:0:
390,297,78316,1,0,3:2:0:0:
390,297,78409,2,0,P|316:333|247:296,1,121.499996292114,6|8,3:2|0:2,0:0:0:0:
207,264,78964,2,0,L|232:118,1,121.499996292114,2|0,0:2|0:0,0:0:0:0:
258,49,79520,1,10,0:2:0:0:
173,20,79705,1,2,0:2:0:0:
118,102,79890,6,0,P|68:92|-45:62,1,121.499996292114,2|8,3:2|0:2,0:0:0:0:
0,168,80446,2,0,P|13:219|34:298,1,121.499996292114,2|2,0:2|0:2,0:0:0:0:
41,375,81001,1,10,0:2:0:0:
131,324,81186,6,0,B|209:339|167:360|240:387,1,121.499996292114,6|0,3:2|3:2,0:0:0:0:
316,338,81742,2,0,P|367:326|405:320,1,60.7499981460572,8|0,0:2|0:0,0:0:0:0:
429,257,82112,2,0,L|434:211,3,30.3749990730286,8|8|8|8,3:2|0:2|0:2|0:2,0:0:0:0:
440,175,82483,1,8,3:2:0:0:
398,98,82668,1,0,3:2:0:0:
472,22,82853,5,6,3:2:0:0:
157,122,83964,5,8,0:2:0:0:
228,184,84149,1,2,3:2:0:0:
228,184,84242,1,2,0:2:0:0:
228,184,84335,2,0,P|299:174|360:168,2,121.499996292114,6|8|0,3:2|0:2|3:2,0:0:0:0:
148,247,85260,1,2,0:2:0:0:
207,322,85446,1,10,0:2:0:0:
207,322,85631,1,2,0:2:0:0:
305,302,85816,6,0,P|373:310|439:329,1,121.499996292114,6|10,3:2|0:2,0:0:0:0:
482,247,86372,2,0,P|477:207|472:168,1,60.7499981460572,6|0,3:2|0:0,0:0:0:0:
430,108,86742,1,10,0:2:0:0:
430,108,86927,1,8,0:2:0:0:
359,198,87112,5,6,3:2:0:0:
256,192,87205,12,0,90260,0:0:0:0:
