osu file format v14

[General]
AudioFilename: audio.ogg
AudioLeadIn: 0
PreviewTime: 50988
Countdown: 0
SampleSet: Soft
StackLeniency: 0.7
Mode: 0
LetterboxInBreaks: 0
WidescreenStoryboard: 1

[Editor]
Bookmarks: 13210,25062,36914,51729,63581,72470,84322
DistanceSpacing: 1.6
BeatDivisor: 4
GridSize: 16
TimelineZoom: 1.4

[Metadata]
Title:Princess Primp! (TV Size)
TitleUnicode:Princess Primp! (TV Size)
Artist:Hashimoto Miyuki
ArtistUnicode:橋本みゆき
Creator:KennethBBG
Version:Aurorance's Easy!
Source:プリンセスラバー!
Tags:プリンセス プリンプ Ricotta Princess Lover! iredi -aqua Aqua Laplus- La+ aurorance anime japanese female vocal vocalist j-pop jpop pop eroge galgame visual novel vn video game プリラバ chokix 畑亜貴 虹音 double flower
BeatmapID:3981646
BeatmapSetID:1927304

[Difficulty]
HPDrainRate:2
CircleSize:3
OverallDifficulty:2.5
ApproachRate:4
SliderMultiplier:0.85
SliderTickRate:1

[Events]
//Background and Video events
0,0,"BG.jpg",0,0
//Break Periods
//Storyboard Layer 0 (Background)
//Storyboard Layer 1 (Fail)
//Storyboard Layer 2 (Pass)
//Storyboard Layer 3 (Foreground)
//Storyboard Layer 4 (Overlay)
//Storyboard Sound Samples

[TimingPoints]
1187,370.37037037037,4,2,1,70,1,0
1372,-100,4,2,1,50,0,0
2668,-100,4,2,1,70,0,0
2853,-100,4,2,1,50,0,0
4149,-100,4,2,1,70,0,0
4427,-100,4,2,1,50,0,0
5631,-100,4,2,1,70,0,0
6001,-100,4,2,1,50,0,0
7298,370.37037037037,4,2,1,75,1,0
13223,-100,4,2,1,55,0,0
23779,-100,4,2,1,70,0,0
24520,-100,4,2,1,55,0,0
25075,-100,4,2,1,60,0,0
33779,-100,4,2,1,65,0,0
36922,-100,4,2,1,60,0,0
36927,-100,4,2,1,60,0,0
43964,-100,4,2,1,60,0,0
45631,-100,4,2,1,65,0,0
48594,-100,4,2,1,70,0,0
50260,-100,4,2,1,75,0,0
51001,-100,4,2,1,60,0,0
51742,-100,4,2,1,85,0,1
61927,-100,4,2,1,85,0,0
63594,-100,4,2,1,85,0,1
71742,-100,4,2,1,65,0,1
72483,-100,4,2,1,65,0,0
78409,-100,4,2,1,75,0,0
84335,-100,4,2,1,75,0,0
85816,-100,4,2,1,80,0,0
86742,-100,4,2,1,85,0,0
87297,-100,4,2,1,80,0,0
87483,-100,4,2,1,75,0,0
87668,-100,4,2,1,70,0,0
87853,-100,4,2,1,65,0,0
88038,-100,4,2,1,60,0,0
88223,-100,4,2,1,55,0,0
88409,-100,4,2,1,50,0,0
88594,-100,4,2,1,45,0,0
88779,-100,4,2,1,40,0,0
88964,-100,4,2,1,35,0,0
89149,-100,4,2,1,30,0,0
89335,-100,4,2,1,25,0,0
89520,-100,4,2,1,20,0,0
89705,-100,4,2,1,15,0,0
89890,-100,4,2,1,10,0,0
90075,-100,4,2,1,5,0,0

[Colours]
Combo1 : 255,184,113
Combo2 : 138,197,255
Combo3 : 255,168,255

[HitObjects]
55,285,7298,6,0,P|46:325|24:377,2,85,6|8|0,3:2|0:2|3:2,0:0:0:0:
14,211,8409,1,10,0:2:0:0:
82,161,8779,2,0,P|145:172|208:188,1,127.5,2|2,3:2|0:2,0:0:0:0:
275,237,9705,1,2,0:2:0:0:
336,178,10075,1,6,3:2:0:0:
271,67,10631,2,0,P|227:53|177:33,1,85,8|0,0:2|3:2,0:0:0:0:
119,85,11372,1,10,0:2:0:0:
167,157,11742,6,0,L|159:211,1,42.5,10|10,0:2|0:2,0:0:0:0:
241,298,12483,2,0,L|249:352,1,42.5,10|10,0:2|0:2,0:0:0:0:
369,375,13223,5,6,3:2:0:0:
497,263,13964,1,2,3:2:0:0:
417,163,14520,2,0,P|368:157|331:176,1,85,2|2,0:2|0:2,0:0:0:0:
271,226,15260,2,0,P|220:227|189:201,1,85,2|2,0:2|0:2,0:0:0:0:
137,144,16001,1,2,0:2:0:0:
307,16,16927,5,2,3:2:0:0:
396,106,17483,2,0,L|378:210,1,85,2|2,0:2|0:2,0:0:0:0:
411,269,18223,2,0,P|393:333|321:344,1,127.5,2|10,0:2|0:2,0:0:0:0:
265,307,19149,1,0,3:2:0:0:
203,365,19520,1,8,0:2:0:0:
78,249,20260,1,10,0:2:0:0:
125,178,20631,6,0,P|192:169|265:146,1,127.5,0|2,3:2|0:2,0:0:0:0:
308,90,21557,1,2,0:2:0:0:
253,25,21927,1,4,3:2:0:0:
143,89,22483,2,0,P|93:77|53:71,1,85,8|2,0:2|3:2,0:0:0:0:
0,133,23223,1,10,0:2:0:0:
71,239,23779,2,0,L|63:286,2,42.5,14|14|14,0:2|0:2|0:2,0:0:0:0:
179,172,24705,1,8,0:2:0:0:
242,227,25075,6,0,P|232:280|226:322,1,85,4|8,3:2|0:2,0:0:0:0:
184,383,25816,1,2,3:2:0:0:
88,298,26372,2,0,P|86:260|70:202,1,85,2|2,0:2|0:2,0:0:0:0:
17,152,27112,2,0,P|27:110|35:67,1,85,2|2,0:2|0:2,0:0:0:0:
101,16,27853,2,0,P|157:57|222:55,1,127.5,2|8,0:2|0:2,0:0:0:0:
287,15,28779,1,2,3:2:0:0:
359,120,29335,6,0,P|346:161|330:200,1,85,2|2,0:2|0:2,0:0:0:0:
267,257,30075,1,2,0:2:0:0:
292,338,30446,1,2,0:2:0:0:
372,365,30816,2,0,P|432:350|448:283,1,127.5,2|8,3:2|0:2,0:0:0:0:
370,142,32112,1,10,0:2:0:0:
294,180,32483,6,0,P|246:163|185:153,1,85,2|10,3:2|0:2,0:0:0:0:
150,97,33223,1,2,3:2:0:0:
241,8,33779,2,0,P|307:32|380:45,1,127.5,6|10,3:2|0:2,0:0:0:0:
444,20,34705,1,2,3:2:0:0:
509,129,35260,2,0,P|480:200|462:264,1,127.5,6|10,3:2|0:2,0:0:0:0:
400,303,36186,1,10,0:2:0:0:
322,268,36557,1,10,0:2:0:0:
257,323,36927,5,4,3:2:0:0:
183,280,37297,2,0,P|173:241|154:184,2,85,10|2|10,0:2|3:2|0:2,0:0:0:0:
140,353,38409,1,2,3:2:0:0:
32,284,38964,2,0,P|9:227|44:167,1,127.5,2|8,0:2|0:2,0:0:0:0:
111,129,39890,1,2,3:2:0:0:
190,159,40260,6,0,L|207:251,2,85,10|2|10,0:2|3:2|0:2,0:0:0:0:
231,84,41372,1,2,3:2:0:0:
332,161,41927,2,0,P|386:146|467:132,1,127.5,2|8,0:2|0:2,0:0:0:0:
505,63,42853,1,6,3:2:0:0:
436,12,43223,1,10,0:2:0:0:
368,63,43594,2,0,P|303:41|238:28,1,127.5,2|6,3:2|3:2,0:0:0:0:
124,68,44705,1,10,0:2:0:0:
159,145,45075,1,2,3:2:0:0:
67,233,45631,6,0,P|47:297|89:360,1,127.5,6|8,3:2|0:2,0:0:0:0:
151,380,46557,1,0,3:2:0:0:
214,323,46927,2,0,L|300:309,1,85,8|0,0:2|3:2,0:0:0:0:
374,347,47668,1,10,0:2:0:0:
434,286,48038,1,2,3:2:0:0:
352,187,48594,6,0,P|279:197|223:215,1,127.5,14|8,0:2|0:2,0:0:0:0:
142,205,49520,1,6,3:2:0:0:
102,130,49890,1,10,0:2:0:0:
153,62,50260,2,0,L|216:75,2,42.5,14|14|14,0:2|0:2|0:2,0:0:0:0:
329,246,51742,6,0,P|397:254|456:181,1,170,6|2,3:2|3:2,0:0:0:0:
425,101,52853,1,10,0:2:0:0:
343,125,53223,2,0,P|294:111|246:101,1,85,2|8,3:2|0:2,0:0:0:0:
179,129,53964,1,2,3:2:0:0:
136,54,54335,1,10,0:2:0:0:
55,80,54705,6,0,P|17:141|50:236,1,170,2|2,3:2|3:2,0:0:0:0:
115,275,55816,2,0,L|168:265,1,42.5,10|6,0:2|3:2,0:0:0:0:
265,200,56557,2,0,L|367:220,1,85,10|0,0:2|3:2,0:0:0:0:
409,275,57297,1,10,0:2:0:0:
352,338,57668,6,0,P|292:347|225:368,1,127.5,6|2,3:2|0:2,0:0:0:0:
113,311,58779,1,10,0:2:0:0:
163,242,59149,2,0,P|168:194|187:114,1,127.5,2|2,3:2|0:2,0:0:0:0:
258,11,60260,1,8,0:2:0:0:
327,59,60631,6,0,P|388:45|457:38,1,127.5,6|2,3:2|0:2,0:0:0:0:
509,101,61557,1,2,0:2:0:0:
474,178,61927,2,0,P|413:192|344:199,1,127.5,6|8,3:2|0:2,0:0:0:0:
292,136,62853,1,2,3:2:0:0:
228,191,63223,1,10,0:2:0:0:
172,129,63594,6,0,P|174:59|79:36,1,170,6|2,3:2|3:2,0:0:0:0:
15,69,64705,1,10,0:2:0:0:
49,146,65075,2,0,P|37:186|28:230,1,85,0|10,3:2|0:2,0:0:0:0:
62,306,65816,1,2,3:2:0:0:
141,275,66186,1,10,0:2:0:0:
206,328,66557,6,0,B|293:298|280:378|367:348,1,170,6|0,3:2|3:2,0:0:0:0:
415,278,67668,2,0,L|403:226,1,42.5,10|6,0:2|3:2,0:0:0:0:
311,150,68409,2,0,P|270:145|217:173,1,85,10|2,0:2|3:2,0:0:0:0:
163,213,69149,1,10,0:2:0:0:
82,184,69520,6,0,P|31:137|45:71,1,127.5,6|2,3:2|0:2,0:0:0:0:
99,26,70446,1,10,0:2:0:0:
165,78,70816,1,14,0:2:0:0:
237,34,71186,2,0,L|284:29,1,42.5,14|14,0:2|0:2,0:0:0:0:
423,118,72112,1,10,0:2:0:0:
348,158,72483,6,0,P|305:238|355:310,1,170,6|10,3:2|0:2,0:0:0:0:
492,375,73964,2,0,P|479:299|468:202,1,170,2|8,0:2|0:2,0:0:0:0:
424,133,75075,1,2,0:2:0:0:
347,172,75446,6,0,P|263:185|171:209,1,170,2|8,3:2|0:2,0:0:0:0:
97,302,76742,1,2,3:2:0:0:
29,252,77112,2,0,P|4:193|34:134,1,127.5,10|2,0:2|0:2,0:0:0:0:
95,85,78038,1,10,0:2:0:0:
170,124,78409,6,0,P|232:108|308:99,1,127.5,6|2,3:2|0:2,0:0:0:0:
412,51,79520,1,10,0:2:0:0:
474,108,79890,2,0,P|473:184|435:240,1,127.5,2|2,3:2|0:2,0:0:0:0:
370,261,80816,1,2,0:2:0:0:
310,200,81186,2,0,P|244:209|174:231,1,127.5,6|8,3:2|0:2,0:0:0:0:
115,274,82112,1,8,3:2:0:0:
51,216,82483,1,8,3:2:0:0:
94,144,82853,1,6,3:2:0:0:
376,333,84335,6,0,P|425:343|489:361,2,85,6|8|0,3:2|0:2|3:2,0:0:0:0:
296,363,85446,1,10,0:2:0:0:
233,305,85816,2,0,P|250:243|265:163,1,127.5,6|6,3:2|3:2,0:0:0:0:
231,101,86742,1,10,0:2:0:0:
148,120,87112,1,6,3:2:0:0:
256,192,87297,12,0,90260,0:0:0:0:
