osu file format v14

[General]
AudioFilename: audio.ogg
AudioLeadIn: 0
PreviewTime: 50988
Countdown: 0
SampleSet: Soft
StackLeniency: 0.7
Mode: 0
LetterboxInBreaks: 0
WidescreenStoryboard: 1

[Editor]
DistanceSpacing: 1
BeatDivisor: 2
GridSize: 32
TimelineZoom: 1

[Metadata]
Title:Princess Primp! (TV Size)
TitleUnicode:Princess Primp! (TV Size)
Artist:Hashimoto Miyuki
ArtistUnicode:橋本みゆき
Creator:KennethBBG
Version:Aqua's Insane!
Source:プリンセスラバー!
Tags:プリンセス プリンプ Ricotta Princess Lover! iredi -aqua Aqua Laplus- La+ aurorance anime japanese female vocal vocalist j-pop jpop pop eroge galgame visual novel vn video game プリラバ chokix 畑亜貴 虹音 double flower
BeatmapID:4049466
BeatmapSetID:1927304

[Difficulty]
HPDrainRate:5
CircleSize:4.5
OverallDifficulty:7
ApproachRate:9
SliderMultiplier:1.6
SliderTickRate:1

[Events]
//Background and Video events
0,0,"BG.jpg",0,0
//Break Periods
//Storyboard Layer 0 (Background)
//Storyboard Layer 1 (Fail)
//Storyboard Layer 2 (Pass)
//Storyboard Layer 3 (Foreground)
//Storyboard Layer 4 (Overlay)
//Storyboard Sound Samples

[TimingPoints]
1187,370.37037037037,4,2,1,70,1,0
1372,-100,4,2,1,50,0,0
2668,-100,4,2,1,70,0,0
2853,-100,4,2,1,50,0,0
3224,-200,4,2,1,50,0,0
3594,-100,4,2,1,50,0,0
4149,-100,4,2,1,70,0,0
4427,-100,4,2,1,50,0,0
5631,-100,4,2,1,70,0,0
6001,-100,4,2,1,50,0,0
7298,370.37037037037,4,2,1,75,1,0
7298,-90.9090909090909,4,2,1,75,0,0
12112,-181.818181818182,4,2,1,75,0,0
13223,-111.111111111111,4,2,1,55,0,0
23779,-111.111111111111,4,2,1,70,0,0
24149,-200,4,2,1,70,0,0
24520,-200,4,2,1,55,0,0
25075,-95.2380952380952,4,2,1,60,0,0
27390,-95.2380952380952,4,2,1,5,0,0
27483,-95.2380952380952,4,2,1,60,0,0
33779,-95.2380952380952,4,2,1,65,0,0
36922,-95.2380952380952,4,2,1,60,0,0
36927,-86.9565217391304,4,2,1,60,0,0
45631,-86.9565217391304,4,2,1,65,0,0
48594,-86.9565217391304,4,2,1,70,0,0
50260,-86.9565217391304,4,2,1,75,0,0
51001,-86.9565217391304,4,2,1,60,0,0
51742,-80,4,2,1,85,0,0
71742,-80,4,2,1,65,0,0
71748,-90.9090909090909,4,2,1,65,0,0
72483,-100,4,2,1,65,0,0
78409,-86.9565217391304,4,2,1,75,0,0
85816,-86.9565217391304,4,2,1,80,0,0
86742,-86.9565217391304,4,2,1,85,0,0
87297,-86.9565217391304,4,2,1,80,0,0
87483,-86.9565217391304,4,2,1,75,0,0
87668,-86.9565217391304,4,2,1,70,0,0
87853,-86.9565217391304,4,2,1,65,0,0
88038,-86.9565217391304,4,2,1,60,0,0
88223,-86.9565217391304,4,2,1,55,0,0
88409,-86.9565217391304,4,2,1,50,0,0
88594,-86.9565217391304,4,2,1,45,0,0
88779,-86.9565217391304,4,2,1,40,0,0
88964,-86.9565217391304,4,2,1,35,0,0
89149,-86.9565217391304,4,2,1,30,0,0
89335,-86.9565217391304,4,2,1,25,0,0
89520,-86.9565217391304,4,2,1,20,0,0
89705,-86.9565217391304,4,2,1,15,0,0
89890,-86.9565217391304,4,2,1,10,0,0
90075,-86.9565217391304,4,2,1,5,0,0

[Colours]
Combo1 : 255,184,113
Combo2 : 138,197,255
Combo3 : 255,168,255

[HitObjects]
59,78,631,5,0,0:0:0:0:
61,92,816,1,0,0:0:0:0:
151,123,1002,1,0,0:0:0:0:
94,262,1187,6,0,P|144:243|258:220,1,160,6|0,3:2|0:0,0:0:0:0:
247,220,1742,1,2,0:2:0:0:
280,325,1928,2,0,P|230:344|116:367,1,160,2|2,0:2|0:2,0:0:0:0:
341,254,2668,6,0,B|438:273|371:330|508:341,1,160,6|0,3:2|0:0,0:0:0:0:
375,377,3224,2,0,L|386:326,1,40,0|2,0:0|0:2,0:0:0:0:
511,238,3594,5,2,0:2:0:0:
507,215,3779,1,2,0:2:0:0:
393,103,3965,1,10,0:2:0:0:
452,19,4150,6,0,L|420:187,1,160,6|0,3:2|0:0,0:0:0:0:
422,176,4705,1,2,0:2:0:0:
323,264,4890,2,0,P|260:206|298:119,1,160,2|2,0:2|0:2,0:0:0:0:
4,77,5631,6,0,P|67:135|29:222,1,160,6|2,3:2|1:2,0:0:0:0:
50,211,6094,1,2,1:2:0:0:
39,208,6187,1,2,1:2:0:0:
103,115,6372,5,2,1:2:0:0:
141,284,6557,1,2,1:2:0:0:
175,202,6742,5,10,0:2:0:0:
144,300,6928,1,10,0:2:0:0:
75,381,7113,5,10,0:2:0:0:
75,381,7205,1,10,0:2:0:0:
75,381,7298,2,0,P|141:335|235:374,1,176.000005371094,6|8,3:2|0:2,0:0:0:0:
391,306,7853,1,0,0:0:0:0:
324,364,8039,2,0,L|307:271,1,88.000002685547,0|2,3:2|0:2,0:0:0:0:
434,154,8409,5,10,0:2:0:0:
434,154,8594,1,2,0:2:0:0:
476,222,8779,2,0,B|380:208|448:163|327:127,1,176.000005371094,2|10,3:2|0:2,0:0:0:0:
165,45,9335,2,0,P|248:59|310:0,1,176.000005371094,2|2,0:2|0:2,0:0:0:0:
310,0,9890,1,8,0:2:0:0:
169,249,10076,6,0,P|150:188|191:236,1,176.000005371094,6|0,3:2|0:0,0:0:0:0:
13,181,10631,1,8,0:2:0:0:
96,102,10816,1,0,0:0:0:0:
13,181,11002,2,0,P|6:227|-2:274,1,88.000002685547,0|0,3:2|0:0,0:0:0:0:
112,384,11372,5,10,0:2:0:0:
115,362,11464,1,2,0:2:0:0:
118,340,11557,1,2,0:2:0:0:
122,318,11649,1,2,0:2:0:0:
125,297,11742,5,10,0:2:0:0:
306,321,11928,1,10,0:2:0:0:
232,329,12112,6,0,P|235:307|238:285,1,44.0000013427735
512,204,12483,5,10,0:2:0:0:
331,180,12669,1,10,0:2:0:0:
405,172,12854,6,0,P|401:193|398:215,1,44.0000013427735
225,122,13223,6,0,P|213:49|268:-3,1,143.999995605469,6|8,3:2|0:2,0:0:0:0:
256,0,13778,1,2,0:2:0:0:
405,77,13965,1,2,3:2:0:0:
405,77,14150,2,0,L|488:61,1,71.9999978027344,2|8,0:2|0:2,0:0:0:0:
329,145,14520,2,0,P|432:176|496:200,1,143.999995605469,2|2,0:2|0:2,0:0:0:0:
507,344,15076,5,8,0:2:0:0:
433,288,15261,2,0,B|346:294|404:353|276:348,1,143.999995605469,2|2,0:2|0:2,0:0:0:0:
199,282,15817,5,10,0:2:0:0:
119,302,16002,1,2,0:2:0:0:
40,323,16187,2,0,L|-5:167,1,143.999995605469,0|8,3:2|0:2,0:0:0:0:
143,43,16742,5,2,0:2:0:0:
143,43,16928,2,0,L|163:112,1,71.9999978027344,2|2,3:2|0:2,0:0:0:0:
319,175,17298,1,8,0:2:0:0:
273,260,17483,2,0,L|134:221,1,143.999995605469,2|2,0:2|0:2,0:0:0:0:
134,221,18039,1,8,0:2:0:0:
250,340,18224,6,0,P|300:297|385:321,1,143.999995605469,2|2,0:2|0:2,0:0:0:0:
512,384,18779,1,10,0:2:0:0:
512,384,18965,1,2,3:2:0:0:
460,305,19150,6,0,P|487:236|511:166,1,143.999995605469,0|8,3:2|0:2,0:0:0:0:
509,169,19890,1,0,3:2:0:0:
376,37,20076,5,2,0:2:0:0:
294,57,20261,1,10,0:2:0:0:
212,77,20446,1,2,0:2:0:0:
212,77,20631,2,0,B|134:92|183:141|93:147,1,143.999995605469,0|10,3:2|0:2,0:0:0:0:
0,100,21187,2,0,P|-2:46|25:92,1,143.999995605469,2|2,0:2|0:2,0:0:0:0:
26,90,21742,1,8,0:2:0:0:
9,280,21928,6,0,P|61:243|171:239,1,143.999995605469,4|0,3:2|3:2,0:0:0:0:
39,366,22483,2,0,P|109:357|168:317,1,143.999995605469,8|2,0:2|3:2,0:0:0:0:
168,316,23039,1,2,0:2:0:0:
254,384,23224,1,10,0:2:0:0:
254,384,23409,1,2,0:2:0:0:
297,254,23594,1,0,3:2:0:0:
359,56,23779,5,14,0:2:0:0:
359,56,23965,1,14,0:2:0:0:
359,56,24150,2,0,L|369:142,1,80,14|0,0:2|3:2,0:0:0:0:
458,170,24705,1,8,0:2:0:0:
263,106,24890,5,8,0:2:0:0:
263,106,24983,1,8,0:2:0:0:
263,106,25076,2,0,B|166:128|237:174|104:191,1,167.999994873047,4|8,3:2|0:2,0:0:0:0:
0,91,25631,1,2,0:2:0:0:
14,261,25816,2,0,P|22:223|34:163,1,83.9999974365235,2|2,3:2|0:2,0:0:0:0:
31,179,26187,1,8,0:2:0:0:
156,38,26372,6,0,P|164:79|172:120,1,83.9999974365235,2|0,0:2|3:2,0:0:0:0:
259,151,26742,1,2,0:2:0:0:
259,151,26928,1,8,0:2:0:0:
423,49,27113,6,0,P|473:74|456:150,1,125.999996154785,2|0,0:2|0:0,0:0:0:0:
463,142,27483,1,2,0:2:0:0:
400,311,27668,1,8,0:2:0:0:
483,253,27853,5,2,0:2:0:0:
483,253,27946,1,2,0:2:0:0:
483,253,28039,2,0,P|405:236|293:204,1,167.999994873047,0|8,3:2|0:2,0:0:0:0:
142,347,28594,1,2,0:2:0:0:
232,365,28779,1,2,3:2:0:0:
232,365,28965,2,0,P|220:327|209:262,1,83.9999974365235,2|8,0:2|0:2,0:0:0:0:
99,127,29335,6,0,P|43:162|63:278,1,167.999994873047,2|2,0:2|0:2,0:0:0:0:
42,256,29890,1,8,0:2:0:0:
0,349,30076,1,2,0:2:0:0:
0,349,30168,1,8,0:2:0:0:
0,349,30261,1,0,3:2:0:0:
132,384,30446,2,0,P|172:371|213:362,1,83.9999974365235,2|8,0:2|0:2,0:0:0:0:
386,243,30816,5,2,3:2:0:0:
411,311,31002,2,0,B|320:292|396:231|255:192,1,167.999994873047,0|8,3:2|0:2,0:0:0:0:
194,218,31557,2,0,P|206:168|215:108,1,83.9999974365235,0|0,0:0|3:2,0:0:0:0:
399,72,31928,1,2,0:2:0:0:
398,81,32113,1,10,0:2:0:0:
397,88,32298,1,2,0:2:0:0:
288,116,32483,6,0,P|210:98|107:71,1,167.999994873047,2|10,3:2|0:2,0:0:0:0:
0,258,33224,1,2,3:2:0:0:
78,273,33409,2,0,P|67:233|55:178,1,83.9999974365235,2|8,0:2|0:2,0:0:0:0:
279,220,33779,6,0,B|382:226|332:170|442:177,1,167.999994873047,6|2,3:2|3:2,0:0:0:0:
308,55,34335,2,0,P|302:99|289:143,1,83.9999974365235,10|0,0:2|0:0,0:0:0:0:
291,137,34705,1,2,3:2:0:0:
393,344,34890,2,0,P|398:302|408:261,1,83.9999974365235,2|8,3:2|0:2,0:0:0:0:
226,361,35261,6,0,P|162:309|69:347,1,167.999994873047,6|10,3:2|0:2,0:0:0:0:
0,362,35816,2,0,P|8:321|14:275,1,83.9999974365235,10|8,0:2|0:2,0:0:0:0:
21,272,36094,1,8,0:2:0:0:
29,266,36187,5,10,0:2:0:0:
156,219,36372,1,8,0:2:0:0:
292,125,36557,5,10,0:2:0:0:
220,101,36742,1,8,0:2:0:0:
162,25,36928,6,0,L|196:212,1,184.000003509522,4|10,3:2|0:2,0:0:0:0:
194,206,37483,1,2,0:2:0:0:
170,297,37668,2,0,P|217:286|268:276,1,92.0000017547608,2|2,3:2|0:2,0:0:0:0:
356,363,38039,2,0,P|403:352|454:342,1,92.0000017547608,10|2,0:2|0:2,0:0:0:0:
512,176,38409,6,0,P|427:202|359:146,1,184.000003509522,2|10,3:2|0:2,0:0:0:0:
173,51,38965,2,0,P|240:-5|325:21,1,184.000003509522,2|2,0:2|0:2,0:0:0:0:
325,21,39520,1,8,0:2:0:0:
289,103,39705,1,2,0:2:0:0:
207,241,39890,6,0,B|96:253|158:321|44:320,1,184.000003509522,2|10,3:2|0:2,0:0:0:0:
50,319,40446,1,2,0:2:0:0:
3,239,40631,2,0,P|-18:191|8:153,1,92.0000017547608,2|2,3:2|0:2,0:0:0:0:
175,85,41002,2,0,P|196:37|170:-1,1,92.0000017547608,10|2,0:2|0:2,0:0:0:0:
86,93,41372,6,0,L|289:134,1,184.000003509522,2|10,3:2|0:2,0:0:0:0:
332,306,41928,2,0,L|535:347,1,184.000003509522,2|2,0:2|0:2,0:0:0:0:
512,342,42483,1,8,0:2:0:0:
449,245,42668,1,2,3:2:0:0:
263,364,42853,6,0,P|180:332|110:384,1,184.000003509522,6|10,3:2|0:2,0:0:0:0:
26,331,43409,1,2,0:2:0:0:
164,207,43594,1,2,3:2:0:0:
76,178,43779,2,0,P|89:226|99:270,1,92.0000017547608,2|8,0:2|0:2,0:0:0:0:
319,174,44150,6,0,B|420:184|374:254|501:250,1,184.000003509522,6|0,3:2|0:0,0:0:0:0:
479,249,44705,1,10,0:2:0:0:
406,71,44890,1,2,0:2:0:0:
406,71,45076,1,2,3:2:0:0:
500,58,45261,2,0,P|475:133|467:168,1,92.0000017547608,2|8,0:2|0:2,0:0:0:0:
285,0,45631,6,0,P|231:53|112:32,1,184.000003509522,6|0,3:2|0:0,0:0:0:0:
0,140,46187,2,0,P|88:127|156:185,1,184.000003509522,8|0,0:2|3:2,0:0:0:0:
156,185,46742,1,0,0:0:0:0:
361,243,46928,1,8,0:2:0:0:
274,270,47113,5,2,0:2:0:0:
274,270,47205,1,8,0:2:0:0:
274,270,47298,2,0,P|284:219|294:150,1,92.0000017547608,0|2,3:2|0:2,0:0:0:0:
402,90,47668,2,0,P|412:141|422:210,1,92.0000017547608,10|2,0:2|0:2,0:0:0:0:
508,246,48039,1,2,3:2:0:0:
508,246,48224,1,2,0:2:0:0:
373,343,48409,5,10,0:2:0:0:
296,384,48594,2,0,P|207:363|107:342,1,184.000003509522,14|0,0:2|3:2,0:0:0:0:
22,270,49150,2,0,L|-2:367,1,92.0000017547608,8|0,0:2|0:0,0:0:0:0:
229,274,49520,5,6,3:2:0:0:
229,274,49613,1,2,0:2:0:0:
229,274,49705,1,2,0:2:0:0:
229,274,49798,1,2,0:2:0:0:
229,274,49890,2,0,L|205:177,1,92.0000017547608,10|2,0:2|0:2,0:0:0:0:
44,78,50261,1,14,0:2:0:0:
44,78,50446,1,14,0:2:0:0:
44,78,50631,1,14,0:2:0:0:
107,138,51002,6,0,L|131:41,1,92.0000017547608,2|0,0:2|3:2,0:0:0:0:
129,48,51372,1,10,0:2:0:0:
330,140,51557,5,8,0:2:0:0:
330,140,51650,1,8,0:2:0:0:
330,140,51742,2,0,B|452:156|375:236|539:235,1,200,6|8,3:2|0:2,0:0:0:0:
438,152,52298,1,2,0:2:0:0:
327,236,52483,6,0,P|278:248|207:261,1,100,2|0,3:2|0:0,0:0:0:0:
229,257,52853,1,10,0:2:0:0:
512,384,53039,2,0,P|418:363|285:337,1,200,2|0,0:2|0:0,0:0:0:0:
231,384,53594,1,8,0:2:0:0:
231,384,53779,1,0,0:0:0:0:
79,315,53965,6,0,P|42:283|67:217,1,100,2|0,3:2|0:0,0:0:0:0:
182,71,54335,2,0,P|219:103|194:169,1,100,10|0,0:2|0:0,0:0:0:0:
150,242,54705,6,0,P|204:179|316:221,1,200,2|8,3:2|0:2,0:0:0:0:
306,206,55261,1,2,0:2:0:0:
388,29,55446,2,0,P|403:81|418:125,1,100,2|0,3:2|0:0,0:0:0:0:
512,196,55816,1,10,0:2:0:0:
303,96,56002,6,0,B|192:93|265:27|111:13,1,200,6|2,3:2|3:2,0:0:0:0:
43,67,56557,1,10,0:2:0:0:
120,220,56742,5,2,0:2:0:0:
120,220,56835,1,2,0:2:0:0:
120,220,56928,2,0,P|133:173|146:121,1,100,0|0,3:2|0:0,0:0:0:0:
224,192,57298,1,10,0:2:0:0:
224,192,57483,1,2,0:2:0:0:
133,357,57668,6,0,P|84:368|36:382,1,100,6|2,3:2|0:2,0:0:0:0:
36,382,58039,1,10,0:2:0:0:
193,270,58224,6,0,P|249:329|364:300,1,200,2|0,0:2|0:0,0:0:0:0:
441,384,58779,1,10,0:2:0:0:
441,384,58965,1,2,0:2:0:0:
435,218,59150,6,0,P|386:207|338:193,1,100,2|2,3:2|0:2,0:0:0:0:
279,252,59520,1,10,0:2:0:0:
406,51,59705,2,0,P|298:82|190:106,1,200,2|0,0:2|0:0,0:0:0:0:
212,102,60261,1,8,0:2:0:0:
338,193,60446,1,2,0:2:0:0:
168,300,60631,6,0,P|130:252|-8:269,1,200,6|10,3:2|0:2,0:0:0:0:
240,384,61187,2,0,P|312:320|405:343,1,200,2|2,0:2|0:2,0:0:0:0:
405,343,61742,1,8,0:2:0:0:
285,194,61928,6,0,L|336:-21,1,200,6|8,3:2|0:2,0:0:0:0:
352,73,62483,1,8,0:2:0:0:
187,141,62668,1,8,0:2:0:0:
177,142,62761,1,8,0:2:0:0:
169,143,62853,1,2,3:2:0:0:
356,283,63039,1,0,0:0:0:0:
293,362,63224,2,0,L|185:336,1,100,10|8,0:2|0:2,0:0:0:0:
338,150,63594,6,0,P|397:181|522:114,1,200,6|8,3:2|0:2,0:0:0:0:
453,84,64150,1,2,0:2:0:0:
224,179,64335,2,0,L|249:71,1,100,2|0,3:2|0:0,0:0:0:0:
246,81,64705,1,10,0:2:0:0:
403,209,64890,6,0,P|482:279|419:383,1,200,2|0,0:2|0:0,0:0:0:0:
458,359,65446,1,10,0:2:0:0:
375,323,65631,1,2,0:2:0:0:
224,366,65816,6,0,P|172:354|120:345,1,100,2|0,3:2|0:0,0:0:0:0:
43,205,66187,2,0,P|95:217|147:226,1,100,10|0,0:2|0:0,0:0:0:0:
304,74,66557,6,0,B|426:90|349:170|513:169,1,200,6|10,3:2|0:2,0:0:0:0:
512,99,67113,1,2,0:2:0:0:
314,167,67298,6,0,P|249:154|199:144,1,100,0|0,3:2|0:0,0:0:0:0:
215,147,67668,1,10,0:2:0:0:
61,0,67853,6,0,P|-5:37|20:168,1,200,6|0,3:2|0:0,0:0:0:0:
128,264,68409,2,0,P|136:214|148:166,1,100,10|0,0:2|0:0,0:0:0:0:
20,247,68779,2,0,P|11:296|0:344,1,100,2|0,3:2|0:0,0:0:0:0:
79,384,69150,1,10,0:2:0:0:
79,384,69335,1,2,3:2:0:0:
277,315,69520,6,0,P|379:338|482:357,1,200,6|10,3:2|0:2,0:0:0:0:
396,383,70076,1,2,0:2:0:0:
424,181,70261,5,8,0:2:0:0:
424,181,70353,1,8,0:2:0:0:
424,181,70446,1,10,0:2:0:0:
424,181,70539,1,8,0:2:0:0:
424,181,70631,1,0,3:2:0:0:
424,181,70816,6,0,B|421:75|520:137|512:-20,1,200,14|14,0:2|0:2,0:0:0:0:
512,88,71372,1,14,0:2:0:0:
320,142,72113,6,0,L|336:247,1,88.000002685547,10|8,0:2|0:2,0:0:0:0:
341,236,72390,1,8,0:2:0:0:
347,243,72483,6,0,P|281:200|204:214,1,160,6|0,3:2|0:0,0:0:0:0:
58,358,73039,1,2,3:2:0:0:
0,306,73224,6,0,L|164:338,1,160,10|0,0:2|0:0,0:0:0:0:
157,336,73779,1,0,3:2:0:0:
85,223,73965,6,0,L|107:108,1,80,2|0,0:2|3:2,0:0:0:0:
31,96,74335,2,0,L|53:-18,1,80,0|0,3:2|0:0,0:0:0:0:
206,80,74705,6,0,B|311:99|259:29|390:47,1,160,8|2,0:2|0:2,0:0:0:0:
422,107,75261,1,0,3:2:0:0:
298,228,75446,6,0,P|362:211|434:286,1,160,2|0,3:2|3:2,0:0:0:0:
512,310,76002,1,0,0:0:0:0:
512,310,76187,1,8,0:2:0:0:
447,373,76372,2,0,P|386:358|359:354,1,80,2|2,0:2|0:2,0:0:0:0:
223,284,76742,6,0,P|167:337|91:322,1,160,2|10,3:2|0:2,0:0:0:0:
25,255,77298,1,2,3:2:0:0:
25,255,77483,1,2,3:2:0:0:
132,158,77668,2,0,P|92:150|54:140,1,80,2|2,0:2|3:2,0:0:0:0:
54,141,78039,1,10,0:2:0:0:
245,265,78224,5,0,3:2:0:0:
248,271,78316,1,0,3:2:0:0:
252,278,78409,2,0,B|349:299|285:379|395:385,1,184.000003509522,6|8,3:2|0:2,0:0:0:0:
487,232,78965,5,2,0:2:0:0:
511,324,79150,2,0,P|464:306|409:293,1,92.0000017547608,0|0,3:2|0:0,0:0:0:0:
348,77,79520,1,10,0:2:0:0:
348,77,79705,1,2,0:2:0:0:
426,105,79890,6,0,P|375:161|254:143,1,184.000003509522,2|8,3:2|0:2,0:0:0:0:
172,288,80446,2,0,P|83:297|18:235,1,184.000003509522,2|2,0:2|0:2,0:0:0:0:
18,235,81002,1,10,0:2:0:0:
226,92,81187,6,0,L|264:290,1,184.000003509522,6|0,3:2|3:2,0:0:0:0:
433,360,81742,2,0,L|412:251,1,92.0000017547608,8|0,0:2|0:0,0:0:0:0:
311,383,82113,1,8,3:2:0:0:
311,383,82205,1,8,0:2:0:0:
311,383,82298,1,8,0:2:0:0:
311,383,82390,1,8,0:2:0:0:
311,383,82483,2,0,L|202:363,1,92.0000017547608,8|0,3:2|3:2,0:0:0:0:
123,384,82853,5,6,3:2:0:0:
123,384,83965,6,0,L|143:275,1,92.0000017547608,8|2,0:2|3:2,0:0:0:0:
152,285,84242,1,2,0:2:0:0:
155,270,84335,2,0,P|67:287|0:229,1,184.000003509522,6|8,3:2|0:2,0:0:0:0:
138,80,84890,5,0,0:0:0:0:
189,149,85076,2,0,P|143:156|98:165,1,92.0000017547608,0|2,3:2|0:2,0:0:0:0:
254,0,85446,1,10,0:2:0:0:
254,0,85631,1,2,0:2:0:0:
346,61,85816,6,0,P|328:151|312:241,1,184.000003509522,6|10,3:2|0:2,0:0:0:0:
138,360,86372,2,0,P|146:314|154:269,1,92.0000017547608,6|0,3:2|0:0,0:0:0:0:
396,384,86742,1,10,0:2:0:0:
396,384,86928,1,8,0:2:0:0:
210,144,87112,1,6,3:2:0:0:
256,192,87205,12,0,90261,0:0:0:0:
