osu file format v14

[General]
AudioFilename: audio.mp3
AudioLeadIn: 0
PreviewTime: 143029
Countdown: 0
SampleSet: Soft
StackLeniency: 0.3
Mode: 0
LetterboxInBreaks: 0
WidescreenStoryboard: 0

[Editor]
DistanceSpacing: 1.4
BeatDivisor: 4
GridSize: 32
TimelineZoom: 1.5

[Metadata]
Title:Ouka Senran
TitleUnicode:桜花千爛
Artist:Hashimoto Miyuki
ArtistUnicode:橋本みゆき
Creator:Kuse
Version:Blooming
Source:クナド国記
Tags:KuBsNia_ZhoYL_ bellicose kunado kokuki purple software パープルソフトウェア visual novel eroge video game galgame japanese pop j-pop full ver
BeatmapID:3383885
BeatmapSetID:1657840

[Difficulty]
HPDrainRate:6
CircleSize:4.2
OverallDifficulty:8
ApproachRate:9.2
SliderMultiplier:1.8
SliderTickRate:1

[Events]
//Background and Video events
0,0,"bg1.jpg",0,0
//Break Periods
//Storyboard Layer 0 (Background)
//Storyboard Layer 1 (Fail)
//Storyboard Layer 2 (Pass)
//Storyboard Layer 3 (Foreground)
//Storyboard Layer 4 (Overlay)
//Storyboard Sound Samples

[TimingPoints]
2145,461.538461538462,4,2,1,30,1,0
2145,-200,4,2,2,40,0,0
9529,-133.333333333333,4,2,2,40,0,0
13221,-66.6666666666667,4,2,2,60,0,0
14145,-66.6666666666667,4,2,1,60,0,0
14952,-66.6666666666667,4,2,1,5,0,0
15068,-76.9230769230769,4,2,1,70,0,0
19683,-62.5,4,2,1,70,0,0
20606,-76.9230769230769,4,2,1,70,0,0
22452,-142.857142857143,4,2,1,55,0,0
24183,-142.857142857143,4,2,1,5,0,0
24298,-111.111111111111,4,2,1,55,0,0
25683,-111.111111111111,4,2,3,55,0,0
26029,-111.111111111111,4,2,1,5,0,0
26145,-142.857142857143,4,2,1,55,0,0
27875,-142.857142857143,4,2,1,5,0,0
27991,-111.111111111111,4,2,1,55,0,0
28914,-142.857142857143,4,2,1,55,0,0
29375,-111.111111111111,4,2,3,55,0,0
29837,-142.857142857143,4,2,1,55,0,0
31568,-142.857142857143,4,2,1,5,0,0
31683,-111.111111111111,4,2,1,55,0,0
33068,-111.111111111111,4,2,3,55,0,0
33414,-111.111111111111,4,2,1,5,0,0
33529,-142.857142857143,4,2,1,55,0,0
37221,-100,4,2,2,65,0,0
51068,-100,4,2,3,65,0,0
51991,-133.333333333333,4,2,1,65,0,0
55221,-133.333333333333,4,2,3,65,0,0
55683,-133.333333333333,4,2,1,65,0,0
58914,-133.333333333333,4,2,3,65,0,0
59375,-100,4,2,1,65,0,0
64683,-100,4,2,3,65,0,0
64914,-100,4,2,1,65,0,0
65029,-100,4,2,2,65,0,0
66298,-100,4,2,3,65,0,0
66645,-1000,4,2,3,65,0,0
67452,-1000,4,2,3,20,0,0
67914,-100,4,2,4,45,0,0
68145,-222.222222222221,4,2,1,65,0,0
68491,-222.222222222221,4,2,1,5,0,0
68606,-76.9230769230769,4,2,2,80,0,1
82683,-76.9230769230769,4,2,3,80,0,1
83375,-76.9230769230769,4,2,2,80,0,1
97683,-76.9230769230769,4,2,3,80,0,1
98837,-76.9230769230769,4,2,1,80,0,1
99875,-83.3333333333333,4,2,1,5,0,1
99991,-76.9230769230769,4,2,1,65,0,0
106914,-76.9230769230769,4,2,2,65,0,0
107375,-76.9230769230769,4,2,1,65,0,0
112452,-76.9230769230769,4,2,3,65,0,0
112914,-100,4,2,2,65,0,0
126760,-100,4,2,3,65,0,0
127683,-125,4,2,2,65,0,0
130914,-125,4,2,3,65,0,0
131375,-125,4,2,2,65,0,0
134606,-125,4,2,3,65,0,0
134721,-125,4,2,2,65,0,0
135068,-100,4,2,1,65,0,0
140375,-100,4,2,3,65,0,0
140606,-100,4,2,1,65,0,0
140721,-100,4,2,2,65,0,0
141991,-100,4,2,3,65,0,0
142337,-1000,4,2,3,65,0,0
143145,-100,4,2,3,20,0,0
143606,-100,4,2,4,65,0,0
143837,-71.4285714285714,4,2,1,65,0,0
144183,-71.4285714285714,4,2,1,5,0,0
144298,-76.9230769230769,4,2,2,80,0,1
158375,-76.9230769230769,4,2,3,80,0,1
159068,-76.9230769230769,4,2,2,80,0,1
173375,-76.9230769230769,4,2,3,80,0,1
174529,-76.9230769230769,4,2,2,80,0,1
175683,-83.3333333333333,4,2,2,80,0,0
186760,-71.4285714285714,4,2,2,80,0,0
188375,-100,4,2,1,80,0,0
190452,-125,4,2,1,50,0,0
193683,-125,4,2,3,50,0,0
193914,-125,4,2,1,50,0,0
197375,-125,4,2,3,50,0,0
197837,-125,4,2,1,50,0,0
201068,-125,4,2,3,50,0,0
201298,-125,4,2,1,50,0,0
203145,-125,4,2,4,50,0,0
205221,-111.111111111111,4,2,1,60,0,0
208914,-100,4,2,1,70,0,0
212606,-90.9090909090909,4,2,1,70,0,0
214221,-90.9090909090909,4,2,3,70,0,0
214452,-90.9090909090909,4,2,1,70,0,0
214568,-90.9090909090909,4,2,2,70,0,0
215837,-90.9090909090909,4,2,3,70,0,0
216183,-1000,4,2,3,70,0,0
216991,-90.9090909090909,4,2,3,20,0,0
217221,461.538461538462,4,2,1,30,1,0
218374,-90.9090909090909,4,2,4,70,0,0
218605,-90.9090909090909,4,2,3,70,0,0
219067,-76.9230769230769,4,2,2,80,0,1
233144,-76.9230769230769,4,2,3,80,0,1
233836,-76.9230769230769,4,2,2,80,0,1
248144,-76.9230769230769,4,2,3,80,0,1
249297,-76.9230769230769,4,2,2,80,0,1
250451,-76.9230769230769,4,2,2,80,0,0
262451,-62.5,4,2,1,80,0,0
263374,-76.9230769230769,4,2,1,80,0,0
264759,-76.9230769230769,4,2,3,80,0,0

[Colours]
Combo1 : 173,90,90
Combo2 : 255,149,202
Combo3 : 191,0,191
Combo4 : 245,86,111

[HitObjects]
73,68,991,5,0,0:0:0:0:
80,73,1221,1,2,0:0:0:0:
82,81,1452,1,0,0:0:0:0:
80,89,1683,1,2,0:0:0:0:
74,96,1914,1,0,0:0:0:0:
46,172,2145,5,4,1:2:0:0:
94,237,2375,1,0,0:0:0:0:
102,234,2491,1,0,0:0:0:0:
110,231,2606,2,0,P|143:232|164:241,1,45,0|0,1:0|0:0,0:0:0:0:
125,307,3068,2,0,P|112:345|129:386,2,67.5,0|0|0,1:0|0:0|0:0,0:0:0:0:
199,298,3991,5,0,1:0:0:0:
270,281,4221,1,0,1:0:0:0:
274,272,4337,2,0,P|278:247|278:200,1,67.5,0|0,1:0|0:0,0:0:0:0:
229,146,4914,1,2,0:0:0:0:
172,93,5145,1,0,0:0:0:0:
202,23,5375,1,2,0:0:0:0:
278,32,5606,1,0,0:0:0:0:
294,106,5837,5,0,1:0:0:0:
354,154,6068,1,0,0:0:0:0:
362,154,6183,1,0,0:0:0:0:
370,154,6298,2,0,P|399:145|412:142,1,45,0|0,1:0|0:0,0:0:0:0:
487,120,6760,2,0,P|503:89|504:54,2,67.5,0|0|0,1:0|0:0|0:0,0:0:0:0:
472,195,7683,5,0,1:0:0:0:
482,270,7914,1,0,1:0:0:0:
484,278,8029,2,0,P|456:287|421:301,1,67.5,0|0,1:0|0:0,0:0:0:0:
250,345,8606,5,2,0:0:0:0:
308,295,8837,1,0,0:0:0:0:
279,224,9068,1,2,0:0:0:0:
203,230,9298,1,0,0:0:0:0:
185,304,9529,6,0,P|177:257|159:170,1,135.000005149842,4|0,1:0|0:0,0:0:0:0:
38,57,10452,2,0,P|74:98|144:73,1,135.000005149842,0|0,1:0|0:0,0:0:0:0:
228,10,11145,1,0,0:0:0:0:
226,19,11260,1,0,0:0:0:0:
224,29,11375,6,0,P|297:21|324:75,1,135.000005149842,0|0,1:0|0:0,0:0:0:0:
268,143,12298,1,2,0:0:0:0:
283,140,12529,1,0,0:0:0:0:
358,183,12760,1,2,0:0:0:0:
428,101,12991,1,2,0:0:0:0:
480,275,13221,5,6,0:1:0:0:
488,283,13914,1,0,0:0:0:0:
488,283,14029,1,0,0:0:0:0:
488,283,14145,2,0,B|449:293|449:293|438:335,1,67.5000025749208,10|0,0:1|0:0,0:0:0:0:
374,384,14375,1,0,3:0:0:0:
322,330,14491,1,0,3:0:0:0:
371,275,14606,6,0,B|309:289|309:289|270:360|270:360|196:375,1,202.500007724762,10|0,0:1|0:0,0:0:0:0:
152,237,15068,6,0,B|156:186|212:170|276:230|196:313,1,175.499991966248,4|0,3:2|0:0,0:0:0:0:
146,329,15529,2,0,B|118:329|109:352|109:352|123:342|142:349,1,58.4999973220826,10|0,0:1|0:0,0:0:0:0:
217,286,15760,2,0,P|205:226|179:132,1,116.999994644165,0|2,3:1|0:1,0:0:0:0:
105,64,16106,1,0,0:0:0:0:
191,38,16221,2,0,P|185:70|167:123,1,58.4999973220826,0|0,3:0|0:0,0:0:0:0:
5,178,16452,2,0,P|54:165|134:147,1,116.999994644165,10|0,0:1|0:0,0:0:0:0:
191,171,16798,1,0,0:0:0:0:
164,268,16914,6,2,P|220:287|258:235,1,116.999994644165,2|0,3:1|0:0,0:1:0:0:
304,178,17260,2,2,P|358:188|362:264,1,116.999994644165,2|0,3:1|0:0,0:1:0:0:
310,362,17606,2,0,L|325:289,1,58.4999973220826,0|0,3:0|0:0,0:0:0:0:
440,384,17837,1,2,0:1:0:0:
512,285,17952,6,0,P|454:297|399:315,1,116.999994644165,8|0,0:1|0:0,0:0:0:0:
257,250,18298,1,8,0:1:0:0:
162,362,18529,1,0,3:0:0:0:
99,317,18645,1,0,3:0:0:0:
149,260,18760,6,0,P|162:222|167:183,1,58.4999973220826,2|0,3:1|0:0,0:0:0:0:
220,138,18991,2,0,P|209:102|191:70,1,58.4999973220826,0|0,0:0|3:0,0:0:0:0:
24,195,19221,2,0,P|55:208|82:211,1,58.4999973220826,10|0,0:1|0:0,0:0:0:0:
200,5,19452,2,0,P|171:9|144:21,1,58.4999973220826,0|0,3:0|0:0,0:0:0:0:
258,216,19683,6,0,P|302:174|400:205,1,144,10|0,0:1|3:0,0:0:0:0:
441,239,20029,1,0,3:0:0:0:
512,139,20145,2,0,B|476:129|476:129|447:152,1,72,10|0,0:1|0:0,0:0:0:0:
306,280,20375,2,0,B|342:288|342:288|374:260,1,72,0|0,0:0|0:0,0:0:0:0:
382,21,20606,6,2,B|450:99|325:114|392:205,1,175.499991966248,2|0,3:1|0:0,0:1:0:0:
441,239,21068,2,0,P|466:287|407:323,1,116.999994644165,8|0,0:1|0:0,0:0:0:0:
231,303,21414,1,0,0:0:0:0:
208,230,21529,1,0,3:0:0:0:
280,204,21645,6,0,L|290:139,2,58.4999973220826,8|0|0,0:1|0:0|3:0,0:0:0:0:
306,280,21991,2,0,L|396:293,1,58.4999973220826,8|0,0:1|0:0,0:0:0:0:
213,152,22221,2,0,L|123:139,1,58.4999973220826,8|8,0:0|0:0,0:0:0:0:
115,348,22452,6,0,P|66:311|115:187,1,188.999994232178,4|0,0:1|3:0,0:0:0:0:
155,143,23375,1,2,3:2:0:0:
155,143,23837,2,0,P|188:136|213:192,1,94.499997116089,10|0,0:0|0:0,0:0:0:0:
216,181,24298,6,0,P|252:170|295:160,1,80.9999975280763,2|0,3:2|0:0,0:0:0:0:
331,88,24645,2,0,P|366:99|409:109,1,80.9999975280763,0|0,3:0|0:0,0:0:0:0:
479,166,24991,1,2,3:2:0:0:
465,59,25221,2,0,P|420:83|408:112,1,80.9999975280763,2|0,0:0|3:0,0:0:0:0:
479,166,25683,2,0,P|509:205|468:269,1,121.499996292114,10|0,0:0|0:0,0:0:0:0:
480,264,26145,6,0,B|365:288|433:343|329:378,1,188.999994232178,0|0,3:0|3:0,0:0:0:0:
261,318,27068,1,2,3:2:0:0:
261,318,27529,2,0,P|254:273|237:217,1,94.499997116089,10|0,0:0|0:0,0:0:0:0:
240,226,27991,6,0,P|194:235|159:191,1,80.9999975280763,2|0,3:2|0:0,0:0:0:0:
98,176,28337,2,0,P|51:167|16:211,1,80.9999975280763,0|0,3:0|0:0,0:0:0:0:
3,263,28683,1,2,3:2:0:0:
5,270,28798,1,2,0:2:0:0:
8,278,28914,2,0,P|37:291|44:333,1,62.9999980773926,2|0,0:0|3:0,0:0:0:0:
122,384,29375,6,0,P|132:357|142:345,1,40.4999987640381,10|0,0:0|0:0,0:0:0:0:
165,268,29606,2,0,P|190:259|214:261,1,40.4999987640381,8|0,0:0|0:0,0:0:0:0:
261,168,29837,6,0,P|280:226|404:239,1,188.999994232178,0|0,3:2|3:0,0:0:0:0:
464,193,30760,1,2,3:2:0:0:
464,193,31221,2,0,P|419:177|366:170,1,94.499997116089,10|0,0:0|0:0,0:0:0:0:
372,170,31683,6,0,P|342:211|307:208,1,80.9999975280763,2|0,3:2|0:0,0:0:0:0:
252,261,32029,2,0,P|221:220|186:223,1,80.9999975280763,0|0,3:0|0:0,0:0:0:0:
117,247,32375,1,2,3:2:0:0:
156,119,32606,5,2,0:0:0:0:
71,104,32837,1,0,3:0:0:0:
130,0,33068,2,0,P|137:54|162:133,1,121.499996292114,10|0,0:0|0:0,0:0:0:0:
156,119,33529,6,0,P|219:103|305:183,1,188.999994232178,0|0,3:0|3:0,0:0:0:0:
327,259,34452,1,2,3:2:0:0:
327,259,34914,2,0,P|298:281|297:352,1,94.499997116089,8|0,0:0|0:0,0:0:0:0:
292,340,35375,5,2,3:2:0:0:
319,370,35606,1,0,0:0:0:0:
356,353,35837,1,2,0:0:0:0:
352,313,36068,1,0,0:0:0:0:
312,304,36298,1,2,0:0:0:0:
316,219,36529,5,0,3:0:0:0:
327,218,36645,1,0,3:0:0:0:
334,143,36760,5,8,0:0:0:0:
324,141,36875,1,0,3:0:0:0:
338,61,37221,6,0,P|276:67|242:104,1,90,4|0,3:2|0:0,0:0:0:0:
213,153,37568,1,0,1:0:0:0:
203,163,37683,2,0,P|162:182|89:154,1,90,10|0,1:2|3:0,0:0:0:0:
0,38,38145,2,0,P|34:78|29:131,1,90,2|0,0:0|3:0,0:0:0:0:
138,291,38606,1,10,0:2:0:0:
49,240,38837,1,2,0:0:0:0:
0,384,39068,6,0,P|35:356|93:352,1,90,2|0,3:2|0:0,0:0:0:0:
138,291,39414,1,0,3:0:0:0:
153,277,39529,2,0,P|204:287|238:323,1,90,10|0,1:2|3:0,0:0:0:0:
400,325,39991,1,2,1:2:0:0:
334,377,40221,1,0,3:0:0:0:
290,254,40452,2,0,B|366:265|321:315|412:326,1,135,8|0,0:0|0:0,0:0:0:0:
415,245,40914,6,0,P|430:192|403:165,1,90,0|0,3:0|1:0,0:0:0:0:
256,96,41375,1,8,0:0:0:0:
303,159,41606,1,0,3:0:0:0:
203,262,41837,2,0,P|214:205|230:157,1,90,2|0,1:2|3:0,0:0:0:0:
335,84,42298,1,10,0:0:0:0:
175,109,42529,1,2,0:0:0:0:
322,8,42760,6,0,P|377:16|412:70,1,90,2|0,3:2|0:0,0:0:0:0:
455,104,43106,1,0,3:0:0:0:
476,105,43221,1,8,0:0:0:0:
512,186,43452,1,2,3:2:0:0:
489,189,43568,1,2,1:2:0:0:
409,174,43683,6,0,P|445:214|429:264,1,90,10|0,1:0|3:0,0:0:0:0:
361,238,44029,1,0,1:0:0:0:
316,300,44145,2,0,P|280:260|296:210,1,90,10|8,0:1|0:0,0:0:0:0:
328,159,44491,1,8,0:0:0:0:
217,43,44606,6,0,P|225:93|230:108,1,45,4|0,3:2|0:0,0:0:0:0:
312,76,44837,1,2,0:0:0:0:
233,203,45068,1,10,0:0:0:0:
107,95,45298,1,2,3:2:0:0:
164,152,45529,2,0,P|149:204|131:278,1,90,2|0,1:2|3:0,0:0:0:0:
30,334,45991,1,10,0:0:0:0:
8,254,46221,1,2,0:0:0:0:
114,366,46452,6,0,P|151:328|211:338,1,90,2|0,3:2|0:0,0:0:0:0:
269,311,46798,1,0,3:0:0:0:
286,323,46914,2,0,P|333:328|361:292,1,90,8|0,0:0|3:0,0:0:0:0:
256,141,47375,1,2,1:2:0:0:
328,218,47606,1,0,3:0:0:0:
333,201,47721,1,0,1:0:0:0:
338,186,47837,2,0,P|349:145|368:92,1,90,10|0,0:0|0:0,0:0:0:0:
512,24,48298,6,0,P|460:60|423:45,1,90,2|0,3:2|1:0,0:0:0:0:
290,16,48760,1,8,0:0:0:0:
439,130,48991,1,0,3:0:0:0:
279,227,49221,2,0,P|266:178|255:138,1,90,2|0,1:2|3:0,0:0:0:0:
187,82,49568,1,0,1:0:0:0:
177,102,49683,2,0,P|140:149|79:143,1,90,8|0,0:0|0:0,0:0:0:0:
36,13,50145,5,2,3:2:0:0:
105,74,50375,1,0,3:0:0:0:
105,74,50491,1,0,3:0:0:0:
105,74,50606,1,8,0:0:0:0:
42,125,50837,1,0,3:0:0:0:
23,240,51068,1,8,0:1:0:0:
118,307,51298,5,8,0:1:0:0:
132,304,51375,1,8,0:1:0:0:
146,299,51452,1,8,0:1:0:0:
160,295,51529,2,2,B|234:313|184:366|288:387,1,135,8|0,0:1|0:0,0:1:0:0:
259,379,51991,6,0,P|282:327|354:326,1,135.000005149842,6|0,3:2|0:0,0:0:0:0:
352,325,52683,2,0,P|315:296|346:217,1,135.000005149842,2|0,3:2|3:0,0:0:0:0:
430,174,53375,1,8,0:0:0:0:
430,174,53837,6,2,P|439:130|451:72,2,101.250003862381,0|0|0,3:0|3:0|3:0,0:1:0:0:
368,222,54760,1,2,0:0:0:0:
296,252,54991,1,0,3:0:0:0:
291,268,55106,1,0,3:0:0:0:
286,284,55221,2,0,P|261:329|198:320,1,101.250003862381,10|0,0:0|0:0,0:0:0:0:
215,331,55683,6,0,P|197:280|113:288,1,135.000005149842,2|0,3:2|0:0,0:0:0:0:
125,276,56375,2,0,P|171:249|150:177,1,135.000005149842,2|0,3:2|3:0,0:0:0:0:
59,125,57068,1,8,0:0:0:0:
59,125,57529,6,2,P|48:62|33:-5,2,101.250003862381,0|0|0,3:0|3:0|3:0,0:1:0:0:
126,169,58452,1,2,0:0:0:0:
197,130,58683,1,0,3:0:0:0:
204,104,58798,1,0,3:0:0:0:
212,78,58914,2,0,L|254:73,1,33.7500012874604,10|0,0:0|0:0,0:0:0:0:
306,160,59145,2,0,L|254:166,1,33.7500012874604,8|0,0:0|0:0,0:0:0:0:
359,12,59375,6,0,P|374:69|383:113,1,90,6|0,3:2|0:0,0:0:0:0:
379,177,59721,1,0,3:0:0:0:
375,200,59837,2,0,P|422:194|451:160,1,90,8|0,0:0|3:0,0:0:0:0:
330,273,60298,2,0,P|282:252|223:279,1,90,2|0,0:0|3:0,0:0:0:0:
217,337,60645,1,2,0:0:0:0:
226,357,60760,1,8,0:0:0:0:
312,365,60991,1,0,0:0:0:0:
125,377,61221,6,0,P|136:319|152:255,1,90,2|0,3:2|0:0,0:0:0:0:
186,217,61568,1,0,3:0:0:0:
202,198,61683,1,8,0:0:0:0:
43,94,61914,2,0,P|71:157|147:140,1,135,0|0,3:0|0:0,0:0:0:0:
188,106,62375,1,2,3:2:0:0:
197,81,62491,1,0,3:0:0:0:
271,118,62606,2,0,P|344:103|311:30,1,135,8|0,0:0|0:0,0:0:0:0:
265,29,63068,6,0,P|206:44|141:51,1,90,2|0,3:2|0:0,0:0:0:0:
96,41,63414,1,0,3:0:0:0:
101,16,63529,1,8,0:0:0:0:
134,115,63760,1,0,3:0:0:0:
11,165,63991,1,2,0:0:0:0:
0,182,64106,2,0,P|47:193|96:211,1,90,8|0,0:0|0:0,0:0:0:0:
95,281,64452,2,0,P|141:268|158:193,1,90,8|2,0:0|3:2,0:0:0:0:
204,163,64798,1,2,3:2:0:0:
242,236,64914,5,10,0:1:0:0:
275,222,65029,1,0,1:0:0:0:
311,220,65145,1,0,1:0:0:0:
345,228,65260,1,0,1:0:0:0:
407,284,65375,5,2,1:2:0:0:
415,258,65491,1,0,1:0:0:0:
427,234,65606,1,0,1:0:0:0:
438,209,65721,1,0,1:0:0:0:
491,144,65837,5,2,1:2:0:0:
460,111,65952,1,0,1:0:0:0:
419,130,66068,1,0,1:0:0:0:
388,96,66183,1,0,1:0:0:0:
317,141,66298,5,10,0:1:0:0:
250,102,66414,5,8,0:1:0:0:
272,28,66529,5,8,0:1:0:0:
348,26,66645,6,0,L|346:59,1,31.5,8|0,0:1|0:0,0:0:0:0:
388,96,67914,5,2,0:0:0:0:
391,105,67991,1,2,0:0:0:0:
394,114,68068,1,2,0:0:0:0:
397,125,68145,2,0,P|387:152|346:145,1,60.7499981460572,12|0,0:1|0:0,0:0:0:0:
358,155,68606,6,0,P|410:171|492:210,1,116.999994644165,6|0,3:2|0:0,0:0:0:0:
512,268,68952,1,0,1:0:0:0:
428,280,69068,2,0,P|420:308|413:336,1,58.4999973220826,10|0,0:1|0:0,0:0:0:0:
252,384,69298,2,0,B|232:343|232:343|297:298|344:365,1,175.499991966248,0|0,3:0|0:0,0:0:0:0:
413,336,69760,2,0,P|420:308|428:280,1,58.4999973220826,0|0,3:0|0:0,0:0:0:0:
433,198,69991,2,0,P|417:155|404:84,1,116.999994644165,8|0,0:1|0:0,0:0:0:0:
431,6,70337,1,0,1:0:0:0:
464,26,70452,5,2,3:1:0:0:
256,77,70683,1,2,1:2:0:0:
290,7,70798,1,2,3:1:0:0:
335,69,70914,2,0,P|326:99|321:138,1,58.4999973220826,8|0,0:1|0:0,0:0:0:0:
375,259,71145,2,0,P|323:212|249:236,1,116.999994644165,2|2,3:1|3:2,0:0:0:0:
199,231,71491,1,8,0:1:0:0:
225,154,71606,1,2,3:1:0:0:
265,330,71837,2,0,P|297:343|340:350,1,58.4999973220826,10|0,0:1|0:0,0:0:0:0:
445,320,72068,2,0,P|407:334|395:371,1,58.4999973220826,2|0,3:2|0:0,0:0:0:0:
198,381,72298,6,0,P|166:327|107:329,1,116.999994644165,2|0,3:2|0:0,0:0:0:0:
56,379,72645,1,0,1:0:0:0:
0,256,72760,2,0,P|31:262|75:286,1,58.4999973220826,10|0,0:1|0:0,0:0:0:0:
231,142,72991,2,0,P|174:142|138:262,1,175.499991966248,0|0,3:0|0:0,0:0:0:0:
55,272,73452,2,0,P|28:261|0:256,1,58.4999973220826,0|0,3:0|0:0,0:0:0:0:
0,176,73683,2,0,P|52:160|60:90,1,116.999994644165,8|0,0:1|0:0,0:0:0:0:
69,26,74029,1,0,1:0:0:0:
32,32,74145,5,2,3:1:0:0:
152,127,74375,1,2,1:2:0:0:
224,113,74491,1,2,3:1:0:0:
178,56,74606,2,0,P|182:33|195:-8,1,58.4999973220826,8|0,0:1|0:0,0:0:0:0:
319,92,74837,2,0,P|304:131|281:207,1,116.999994644165,2|0,3:1|0:0,0:0:0:0:
310,359,75183,5,8,0:1:0:0:
268,291,75298,1,0,3:0:0:0:
292,277,75414,1,0,3:0:0:0:
371,302,75529,2,0,P|377:276|387:232,1,58.4999973220826,10|0,0:1|0:0,0:0:0:0:
228,365,75760,2,0,P|201:357|165:347,1,58.4999973220826,2|0,3:2|0:0,0:0:0:0:
437,352,75991,6,0,P|453:286|468:227,1,116.999994644165,2|0,3:1|0:0,0:0:0:0:
421,172,76337,1,0,1:0:0:0:
487,124,76452,2,0,P|482:98|471:58,1,58.4999973220826,10|0,0:1|0:0,0:0:0:0:
395,10,76683,2,0,B|301:37|376:103|280:127,1,175.499991966248,2|0,3:1|0:0,0:0:0:0:
229,190,77145,1,0,3:0:0:0:
153,177,77260,1,0,1:0:0:0:
204,116,77375,1,8,0:1:0:0:
106,244,77606,2,0,P|115:270|128:317,1,58.4999973220826,2|0,3:2|0:0,0:0:0:0:
97,372,77837,6,0,P|169:367|195:329,1,116.999994644165,2|0,3:1|0:0,0:0:0:0:
254,276,78183,1,0,3:0:0:0:
284,353,78298,2,0,P|310:363|360:373,1,58.4999973220826,10|0,0:1|0:0,0:0:0:0:
454,229,78529,2,0,P|401:251|390:316,1,116.999994644165,2|0,3:1|0:0,0:0:0:0:
425,378,78875,1,8,0:1:0:0:
339,370,78991,2,0,P|311:363|284:353,1,58.4999973220826,0|0,3:0|0:0,0:0:0:0:
238,199,79221,2,0,P|286:189|357:166,1,116.999994644165,8|0,0:1|3:0,0:0:0:0:
426,141,79568,1,2,3:2:0:0:
332,80,79683,6,0,P|274:67|173:51,1,116.999994644165,2|0,3:1|0:0,0:0:0:0:
139,89,80029,1,0,1:0:0:0:
238,199,80145,2,0,P|250:157|257:124,1,58.4999973220826,8|0,0:1|0:0,0:0:0:0:
332,80,80375,2,0,B|342:34|405:15|405:15|361:42|363:81,1,175.499991966248,2|0,3:1|0:0,0:0:0:0:
253,142,80837,2,0,P|246:170|238:199,1,58.4999973220826,0|0,3:0|0:0,0:0:0:0:
168,256,81068,2,0,P|130:203|30:231,1,175.499991966248,8|0,0:1|0:0,0:0:0:0:
10,301,81529,6,0,B|38:334|38:334|153:309,1,116.999994644165,2|0,3:1|0:0,0:0:0:0:
168,256,81875,1,0,1:0:0:0:
191,330,81991,1,8,0:1:0:0:
190,338,82221,5,0,1:0:0:0:
229,319,82337,1,8,3:1:0:0:
267,339,82452,1,10,3:1:0:0:
270,348,82683,5,8,0:1:0:0:
254,274,82798,1,8,0:1:0:0:
309,222,82914,1,10,0:1:0:0:
363,169,83029,1,8,0:1:0:0:
347,91,83145,1,8,0:1:0:0:
344,82,83375,6,0,P|403:88|442:138,1,116.999994644165,6|0,3:2|0:0,0:0:0:0:
464,202,83721,1,0,1:0:0:0:
383,295,83837,2,0,P|393:251|405:201,1,58.4999973220826,10|0,0:1|0:0,0:0:0:0:
262,65,84068,2,0,P|288:152|372:165,1,175.499991966248,0|0,3:0|0:0,0:0:0:0:
396,238,84529,2,0,P|389:267|383:296,1,58.4999973220826,0|0,3:0|0:0,0:0:0:0:
309,349,84760,2,0,P|269:301|206:319,1,116.999994644165,8|0,0:1|0:0,0:0:0:0:
153,355,85106,1,0,1:0:0:0:
140,316,85221,5,2,3:1:0:0:
226,208,85452,1,2,1:2:0:0:
208,133,85568,1,2,3:1:0:0:
285,153,85683,2,0,P|303:184|302:232,1,58.4999973220826,8|0,0:1|0:0,0:0:0:0:
151,238,85914,2,0,P|130:182|116:116,1,116.999994644165,2|2,3:1|0:0,0:0:0:0:
136,48,86260,1,8,0:1:0:0:
63,67,86375,1,2,3:1:0:0:
208,133,86606,1,10,0:1:0:0:
45,176,86837,1,2,3:2:0:0:
208,133,87068,6,0,P|276:116|328:109,1,116.999994644165,2|0,3:2|0:0,0:0:0:0:
397,137,87414,1,0,3:0:0:0:
412,12,87529,2,0,P|392:47|384:88,1,58.4999973220826,10|0,0:1|0:0,0:0:0:0:
512,94,87760,2,0,P|461:168|394:132,1,175.499991966248,0|0,3:0|0:0,0:0:0:0:
387,64,88221,2,0,P|396:36|412:12,1,58.4999973220826,0|0,3:0|0:0,0:0:0:0:
322,109,88452,2,0,P|288:119|241:129,1,58.4999973220826,8|0,0:1|0:0,0:0:0:0:
236,205,88683,2,0,P|270:210|316:227,1,58.4999973220826,2|0,3:2|0:0,0:0:0:0:
460,244,88914,6,0,P|396:262|334:293,1,116.999994644165,2|0,3:1|0:0,0:0:0:0:
323,360,89260,1,2,3:1:0:0:
216,282,89375,2,0,P|264:293|304:309,1,58.4999973220826,8|0,0:1|0:0,0:0:0:0:
160,344,89606,2,0,P|137:305|151:232,1,116.999994644165,2|0,3:1|0:0,0:0:0:0:
160,155,89952,1,8,0:1:0:0:
86,193,90068,2,0,P|50:184|9:177,1,58.4999973220826,0|0,3:1|3:0,0:0:0:0:
8,257,90298,1,10,0:1:0:0:
53,102,90529,1,0,3:0:0:0:
8,257,90760,6,0,P|41:311|117:289,1,116.999994644165,4|0,3:1|0:0,0:0:0:0:
169,283,91106,1,0,1:0:0:0:
134,378,91221,2,0,P|175:365|253:345,1,116.999994644165,8|0,0:1|3:2,0:0:0:0:
397,198,91683,2,0,P|367:276|268:259,1,175.499991966248,2|0,3:1|0:0,0:0:0:0:
227,217,92145,2,0,P|190:191|201:123,1,116.999994644165,8|0,0:1|3:0,0:0:0:0:
251,66,92491,1,0,1:0:0:0:
300,172,92606,6,0,P|366:154|445:127,1,116.999994644165,2|0,3:1|0:0,0:0:0:0:
487,110,92952,2,0,P|524:156|502:218,1,116.999994644165,2|0,3:1|0:0,0:0:0:0:
383,249,93298,2,0,L|468:265,1,58.4999973220826,2|0,3:2|0:0,0:0:0:0:
501,318,93529,5,2,3:1:0:0:
383,372,93645,2,0,P|343:355|296:343,1,58.4999973220826,8|0,0:1|0:0,0:0:0:0:
258,382,93875,1,0,3:0:0:0:
174,274,93991,2,0,P|214:257|263:246,1,58.4999973220826,10|0,0:1|0:0,0:0:0:0:
330,155,94221,1,0,3:0:0:0:
312,228,94337,1,0,3:0:0:0:
246,173,94452,6,0,P|177:189|108:222,1,116.999994644165,0|0,3:0|0:0,0:0:0:0:
17,111,94798,1,0,1:0:0:0:
98,92,94914,2,0,P|94:128|75:165,1,58.4999973220826,10|0,0:1|0:0,0:0:0:0:
0,333,95145,2,0,P|68:266|21:199,1,175.499991966248,0|0,3:0|0:0,0:0:0:0:
85,148,95606,2,0,P|95:121|98:92,1,58.4999973220826,2|0,3:2|0:0,0:0:0:0:
31,55,95837,2,0,P|19:86|17:113,1,58.4999973220826,10|0,0:1|0:0,0:0:0:0:
36,206,96068,1,2,0:0:0:0:
197,74,96298,6,0,P|260:95|264:161,1,116.999994644165,2|0,3:1|0:0,0:0:0:0:
221,197,96645,1,0,3:0:0:0:
293,216,96760,1,8,0:1:0:0:
203,324,96991,5,8,0:1:0:0:
278,343,97106,1,10,0:1:0:0:
336,291,97221,1,0,1:0:0:0:
335,282,97337,1,0,1:0:0:0:
334,273,97452,1,0,1:0:0:0:
333,264,97568,1,0,1:0:0:0:
332,253,97683,5,10,0:1:0:0:
386,200,97798,1,8,0:1:0:0:
459,219,97914,1,8,0:1:0:0:
466,293,98029,1,8,0:1:0:0:
401,333,98145,5,6,0:1:0:0:
401,333,98837,1,2,0:0:0:0:
403,317,98952,1,2,0:0:0:0:
405,300,99068,6,0,P|340:308|343:376,1,116.999994644165,10|0,0:1|3:0,0:0:0:0:
328,350,99414,1,0,3:0:0:0:
243,384,99529,2,0,P|249:302|160:261,1,175.499991966248,10|0,0:1|0:0,0:0:0:0:
20,197,99991,6,0,B|42:244|104:236|104:236|124:186|179:185,1,175.499991966248,6|0,3:2|0:0,0:0:0:0:
240,202,100452,2,0,B|250:143,1,58.4999973220826,10|0,0:1|0:0,0:0:0:0:
152,15,100683,2,0,P|142:81|218:97,1,116.999994644165,0|2,3:0|0:1,0:0:0:0:
328,125,101029,1,0,0:0:0:0:
302,46,101145,2,0,P|269:54|234:71,1,58.4999973220826,0|0,3:0|0:0,0:0:0:0:
318,212,101375,2,0,P|367:199|447:181,1,116.999994644165,10|0,0:1|0:0,0:0:0:0:
510,220,101721,1,0,0:0:0:0:
446,332,101837,6,2,P|391:333|356:251,1,116.999994644165,2|0,3:1|0:0,0:1:0:0:
274,281,102183,2,2,P|222:289|188:352,1,116.999994644165,2|0,3:1|0:0,0:1:0:0:
318,212,102529,2,0,L|333:139,1,58.4999973220826,0|0,3:1|0:0,0:0:0:0:
244,15,102760,1,2,0:1:0:0:
342,70,102875,6,0,P|284:86|226:98,1,116.999994644165,8|0,0:1|0:0,0:0:0:0:
85,27,103221,1,8,0:1:0:0:
0,168,103452,1,0,3:0:0:0:
73,189,103568,1,0,3:0:0:0:
15,238,103683,6,0,P|2:276|-3:315,1,58.4999973220826,2|0,3:1|0:0,0:0:0:0:
74,324,103914,2,0,P|85:360|103:392,1,58.4999973220826,0|0,0:0|0:0,0:0:0:0:
202,211,104145,2,0,P|173:215|146:227,1,58.4999973220826,10|0,0:1|0:0,0:0:0:0:
234,384,104375,2,0,P|263:380|290:368,1,58.4999973220826,0|0,3:0|0:0,0:0:0:0:
390,190,104606,6,2,P|362:260|348:321,1,116.999994644165,2|0,0:1|3:0,0:1:0:0:
368,374,104952,1,2,0:1:0:0:
275,293,105068,2,2,P|247:223|233:162,1,116.999994644165,8|2,0:1|0:1,0:1:0:0:
264,105,105414,1,0,0:0:0:0:
134,33,105529,6,2,P|143:102|214:110,1,116.999994644165,2|0,3:1|0:0,0:1:0:0:
236,182,105875,2,0,P|176:207|153:253,1,116.999994644165,0|0,3:0|0:0,0:0:0:0:
180,376,106221,1,0,3:0:0:0:
202,306,106337,1,0,3:0:0:0:
129,319,106452,5,2,0:1:0:0:
252,360,106568,2,0,P|287:352|375:327,1,116.999994644165,8|0,0:1|0:0,0:0:0:0:
421,152,106914,1,8,1:1:0:0:
468,211,107029,1,0,1:0:0:0:
427,274,107145,1,0,3:0:0:0:
353,255,107260,1,0,1:0:0:0:
350,179,107375,6,0,B|318:126|246:125|246:125|274:143|279:177,1,175.499991966248,6|0,3:2|0:0,0:0:0:0:
204,188,107837,2,0,P|177:200|161:224,1,58.4999973220826,10|0,0:1|0:0,0:0:0:0:
245,376,108068,2,0,P|238:312|224:232,1,116.999994644165,0|2,3:0|0:1,0:0:0:0:
91,184,108414,1,0,0:0:0:0:
117,107,108529,2,0,P|157:113|193:122,1,58.4999973220826,0|0,3:0|0:0,0:0:0:0:
311,0,108760,2,0,P|246:33|250:91,1,116.999994644165,10|0,0:1|0:0,0:0:0:0:
293,136,109106,1,0,0:0:0:0:
204,188,109221,6,2,P|257:210|257:288,1,116.999994644165,2|0,3:1|0:0,0:1:0:0:
324,331,109568,2,2,P|375:346|450:359,1,116.999994644165,2|0,3:1|0:0,0:1:0:0:
512,242,109914,2,0,P|477:244|436:256,1,58.4999973220826,0|0,3:0|0:0,0:0:0:0:
382,270,110145,1,2,0:1:0:0:
460,164,110260,6,0,P|388:151|316:132,1,116.999994644165,8|0,0:1|0:0,0:0:0:0:
267,114,110606,1,8,0:1:0:0:
139,237,110837,1,0,3:0:0:0:
86,182,110952,1,0,3:0:0:0:
160,163,111068,6,0,P|201:194|211:222,1,58.4999973220826,2|0,3:1|0:0,0:0:0:0:
289,226,111298,2,0,P|292:260|277:307,1,58.4999973220826,0|0,0:0|3:0,0:0:0:0:
175,372,111529,2,0,P|178:328|195:288,1,58.4999973220826,10|0,0:1|0:0,0:0:0:0:
365,206,111760,2,0,P|362:162|345:122,1,58.4999973220826,0|0,3:0|0:0,0:0:0:0:
250,20,111991,5,10,0:1:0:0:
248,31,112106,1,0,3:0:0:0:
247,42,112221,1,0,3:0:0:0:
246,53,112337,1,0,3:0:0:0:
246,64,112452,5,8,0:1:0:0:
302,115,112568,1,8,0:1:0:0:
228,135,112683,1,8,0:1:0:0:
172,83,112798,1,8,0:1:0:0:
105,122,112914,6,0,P|115:178|80:231,1,90,4|0,3:2|0:0,0:0:0:0:
35,282,113260,1,0,1:0:0:0:
27,297,113375,2,0,P|17:353|52:406,1,90,10|0,1:2|3:0,0:0:0:0:
199,319,113837,2,0,P|203:277|215:218,1,90,2|0,0:0|3:0,0:0:0:0:
123,276,114298,1,10,0:2:0:0:
257,384,114529,1,2,0:0:0:0:
363,218,114760,6,0,P|319:224|284:252,1,90,2|0,3:2|0:0,0:0:0:0:
315,333,115106,1,0,3:0:0:0:
330,345,115221,2,0,P|381:335|415:299,1,90,10|0,1:2|3:0,0:0:0:0:
501,192,115683,1,2,1:2:0:0:
352,132,115914,1,0,3:0:0:0:
456,6,116145,2,0,B|439:92|428:156,1,135,8|0,0:0|0:0,0:0:0:0:
411,214,116606,6,0,P|370:223|343:267,1,90,0|0,3:0|1:0,0:0:0:0:
250,137,117068,1,8,0:0:0:0:
262,212,117298,1,0,3:0:0:0:
176,349,117529,2,0,P|187:292|203:244,1,90,2|0,1:2|3:0,0:0:0:0:
333,161,117991,1,10,0:0:0:0:
272,294,118221,1,2,0:0:0:0:
105,151,118452,6,0,P|160:159|195:213,1,90,2|0,3:2|0:0,0:0:0:0:
262,212,118798,1,0,3:0:0:0:
258,180,118914,1,8,0:0:0:0:
329,129,119145,1,2,3:2:0:0:
333,161,119260,1,2,1:2:0:0:
377,227,119375,6,0,P|424:253|469:226,1,90,10|0,1:0|3:0,0:0:0:0:
428,165,119721,1,0,1:0:0:0:
478,108,119837,2,0,P|430:81|385:108,1,90,10|8,0:1|0:0,0:0:0:0:
329,129,120183,1,8,0:0:0:0:
277,23,120298,6,0,P|269:73|264:88,1,45,4|0,3:2|0:0,0:0:0:0:
204,111,120529,1,2,0:0:0:0:
43,63,120760,1,10,0:0:0:0:
148,173,120991,1,2,3:2:0:0:
144,9,121221,2,0,P|129:61|111:135,1,90,2|0,1:2|3:0,0:0:0:0:
17,243,121683,1,10,0:0:0:0:
0,164,121914,1,2,0:0:0:0:
157,252,122145,6,0,P|138:321|127:373,1,90,2|0,3:2|0:0,0:0:0:0:
211,381,122491,1,0,3:0:0:0:
230,374,122606,2,0,P|259:344|233:289,1,90,8|0,0:0|3:0,0:0:0:0:
147,175,123068,1,2,1:2:0:0:
293,137,123298,1,0,3:0:0:0:
295,154,123414,1,0,1:0:0:0:
298,169,123529,2,0,P|286:203|224:199,1,90,10|0,0:0|0:0,0:0:0:0:
117,65,123991,6,0,P|161:81|226:107,1,90,2|0,3:2|1:0,0:0:0:0:
330,16,124452,1,8,0:0:0:0:
296,136,124683,1,0,3:0:0:0:
473,181,124914,2,0,P|460:132|449:92,1,90,2|0,1:2|3:0,0:0:0:0:
370,92,125260,1,0,1:0:0:0:
377,117,125375,2,0,P|390:166|401:206,1,90,8|0,0:0|0:0,0:0:0:0:
333,361,125837,5,2,3:2:0:0:
258,324,126068,1,0,3:0:0:0:
258,324,126183,1,0,3:0:0:0:
258,324,126298,1,8,0:0:0:0:
175,336,126529,1,0,3:0:0:0:
245,229,126760,1,8,0:1:0:0:
182,103,126991,5,8,0:1:0:0:
184,88,127068,1,8,0:1:0:0:
188,74,127145,1,8,0:1:0:0:
191,59,127221,2,2,P|217:25|306:50,1,135,8|0,0:1|0:0,0:1:0:0:
299,40,127683,6,0,B|277:113|277:113|330:172,1,144,6|8,3:2|0:0,0:0:0:0:
322,163,128375,2,0,B|367:213|367:213|345:286,1,144,2|0,3:2|3:0,0:0:0:0:
264,335,129068,1,8,0:0:0:0:
199,267,129298,1,0,1:0:0:0:
193,255,129414,1,0,1:0:0:0:
179,249,129529,1,2,3:2:0:0:
192,240,129645,2,0,L|198:197,1,36,0|0,1:0|1:0,0:0:0:0:
113,193,129875,1,0,3:0:0:0:
111,208,129991,6,0,L|105:259,1,36,10|0,0:0|1:0,0:0:0:0:
33,269,130221,2,0,P|4:257|-17:253,1,36,0|0,3:0|1:0,0:0:0:0:
6,174,130452,2,0,P|37:169|54:158,1,36,2|0,1:2|1:0,0:0:0:0:
98,115,130683,1,0,3:0:0:0:
103,80,130798,1,0,3:0:0:0:
92,46,130914,2,0,P|143:29|189:61,1,108,10|0,0:0|0:0,0:0:0:0:
185,56,131375,6,0,B|246:95|246:95|310:60,1,144,2|8,3:2|0:0,0:0:0:0:
308,61,132068,2,0,B|370:26|370:26|431:66,1,144,2|0,3:2|3:0,0:0:0:0:
498,129,132760,1,8,0:0:0:0:
436,192,132991,5,0,1:0:0:0:
434,201,133106,1,0,1:0:0:0:
402,233,133221,5,2,3:2:0:0:
391,235,133337,1,0,1:0:0:0:
378,237,133452,1,0,1:0:0:0:
369,240,133568,1,0,3:0:0:0:
341,277,133683,5,10,0:0:0:0:
326,273,133798,1,0,1:0:0:0:
309,268,133914,1,0,3:0:0:0:
277,237,134029,5,0,1:0:0:0:
263,240,134145,1,2,1:2:0:0:
249,244,134260,1,0,1:0:0:0:
215,280,134375,5,0,3:0:0:0:
201,276,134491,1,0,3:0:0:0:
169,245,134606,5,10,0:2:0:0:
155,249,134721,1,0,1:0:0:0:
120,283,134837,6,0,P|96:277|68:272,1,36,8|0,0:0|0:0,0:0:0:0:
1,214,135068,6,0,P|52:206|117:185,1,90,6|0,3:2|0:0,0:0:0:0:
144,114,135414,1,0,3:0:0:0:
161,103,135529,2,0,P|207:112|230:166,1,90,8|0,0:0|3:0,0:0:0:0:
276,272,135991,2,0,P|287:230|310:170,1,90,2|0,0:0|3:0,0:0:0:0:
350,109,136337,1,2,0:0:0:0:
328,113,136452,1,8,0:0:0:0:
283,38,136683,1,0,0:0:0:0:
477,21,136914,6,0,P|482:65|439:96,1,90,2|0,3:2|0:0,0:0:0:0:
412,171,137260,1,0,3:0:0:0:
435,176,137375,1,8,0:0:0:0:
512,317,137606,2,0,P|444:331|398:272,1,135,0|0,3:0|0:0,0:0:0:0:
344,226,138068,1,2,3:2:0:0:
323,231,138183,1,0,3:0:0:0:
326,149,138298,2,0,P|257:166|190:189,1,135,10|0,0:0|0:0,0:0:0:0:
165,262,138760,6,0,P|125:250|117:198,1,90,2|0,3:2|0:0,0:0:0:0:
144,128,139106,1,0,3:0:0:0:
145,110,139221,1,8,0:0:0:0:
75,62,139452,1,0,3:0:0:0:
202,5,139683,1,2,0:0:0:0:
206,22,139798,2,0,P|217:62|238:147,1,90,8|0,0:0|0:0,0:0:0:0:
300,154,140145,2,0,P|346:141|363:66,1,90,8|2,0:0|3:2,0:0:0:0:
365,24,140491,1,2,3:2:0:0:
439,65,140606,5,10,0:1:0:0:
448,99,140721,1,0,1:0:0:0:
446,135,140837,1,0,1:0:0:0:
434,168,140952,1,0,1:0:0:0:
421,248,141068,5,2,1:2:0:0:
395,238,141183,1,0,1:0:0:0:
369,233,141298,1,0,1:0:0:0:
343,225,141414,1,0,1:0:0:0:
271,186,141529,5,2,1:2:0:0:
246,222,141645,1,0,1:0:0:0:
272,260,141760,1,0,1:0:0:0:
245,297,141875,1,0,1:0:0:0:
304,351,141991,5,10,0:1:0:0:
226,375,142106,5,8,0:1:0:0:
168,317,142221,5,8,0:1:0:0:
90,337,142337,6,0,L|93:303,1,31.5,8|0,0:1|0:0,0:0:0:0:
90,337,143606,5,2,0:0:0:0:
79,335,143683,1,2,0:0:0:0:
70,334,143760,1,2,0:0:0:0:
61,333,143837,2,0,P|106:363|102:270,1,188.999994232178,12|0,0:1|0:0,0:0:0:0:
40,259,144298,6,0,P|64:206|132:195,1,116.999994644165,6|0,3:2|0:0,0:0:0:0:
193,216,144645,1,0,1:0:0:0:
242,152,144760,2,0,P|257:115|258:81,1,58.4999973220826,10|0,0:1|0:0,0:0:0:0:
120,4,144991,2,0,P|98:74|181:97,1,175.499991966248,0|0,3:0|0:0,0:0:0:0:
258,96,145452,2,0,P|254:125|242:152,1,58.4999973220826,0|0,3:0|0:0,0:0:0:0:
271,231,145683,2,0,P|325:213|409:196,1,116.999994644165,8|0,0:1|0:0,0:0:0:0:
462,178,146029,1,0,1:0:0:0:
467,152,146145,5,2,3:1:0:0:
389,16,146375,1,2,1:2:0:0:
356,81,146491,1,2,3:1:0:0:
428,79,146606,2,0,P|456:72|483:61,1,58.4999973220826,8|0,0:1|0:0,0:0:0:0:
314,19,146837,2,0,P|283:70|300:135,1,116.999994644165,2|2,3:1|3:2,0:0:0:0:
341,190,147183,1,8,0:1:0:0:
264,200,147298,1,2,3:1:0:0:
391,270,147529,2,0,P|352:283|328:301,1,58.4999973220826,10|0,0:1|0:0,0:0:0:0:
296,384,147760,2,0,P|258:370|243:336,1,58.4999973220826,2|0,3:2|0:0,0:0:0:0:
459,339,147991,6,0,P|467:284|479:213,1,116.999994644165,2|0,3:2|0:0,0:0:0:0:
492,146,148337,1,0,1:0:0:0:
433,98,148452,2,0,P|416:132|425:176,1,58.4999973220826,10|0,0:1|0:0,0:0:0:0:
282,57,148683,2,0,P|334:142|337:220,1,175.499991966248,0|0,3:0|0:0,0:0:0:0:
415,151,149145,2,0,P|418:122|433:98,1,58.4999973220826,0|0,3:0|0:0,0:0:0:0:
463,0,149375,2,0,P|407:27|333:3,1,116.999994644165,8|0,0:1|0:0,0:0:0:0:
276,23,149721,1,0,1:0:0:0:
282,57,149837,5,2,3:1:0:0:
201,194,150068,1,2,1:2:0:0:
262,232,150183,1,2,3:1:0:0:
197,267,150298,2,0,P|162:276|132:284,1,58.4999973220826,8|0,0:1|0:0,0:0:0:0:
13,231,150529,2,0,P|71:220|129:206,1,116.999994644165,2|0,3:1|0:0,0:0:0:0:
201,193,150875,5,8,0:1:0:0:
152,130,150991,1,0,3:0:0:0:
156,102,151106,1,0,3:0:0:0:
233,123,151221,2,0,P|257:131|297:140,1,58.4999973220826,10|0,0:1|0:0,0:0:0:0:
169,25,151452,2,0,P|145:17|105:8,1,58.4999973220826,2|0,3:2|0:0,0:0:0:0:
299,59,151683,6,0,P|355:79|363:169,1,116.999994644165,2|0,3:1|0:0,0:0:0:0:
340,199,152029,1,0,1:0:0:0:
414,211,152145,2,0,P|432:247|440:287,1,58.4999973220826,10|0,0:1|0:0,0:0:0:0:
302,336,152375,2,0,P|278:293|370:197,1,175.499991966248,2|0,3:1|0:0,0:0:0:0:
414,211,152837,1,0,3:0:0:0:
463,153,152952,1,0,1:0:0:0:
389,135,153068,1,8,0:1:0:0:
458,22,153298,2,0,P|452:63|437:99,1,58.4999973220826,2|0,3:2|0:0,0:0:0:0:
372,59,153529,6,0,P|312:98|309:151,1,116.999994644165,2|0,3:1|0:0,0:0:0:0:
328,213,153875,1,0,3:0:0:0:
265,270,153991,2,0,P|235:264|202:253,1,58.4999973220826,10|0,0:1|0:0,0:0:0:0:
69,319,154221,2,0,P|118:276|129:222,1,116.999994644165,2|0,3:1|0:0,0:0:0:0:
190,175,154568,1,8,0:1:0:0:
208,255,154683,2,0,P|236:264|265:270,1,58.4999973220826,0|0,3:0|0:0,0:0:0:0:
177,375,154914,2,0,P|233:359|290:346,1,116.999994644165,8|0,0:1|3:0,0:0:0:0:
367,330,155260,1,2,3:2:0:0:
455,237,155375,6,0,P|403:230|326:213,1,116.999994644165,2|0,3:1|0:0,0:0:0:0:
264,196,155721,1,0,1:0:0:0:
348,95,155837,2,0,P|337:134|301:143,1,58.4999973220826,8|0,0:1|0:0,0:0:0:0:
244,113,156068,2,0,B|138:91|138:91|204:120,1,175.499991966248,2|0,3:1|0:0,0:0:0:0:
323,142,156529,2,0,P|345:123|348:95,1,58.4999973220826,0|0,3:0|0:0,0:0:0:0:
501,0,156760,2,0,P|444:32|454:148,1,175.499991966248,8|0,0:1|0:0,0:0:0:0:
499,197,157221,6,0,B|531:230|531:230|509:308,1,116.999994644165,2|0,3:1|0:0,0:0:0:0:
464,365,157568,1,0,1:0:0:0:
433,290,157683,1,8,0:1:0:0:
437,299,157914,5,0,1:0:0:0:
398,313,158029,1,8,3:1:0:0:
360,329,158145,1,10,3:1:0:0:
351,340,158375,5,8,0:1:0:0:
318,271,158491,1,8,0:1:0:0:
335,196,158606,1,10,0:1:0:0:
397,152,158721,1,8,0:1:0:0:
473,154,158837,1,8,0:1:0:0:
475,163,159068,6,0,P|408:152|349:136,1,116.999994644165,6|0,3:2|0:0,0:0:0:0:
279,136,159414,1,0,1:0:0:0:
330,8,159529,2,0,P|321:40|315:66,1,58.4999973220826,10|0,0:1|0:0,0:0:0:0:
252,210,159760,2,0,P|198:139|245:69,1,175.499991966248,0|0,3:0|0:0,0:0:0:0:
315,64,160221,2,0,P|321:36|330:8,1,58.4999973220826,0|0,3:0|0:0,0:0:0:0:
366,142,160452,2,0,P|353:197|333:283,1,116.999994644165,8|0,0:1|0:0,0:0:0:0:
291,325,160798,1,0,1:0:0:0:
299,355,160914,5,2,3:1:0:0:
134,368,161145,1,2,1:2:0:0:
146,297,161260,1,2,3:1:0:0:
204,342,161375,2,0,P|217:310|209:267,1,58.4999973220826,8|0,0:1|0:0,0:0:0:0:
120,202,161606,2,0,P|180:219|226:142,1,116.999994644165,2|2,3:1|0:0,0:0:0:0:
244,109,161952,1,8,0:1:0:0:
171,128,162068,1,2,3:1:0:0:
293,173,162298,1,10,0:1:0:0:
268,37,162529,1,2,3:2:0:0:
293,173,162760,6,0,P|327:225|396:206,1,116.999994644165,2|0,3:2|0:0,0:0:0:0:
451,194,163106,1,0,3:0:0:0:
511,307,163221,2,0,P|484:325|457:326,1,58.4999973220826,10|0,0:1|0:0,0:0:0:0:
380,303,163452,2,0,P|325:351|393:376,1,175.499991966248,0|0,3:0|0:0,0:0:0:0:
458,326,163914,2,0,P|486:323|510:306,1,58.4999973220826,0|0,3:0|0:0,0:0:0:0:
451,194,164145,2,0,P|438:161|427:126,1,58.4999973220826,8|0,0:1|0:0,0:0:0:0:
512,40,164375,2,0,P|506:74|491:103,1,58.4999973220826,2|0,3:2|0:0,0:0:0:0:
350,149,164606,6,0,P|300:111|229:152,1,116.999994644165,2|0,3:1|0:0,0:0:0:0:
194,182,164952,1,2,3:1:0:0:
119,94,165068,2,0,P|167:105|203:122,1,58.4999973220826,8|0,0:1|0:0,0:0:0:0:
64,30,165298,2,0,P|37:109|65:161,1,116.999994644165,2|0,3:1|0:0,0:0:0:0:
96,199,165645,1,8,0:1:0:0:
20,222,165760,2,0,P|9:267|9:305,1,58.4999973220826,0|0,3:1|3:0,0:0:0:0:
71,334,165991,1,10,0:1:0:0:
96,199,166221,1,0,3:0:0:0:
71,334,166452,6,0,P|105:378|171:362,1,116.999994644165,4|0,3:1|0:0,0:0:0:0:
221,321,166798,1,0,1:0:0:0:
292,384,166914,2,0,P|304:333|320:257,1,116.999994644165,8|0,0:1|3:2,0:0:0:0:
416,137,167375,2,0,B|462:171|462:171|338:193,1,175.499991966248,2|0,3:1|0:0,0:0:0:0:
265,200,167837,2,0,P|234:161|159:177,1,116.999994644165,8|0,0:1|3:0,0:0:0:0:
107,210,168183,1,0,1:0:0:0:
34,69,168298,6,0,P|37:109|112:122,1,116.999994644165,2|0,3:1|0:0,0:0:0:0:
169,83,168645,2,0,P|183:41|258:45,1,116.999994644165,2|0,3:1|0:0,0:0:0:0:
308,136,168991,2,0,L|316:65,1,58.4999973220826,2|0,3:2|0:0,0:0:0:0:
323,2,169221,5,2,3:1:0:0:
388,109,169337,2,0,L|379:177,1,58.4999973220826,8|0,0:1|0:0,0:0:0:0:
372,244,169568,1,0,3:0:0:0:
242,224,169683,2,0,L|329:210,1,58.4999973220826,10|0,0:1|0:0,0:0:0:0:
445,268,169914,1,0,3:0:0:0:
431,337,170029,1,0,3:0:0:0:
363,317,170145,6,0,P|296:337|236:371,1,116.999994644165,0|0,3:0|0:0,0:0:0:0:
161,240,170491,1,0,1:0:0:0:
242,224,170606,2,0,P|238:260|219:301,1,58.4999973220826,10|0,0:1|0:0,0:0:0:0:
87,376,170837,2,0,B|63:345|76:312|76:312|155:302|187:367,1,175.499991966248,0|0,3:0|0:0,0:0:0:0:
230,280,171298,2,0,P|239:252|241:223,1,58.4999973220826,2|0,3:2|0:0,0:0:0:0:
195,102,171529,2,0,P|186:132|184:159,1,58.4999973220826,10|0,0:1|0:0,0:0:0:0:
266,141,171760,1,2,0:0:0:0:
107,175,171991,6,0,P|109:115|132:53,1,116.999994644165,2|0,3:1|0:0,0:0:0:0:
189,14,172337,1,0,3:0:0:0:
258,53,172452,1,8,0:1:0:0:
293,217,172683,5,8,0:1:0:0:
361,181,172798,1,10,0:1:0:0:
430,219,172914,1,0,1:0:0:0:
431,228,173029,1,0,1:0:0:0:
432,237,173145,1,0,1:0:0:0:
433,246,173260,1,0,1:0:0:0:
434,257,173375,5,10,0:1:0:0:
364,287,173491,1,8,0:1:0:0:
289,301,173606,1,8,0:1:0:0:
362,319,173721,1,8,0:1:0:0:
436,334,173837,5,6,0:1:0:0:
436,334,174529,1,2,0:0:0:0:
438,350,174645,1,2,0:0:0:0:
440,367,174760,6,0,P|375:359|381:287,1,116.999994644165,10|0,0:1|3:0,0:0:0:0:
363,316,175106,1,0,3:0:0:0:
283,271,175221,2,0,P|268:348|169:353,1,175.499991966248,10|0,0:1|0:0,0:0:0:0:
141,290,175683,6,0,P|176:235|227:225,1,107.999996704102,6|0,3:2|0:0,0:0:0:0:
294,184,176029,1,0,1:0:0:0:
294,184,176145,2,0,P|288:160|276:128,1,53.9999983520508,8|0,0:1|0:0,0:0:0:0:
214,12,176375,2,2,B|208:98|131:41|119:144,1,161.999995056153,2|0,3:0|0:0,0:1:0:0:
201,147,176837,1,0,3:0:0:0:
38,191,177068,2,0,P|96:203|149:221,1,107.999996704102,8|2,0:1|0:1,0:0:0:0:
216,230,177414,1,0,1:0:0:0:
182,320,177529,6,0,P|235:307|286:290,1,107.999996704102,0|2,3:0|0:1,0:0:0:0:
362,263,177875,1,0,3:0:0:0:
340,191,177991,2,0,P|306:203|285:227,1,53.9999983520508,10|0,0:1|0:0,0:0:0:0:
418,208,178221,2,0,P|427:182|422:151,1,53.9999983520508,2|0,3:1|0:0,0:0:0:0:
325,50,178452,5,0,1:0:0:0:
320,65,178568,1,8,0:1:0:0:
316,80,178683,1,0,3:0:0:0:
313,96,178798,1,0,1:0:0:0:
311,112,178914,5,10,0:1:0:0:
275,98,179029,1,2,0:0:0:0:
237,92,179145,1,2,3:2:0:0:
199,97,179260,1,2,0:0:0:0:
166,116,179375,5,2,3:0:0:0:
236,241,179606,1,2,0:0:0:0:
216,246,179721,1,2,3:2:0:0:
196,253,179837,2,0,P|162:265|139:271,1,53.9999983520508,10|2,0:1|0:0,0:0:0:0:
87,177,180068,2,0,P|113:183|138:192,1,53.9999983520508,2|2,3:2|0:0,0:0:0:0:
250,328,180298,5,2,0:3:0:0:
270,333,180414,1,2,0:3:0:0:
306,310,180529,1,2,3:3:0:0:
327,314,180645,1,2,0:3:0:0:
361,344,180760,2,0,P|374:304|395:229,1,107.999996704102,8|0,0:1|3:0,0:0:0:0:
436,98,181106,1,2,0:0:0:0:
511,114,181221,6,0,P|476:167|409:158,1,107.999996704102,2|0,3:1|0:0,0:0:0:0:
343,70,181568,1,2,3:2:0:0:
364,143,181683,6,0,P|324:104|271:119,1,107.999996704102,10|0,0:1|3:0,0:0:0:0:
200,245,182029,1,2,0:0:0:0:
226,172,182145,6,0,P|177:214|125:191,1,107.999996704102,2|0,3:1|3:0,0:0:0:0:
0,208,182491,1,0,3:0:0:0:
21,280,182606,1,10,0:1:0:0:
90,251,182721,1,0,1:0:0:0:
113,281,182837,1,0,3:0:0:0:
122,317,182952,1,0,1:0:0:0:
114,354,183068,5,0,3:0:0:0:
114,354,183298,2,0,P|148:362|191:395,1,53.9999983520508,2|0,0:1|0:0,0:0:0:0:
224,304,183529,2,0,P|256:295|293:273,1,53.9999983520508,10|0,0:1|0:0,0:0:0:0:
248,166,183760,2,0,P|235:201|224:248,1,53.9999983520508,2|0,3:1|0:0,0:0:0:0:
354,311,183991,2,2,P|355:257|302:213,1,107.999996704102,2|0,3:1|0:0,0:1:0:0:
248,166,184337,2,2,P|255:108|337:91,1,107.999996704102,2|0,0:3|0:0,0:1:0:0:
378,66,184683,2,0,L|366:144,1,53.9999983520508,2|0,3:1|0:0,0:1:0:0:
505,163,184914,6,2,P|431:176|379:202,1,107.999996704102,2|0,3:1|0:0,0:1:0:0:
320,219,185260,2,2,P|266:212|216:193,1,107.999996704102,2|0,3:0|0:0,0:1:0:0:
136,98,185606,2,0,L|146:151,1,53.9999983520508,2|0,3:1|0:0,0:1:0:0:
58,239,185837,6,2,P|35:192|110:145,1,107.999996704102,2|0,3:1|0:0,0:1:0:0:
139,230,186183,2,2,P|162:276|135:320,1,107.999996704102,2|0,3:0|0:0,0:1:0:0:
60,347,186529,1,0,3:0:0:0:
57,336,186645,1,0,3:0:0:0:
140,331,186760,6,0,P|172:276|132:212,1,125.999996154785,6|2,3:1|0:3,0:0:0:0:
146,151,187106,1,2,0:3:0:0:
189,158,187221,1,10,0:1:0:0:
224,131,187337,1,2,0:0:0:0:
171,78,187452,6,2,P|236:50|298:31,1,125.999996154785,2|0,3:1|0:0,0:1:0:0:
457,62,187798,1,2,0:3:0:0:
385,87,187914,1,2,3:0:0:0:
443,134,188029,1,2,0:3:0:0:
458,168,188145,1,10,0:1:0:0:
456,193,188260,1,2,0:0:0:0:
451,207,188375,2,0,P|440:245|438:280,1,45,2|2,0:3|0:3,0:0:0:0:
353,343,188606,5,2,3:1:0:0:
361,336,188837,5,2,3:2:0:0:
325,342,188952,1,10,3:2:0:0:
289,348,189068,1,2,0:1:0:0:
372,325,189298,5,10,0:2:0:0:
315,309,189414,1,2,3:2:0:0:
257,296,189529,1,2,0:1:0:0:
381,315,189760,5,2,3:2:0:0:
348,246,189875,1,2,3:2:0:0:
316,177,189991,1,10,0:1:0:0:
360,114,190106,1,10,0:1:0:0:
436,121,190221,1,10,0:1:0:0:
468,190,190337,1,10,0:1:0:0:
425,253,190452,6,0,P|407:322|445:381,2,144,6|0|0,3:1|3:0|3:0,0:0:0:0:
468,190,191837,1,8,0:0:0:0:
436,121,192068,1,0,0:0:0:0:
376,51,192298,6,0,P|448:75|532:49,2,144,2|0|0,3:2|3:0|3:0,0:0:0:0:
303,1,193452,2,0,P|298:39|301:76,1,72,2|10,0:0|0:0,0:0:0:0:
300,72,193914,1,0,0:0:0:0:
263,149,194145,6,0,P|220:111|129:134,1,144,2|0,3:2|3:0,0:0:0:0:
15,98,195068,2,0,P|58:136|149:113,1,144,2|8,3:2|0:0,0:0:0:0:
184,51,195760,1,0,0:0:0:0:
263,149,195991,6,0,P|278:213|238:297,1,144,2|0,3:2|3:0,0:0:0:0:
180,350,196914,1,0,3:0:0:0:
111,303,197145,1,0,0:0:0:0:
32,324,197375,1,10,0:0:0:0:
116,288,197606,1,8,0:0:0:0:
120,269,197721,1,8,0:0:0:0:
62,211,197837,6,0,P|116:228|221:236,2,144,2|0|0,3:2|3:0|3:0,0:0:0:0:
77,130,198991,2,0,P|73:94|61:60,1,72,0|8,0:0|0:0,0:0:0:0:
61,60,199452,1,2,0:0:0:0:
176,13,199683,6,0,P|163:88|153:160,2,144,2|0|0,3:2|3:0|3:0,0:0:0:0:
263,55,200837,2,0,P|272:95|279:134,2,72,2|10|0,0:0|0:0|0:0,0:0:0:0:
359,116,201529,6,0,P|397:150|462:132,2,108,2|2|2,3:2|0:0|0:0,0:0:0:0:
330,231,202452,2,0,P|284:178|214:178,1,144,0|8,3:0|0:0,0:0:0:0:
147,230,203145,1,10,3:0:0:0:
82,82,205221,6,0,P|100:122|105:179,1,80.9999975280763,6|0,3:2|0:0,0:0:0:0:
49,224,205568,1,0,3:0:0:0:
61,242,205683,2,0,P|89:252|108:262,1,40.4999987640381,8|0,0:0|0:0,0:0:0:0:
94,339,205914,2,0,P|116:299|189:295,1,121.499996292114,2|0,3:2|0:0,0:0:0:0:
265,312,206375,2,0,P|267:285|259:258,1,40.4999987640381,0|0,3:0|0:0,0:0:0:0:
242,162,206606,2,0,P|202:185|201:232,1,80.9999975280763,10|0,0:0|0:0,0:0:0:0:
351,162,207068,6,0,P|339:124|282:111,1,80.9999975280763,2|0,3:2|0:0,0:0:0:0:
227,86,207414,1,0,3:0:0:0:
220,69,207529,2,0,P|230:28|233:20,1,40.4999987640381,8|0,0:0|0:0,0:0:0:0:
303,107,207760,2,0,P|288:183|272:261,1,121.499996292114,2|0,3:2|0:0,0:0:0:0:
214,322,208221,1,0,3:0:0:0:
249,331,208337,1,0,3:0:0:0:
283,341,208452,2,0,P|213:353|162:363,1,121.499996292114,8|0,0:0|0:0,0:0:0:0:
84,359,208914,6,0,P|100:313|148:286,1,90,6|2,3:2|0:0,0:0:0:0:
194,234,209260,1,2,3:2:0:0:
197,212,209375,2,0,P|193:165|183:134,1,45,10|0,0:0|0:0,0:0:0:0:
63,118,209606,2,0,P|73:195|149:178,1,135,0|0,3:0|0:0,0:0:0:0:
193,167,210068,2,0,P|230:175|256:186,1,45,2|0,3:2|0:0,0:0:0:0:
299,229,210298,1,10,0:0:0:0:
415,145,210529,1,2,0:0:0:0:
316,58,210760,6,0,P|331:131|342:177,1,90,2|0,3:2|0:0,0:0:0:0:
386,225,211106,1,0,3:0:0:0:
395,238,211221,2,0,P|391:272|385:306,1,45,8|0,0:0|0:0,0:0:0:0:
282,362,211452,2,0,P|287:292|299:224,1,135,0|0,3:0|0:0,0:0:0:0:
334,146,211914,1,2,3:2:0:0:
307,147,212029,1,0,3:0:0:0:
324,72,212145,2,0,P|386:79|411:145,1,135,10|0,0:0|0:0,0:0:0:0:
482,201,212606,6,0,P|418:216|354:235,1,99.0000030212403,2|0,3:2|0:0,0:0:0:0:
322,270,212952,1,0,3:0:0:0:
327,296,213068,1,8,0:0:0:0:
223,376,213298,1,0,3:0:0:0:
131,282,213529,1,2,0:0:0:0:
138,264,213645,2,0,P|152:221|169:162,1,99.0000030212403,8|0,0:0|0:0,0:0:0:0:
247,138,213991,2,0,P|233:95|216:36,1,99.0000030212403,8|2,0:0|3:2,0:0:0:0:
146,6,214337,1,2,3:2:0:0:
122,83,214452,5,10,0:1:0:0:
95,96,214568,1,0,0:0:0:0:
76,119,214683,1,0,1:0:0:0:
68,147,214798,1,0,1:0:0:0:
150,163,214914,5,2,1:2:0:0:
174,180,215029,1,0,1:0:0:0:
186,206,215145,1,0,1:0:0:0:
188,235,215260,1,0,1:0:0:0:
164,309,215375,5,2,1:2:0:0:
205,329,215491,1,0,1:0:0:0:
236,296,215606,1,0,1:0:0:0:
277,316,215721,1,0,1:0:0:0:
292,243,215837,5,10,0:1:0:0:
366,235,215952,5,8,0:1:0:0:
396,303,216068,5,8,0:1:0:0:
341,353,216183,6,0,L|345:322,1,31.5,8|0,0:1|0:0,0:0:0:0:
349,87,218374,6,0,P|326:98|303:107,2,33.0000010070801,2|2|2,1:2|1:2|0:2,0:0:0:0:
412,140,218605,1,12,0:1:0:0:
410,164,218721,1,8,0:1:0:0:
408,188,218836,1,8,0:1:0:0:
408,212,218951,1,8,0:1:0:0:
437,283,219067,6,0,P|397:243|330:256,1,116.999994644165,6|0,3:2|0:0,0:0:0:0:
284,304,219413,1,0,1:0:0:0:
211,205,219528,2,0,P|243:216|268:228,1,58.4999973220826,10|0,0:1|0:0,0:0:0:0:
213,368,219759,2,0,B|170:383|170:383|126:304|210:281,1,175.499991966248,0|0,3:0|0:0,0:0:0:0:
265,226,220221,2,0,P|238:214|211:205,1,58.4999973220826,0|0,3:0|0:0,0:0:0:0:
93,264,220451,2,0,P|125:229|127:154,1,116.999994644165,8|0,0:1|0:0,0:0:0:0:
66,108,220797,1,0,1:0:0:0:
54,136,220913,5,2,3:1:0:0:
181,102,221144,1,2,1:2:0:0:
152,37,221259,1,2,3:1:0:0:
222,41,221374,2,0,P|247:70|253:97,1,58.4999973220826,8|0,0:1|0:0,0:0:0:0:
277,248,221605,2,0,P|226:210|238:153,1,116.999994644165,2|2,3:1|3:2,0:0:0:0:
302,146,221951,1,8,0:1:0:0:
320,71,222067,1,2,3:1:0:0:
277,248,222297,2,0,P|310:256|350:271,1,58.4999973220826,10|0,0:1|0:0,0:0:0:0:
448,194,222528,2,0,P|410:208|399:245,1,58.4999973220826,2|0,3:2|0:0,0:0:0:0:
276,329,222759,6,0,P|218:313|159:300,1,116.999994644165,2|0,3:2|0:0,0:0:0:0:
83,287,223105,1,0,1:0:0:0:
61,375,223221,2,0,P|92:369|135:346,1,58.4999973220826,10|0,0:1|0:0,0:0:0:0:
212,234,223451,2,0,P|125:221|84:305,1,175.499991966248,0|0,3:0|0:0,0:0:0:0:
116,358,223913,2,0,P|89:369|61:375,1,58.4999973220826,0|0,3:0|0:0,0:0:0:0:
162,300,224144,2,0,P|152:244|140:182,1,116.999994644165,8|0,0:1|0:0,0:0:0:0:
89,127,224490,1,0,1:0:0:0:
92,97,224605,5,2,3:1:0:0:
208,46,224836,1,2,1:2:0:0:
221,116,224951,1,2,3:1:0:0:
278,71,225067,2,0,P|302:76|337:85,1,58.4999973220826,8|0,0:1|0:0,0:0:0:0:
450,0,225297,2,0,P|435:39|411:116,1,116.999994644165,2|0,3:1|0:0,0:0:0:0:
378,235,225644,5,8,0:1:0:0:
432,180,225759,1,0,3:0:0:0:
457,189,225874,1,0,3:0:0:0:
490,270,225990,2,0,P|484:296|474:331,1,58.4999973220826,10|0,0:1|0:0,0:0:0:0:
313,282,226221,2,0,P|304:253|298:225,1,58.4999973220826,2|0,3:2|0:0,0:0:0:0:
380,369,226451,6,0,P|396:303|413:239,1,116.999994644165,2|0,3:1|0:0,0:0:0:0:
432,180,226797,1,0,1:0:0:0:
357,169,226913,2,0,P|364:143|377:96,1,58.4999973220826,10|0,0:1|0:0,0:0:0:0:
419,0,227144,2,0,P|351:75|281:57,1,175.499991966248,2|0,3:1|0:0,0:0:0:0:
236,4,227605,1,0,3:0:0:0:
214,76,227721,1,0,1:0:0:0:
260,135,227836,1,8,0:1:0:0:
160,14,228067,2,0,P|116:27|90:38,1,58.4999973220826,2|0,3:2|0:0,0:0:0:0:
0,89,228297,6,0,P|61:99|119:116,1,116.999994644165,2|0,3:1|0:0,0:0:0:0:
175,161,228644,1,0,3:0:0:0:
86,254,228759,2,0,P|110:242|158:230,1,58.4999973220826,10|0,0:1|0:0,0:0:0:0:
233,376,228990,2,0,P|172:355|157:298,1,116.999994644165,2|0,3:1|0:0,0:0:0:0:
217,258,229336,1,8,0:1:0:0:
140,232,229451,2,0,P|111:240|85:253,1,58.4999973220826,0|0,3:0|0:0,0:0:0:0:
296,280,229682,2,0,P|348:267|424:235,1,116.999994644165,8|0,0:1|3:0,0:0:0:0:
416,170,230028,1,2,3:2:0:0:
510,204,230144,6,0,P|457:212|414:162,1,116.999994644165,2|0,3:1|0:0,0:0:0:0:
386,96,230490,1,0,1:0:0:0:
342,158,230605,2,0,P|325:178|289:191,1,58.4999973220826,8|0,0:1|0:0,0:0:0:0:
234,134,230836,2,0,B|222:88|158:72|158:72|203:97|203:136,1,175.499991966248,2|0,3:1|0:0,0:0:0:0:
295,190,231297,2,0,P|322:179|342:158,1,58.4999973220826,0|0,3:0|0:0,0:0:0:0:
232,248,231528,2,0,P|167:274|158:375,1,175.499991966248,8|0,0:1|0:0,0:0:0:0:
241,382,231990,6,0,B|264:352|264:352|377:375,1,116.999994644165,2|0,3:1|0:0,0:0:0:0:
415,384,232336,1,0,1:0:0:0:
420,308,232451,1,8,0:1:0:0:
421,299,232682,5,0,1:0:0:0:
381,280,232797,1,8,3:1:0:0:
373,238,232913,1,10,3:1:0:0:
375,226,233144,5,8,0:1:0:0:
450,229,233259,1,8,0:1:0:0:
479,159,233374,1,10,0:1:0:0:
421,110,233490,1,8,0:1:0:0:
355,151,233605,1,8,0:1:0:0:
348,153,233836,6,0,P|307:117|240:146,1,116.999994644165,6|0,3:2|0:0,0:0:0:0:
196,190,234182,1,0,1:0:0:0:
247,251,234297,2,0,P|273:253|309:232,1,58.4999973220826,10|0,0:1|0:0,0:0:0:0:
411,324,234528,2,0,B|363:349|363:349|385:211,1,175.499991966248,0|0,3:0|0:0,0:0:0:0:
301,239,234990,2,0,P|275:252|247:251,1,58.4999973220826,0|0,3:0|0:0,0:0:0:0:
104,342,235221,2,0,P|153:324|155:247,1,116.999994644165,8|0,0:1|0:0,0:0:0:0:
115,208,235567,1,0,1:0:0:0:
136,138,235682,5,2,3:1:0:0:
247,251,235913,1,2,1:2:0:0:
263,321,236028,1,2,3:1:0:0:
316,272,236144,2,0,P|325:237|336:202,1,58.4999973220826,8|0,0:1|0:0,0:0:0:0:
368,111,236374,2,0,P|311:137|240:159,1,116.999994644165,2|2,3:1|0:0,0:0:0:0:
186,109,236721,1,8,0:1:0:0:
256,79,236836,1,2,3:1:0:0:
187,183,237067,1,10,0:1:0:0:
121,67,237297,1,2,3:2:0:0:
187,183,237528,6,0,P|188:230|110:268,1,116.999994644165,2|0,3:2|0:0,0:0:0:0:
7,341,237874,1,0,3:0:0:0:
7,263,237990,2,0,P|44:274|71:292,1,58.4999973220826,10|0,0:1|0:0,0:0:0:0:
115,348,238221,2,0,B|201:364|201:364|220:337|220:337|128:350,1,175.499991966248,0|0,3:0|0:0,0:0:0:0:
60,284,238682,2,0,P|35:270|7:263,1,58.4999973220826,0|0,3:0|0:0,0:0:0:0:
109,176,238913,2,0,P|74:189|29:197,1,58.4999973220826,8|0,0:1|0:0,0:0:0:0:
202,265,239144,2,0,P|165:257|115:235,1,58.4999973220826,2|0,3:2|0:0,0:0:0:0:
232,98,239374,6,0,P|254:154|270:232,1,116.999994644165,2|0,3:1|0:0,0:0:0:0:
345,335,239721,1,2,3:1:0:0:
276,288,239836,2,0,P|307:271|350:253,1,58.4999973220826,8|0,0:1|0:0,0:0:0:0:
244,361,240067,2,0,P|204:325|203:262,1,116.999994644165,2|0,3:1|0:0,0:0:0:0:
233,196,240413,1,8,0:1:0:0:
156,204,240528,2,0,P|120:195|89:180,1,58.4999973220826,0|0,3:1|3:0,0:0:0:0:
122,108,240759,1,10,0:1:0:0:
14,209,240990,1,0,3:0:0:0:
122,108,241221,6,0,P|180:92|265:73,1,116.999994644165,4|0,3:1|0:0,0:0:0:0:
384,130,241567,1,0,1:0:0:0:
362,57,241682,2,0,P|306:105|338:182,1,116.999994644165,8|0,0:1|3:2,0:0:0:0:
486,197,242144,2,0,P|393:211|306:231,1,175.499991966248,2|0,3:1|0:0,0:0:0:0:
233,196,242605,2,0,P|188:252|198:301,1,116.999994644165,8|0,0:1|3:0,0:0:0:0:
239,357,242951,1,0,1:0:0:0:
132,382,243067,6,0,P|121:330|101:252,1,116.999994644165,2|0,3:1|0:0,0:0:0:0:
45,212,243413,2,0,P|70:153|142:191,1,116.999994644165,2|0,3:1|0:0,0:0:0:0:
233,196,243759,2,0,L|148:214,1,58.4999973220826,2|0,3:2|0:0,0:0:0:0:
226,119,243990,5,2,3:1:0:0:
301,235,244105,2,0,L|381:219,1,58.4999973220826,8|0,0:1|0:0,0:0:0:0:
306,156,244336,1,0,3:0:0:0:
232,276,244451,2,0,L|147:294,1,58.4999973220826,10|0,0:1|0:0,0:0:0:0:
233,196,244682,1,0,3:0:0:0:
301,235,244797,1,0,3:0:0:0:
372,205,244913,6,0,P|413:248|501:218,1,116.999994644165,0|0,3:0|0:0,0:0:0:0:
441,176,245259,1,0,1:0:0:0:
503,133,245374,2,0,P|513:107|512:76,1,58.4999973220826,10|0,0:1|0:0,0:0:0:0:
366,61,245605,1,0,3:0:0:0:
433,89,245721,2,0,P|372:103|314:124,1,116.999994644165,2|0,0:0|0:0,0:0:0:0:
240,23,246067,2,0,P|248:55|251:81,1,58.4999973220826,2|0,3:2|0:0,0:0:0:0:
182,130,246297,2,0,P|174:105|170:71,1,58.4999973220826,10|0,0:1|0:0,0:0:0:0:
256,163,246528,1,2,0:0:0:0:
99,114,246759,6,0,P|59:150|70:217,1,116.999994644165,2|0,3:1|0:0,0:0:0:0:
115,267,247105,1,0,3:0:0:0:
178,224,247221,1,8,0:1:0:0:
248,349,247451,5,8,0:1:0:0:
323,376,247567,1,10,0:1:0:0:
309,301,247682,1,0,1:0:0:0:
309,291,247797,1,0,1:0:0:0:
309,282,247913,1,0,1:0:0:0:
310,273,248028,1,0,1:0:0:0:
310,265,248144,5,10,0:1:0:0:
377,230,248259,1,8,0:1:0:0:
386,154,248374,1,8,0:1:0:0:
321,114,248490,1,8,0:1:0:0:
315,37,248605,5,6,0:1:0:0:
315,37,249297,1,2,0:0:0:0:
317,53,249413,1,2,0:0:0:0:
319,70,249528,6,0,P|258:57|201:49,1,116.999994644165,10|0,0:1|3:0,0:0:0:0:
203,49,249874,1,0,3:0:0:0:
174,179,249990,2,0,P|232:163|354:143,1,175.499991966248,10|0,0:1|0:0,0:0:0:0:
404,0,250451,6,0,B|359:111|475:63|407:218,1,175.499991966248,6|0,3:2|0:0,0:0:0:0:
308,227,250913,2,0,B|387:213,1,58.4999973220826,10|0,0:1|0:0,0:0:0:0:
486,217,251144,2,0,P|471:272|402:267,1,116.999994644165,0|2,3:0|0:1,0:0:0:0:
347,304,251490,1,0,0:0:0:0:
394,365,251605,2,0,P|363:379|334:385,1,58.4999973220826,0|0,3:0|0:0,0:0:0:0:
192,281,251836,2,0,P|237:279|264:363,1,116.999994644165,10|0,0:1|0:0,0:0:0:0:
196,361,252182,1,0,0:0:0:0:
347,304,252297,6,2,P|354:244|372:157,1,116.999994644165,2|0,3:1|0:0,0:1:0:0:
302,133,252644,2,2,P|250:141|201:96,1,116.999994644165,2|0,3:1|0:0,0:1:0:0:
274,6,252990,2,0,L|270:86,1,58.4999973220826,0|0,3:1|0:0,0:0:0:0:
380,118,253221,1,2,0:1:0:0:
462,22,253336,6,0,P|402:34|346:50,1,116.999994644165,8|0,0:1|0:0,0:0:0:0:
302,133,253682,1,8,0:1:0:0:
129,76,253913,1,0,3:0:0:0:
172,20,254028,1,0,3:0:0:0:
198,87,254144,6,0,P|192:125|169:168,1,58.4999973220826,2|0,3:1|0:0,0:0:0:0:
198,222,254374,2,0,P|175:250|143:266,1,58.4999973220826,0|0,0:0|0:0,0:0:0:0:
49,138,254605,2,0,P|78:142|105:154,1,58.4999973220826,10|0,0:1|0:0,0:0:0:0:
115,330,254836,2,0,P|86:326|59:314,1,58.4999973220826,0|0,3:0|0:0,0:0:0:0:
226,384,255067,6,2,P|241:327|264:273,1,116.999994644165,2|0,0:1|3:0,0:1:0:0:
339,303,255413,1,2,0:1:0:0:
301,199,255528,2,2,P|363:220|412:164,1,116.999994644165,8|2,0:1|0:1,0:1:0:0:
451,131,255874,1,0,0:0:0:0:
382,53,255990,6,2,P|329:86|351:139,1,116.999994644165,2|0,3:1|0:0,0:1:0:0:
301,199,256336,2,0,P|265:251|198:216,1,116.999994644165,0|0,3:0|0:0,0:0:0:0:
133,113,256682,1,2,3:2:0:0:
194,167,256797,1,0,3:0:0:0:
207,94,256913,6,0,P|195:63|141:32,1,58.4999973220826,2|8,0:1|0:1,0:0:0:0:
81,171,257144,2,0,P|93:202|147:233,1,58.4999973220826,2|0,0:0|0:0,0:0:0:0:
49,341,257374,1,10,1:1:0:0:
99,293,257490,1,0,1:0:0:0:
167,274,257605,1,0,3:0:0:0:
234,291,257721,1,0,1:0:0:0:
295,323,257836,6,0,P|355:282|318:173,1,175.499991966248,6|0,3:2|0:0,0:0:0:0:
260,84,258297,2,0,P|271:120|308:153,1,58.4999973220826,10|0,0:1|0:0,0:0:0:0:
477,84,258528,2,0,P|416:99|348:124,1,116.999994644165,0|2,3:0|0:1,0:0:0:0:
268,210,258874,1,0,0:0:0:0:
342,190,258990,2,0,P|382:196|418:205,1,58.4999973220826,0|0,3:0|0:0,0:0:0:0:
477,84,259221,2,0,P|425:70|355:43,1,116.999994644165,10|0,0:1|0:0,0:0:0:0:
293,8,259567,1,0,0:0:0:0:
260,84,259682,6,2,P|207:106|207:184,1,116.999994644165,2|0,3:1|0:0,0:1:0:0:
148,233,260028,2,2,P|215:266|212:340,1,116.999994644165,2|0,3:1|0:0,0:1:0:0:
106,374,260374,2,0,P|135:363|163:356,1,58.4999973220826,0|0,3:0|0:0,0:0:0:0:
239,379,260605,1,2,0:1:0:0:
299,277,260721,6,0,P|284:209|271:142,1,116.999994644165,8|0,0:1|0:0,0:0:0:0:
260,84,261067,1,8,0:1:0:0:
358,209,261297,1,0,3:0:0:0:
416,170,261413,1,0,3:0:0:0:
457,227,261528,6,0,P|482:239|525:245,1,58.4999973220826,2|0,3:1|0:0,0:0:0:0:
400,273,261759,2,0,P|367:279|331:295,1,58.4999973220826,0|0,0:0|3:0,0:0:0:0:
490,161,261990,2,0,P|487:117|470:77,1,58.4999973220826,10|0,0:1|0:0,0:0:0:0:
287,172,262221,2,0,P|280:200|279:229,1,58.4999973220826,0|0,3:0|0:0,0:0:0:0:
337,33,262451,6,0,P|294:-4|291:73,1,144,10|0,0:1|3:0,0:0:0:0:
331,106,262797,1,0,3:0:0:0:
210,182,262913,2,0,B|174:170|174:170|162:135,1,72,10|0,0:1|0:0,0:0:0:0:
366,179,263144,2,0,B|401:190|401:190|413:225,1,72
217,376,263374,6,0,B|187:282|308:317|276:219,1,175.499991966248,2|0,3:1|3:0,0:0:0:0:
210,182,263836,1,8,0:1:0:0:
176,205,263951,1,2,0:3:0:0:
135,214,264067,1,2,3:0:0:0:
94,210,264182,1,2,0:3:0:0:
76,128,264297,5,10,0:0:0:0:
115,116,264413,1,10,0:1:0:0:
155,108,264528,1,2,3:2:0:0:
196,106,264644,1,10,0:3:0:0:
269,129,264759,5,10,0:1:0:0:
282,54,264874,5,10,0:1:0:0:
357,68,264990,5,10,0:1:0:0:
343,142,265105,5,10,0:1:0:0:
