osu file format v14

[General]
AudioFilename: Futuristic Player.mp3
AudioLeadIn: 2000
PreviewTime: 48118
Countdown: 0
SampleSet: Soft
StackLeniency: 0.7
Mode: 0
LetterboxInBreaks: 0
WidescreenStoryboard: 0

[Editor]
Bookmarks: 13517,25296,45909,79406
DistanceSpacing: 0.8
BeatDivisor: 4
GridSize: 4
TimelineZoom: 1.5

[Metadata]
Title:Futuristic Player
TitleUnicode:Futuristic Player
Artist:Hashimoto Miyuki
ArtistUnicode:橋本みゆき
Creator:Akemi_Homura
Version:Hard
Source:咲 -Saki- 阿知賀編 episode of side-A
Tags:ending gamu sekai sekai-nyan Saki: Achiga-hen - episode of side-A
BeatmapID:246189
BeatmapSetID:48141

[Difficulty]
HPDrainRate:5
CircleSize:4
OverallDifficulty:6
ApproachRate:7
SliderMultiplier:1.4
SliderTickRate:2

[Events]
//Background and Video events
0,0,"Saki1.jpg",0,0
Video,0,"Saki.avi"
//Break Periods
//Storyboard Layer 0 (Background)
//Storyboard Layer 1 (Fail)
//Storyboard Layer 2 (Pass)
//Storyboard Layer 3 (Foreground)
//Storyboard Sound Samples

[TimingPoints]
254,368.098159509202,4,2,1,55,1,0
1911,-100,4,2,1,70,0,0
3199,-100,4,2,2,50,0,0
3383,-100,4,2,1,70,0,0
7616,-100,4,2,1,55,0,0
7800,-100,4,2,1,70,0,0
9088,-100,4,2,2,50,0,0
9273,-100,4,2,1,70,0,0
13506,-100,4,2,2,45,0,0
13690,-100,4,2,1,70,0,0
23812,-100,4,2,1,60,0,0
23996,-100,4,2,1,70,0,0
27493,-100,4,2,1,50,0,0
27677,-100,4,2,1,70,0,0
28229,-100,4,2,1,50,0,0
28413,-100,4,2,1,70,0,0
30438,-100,4,2,1,50,0,0
30622,-100,4,2,1,70,0,0
31174,-100,4,2,1,50,0,0
31358,-100,4,2,1,70,0,0
32463,-100,4,2,1,35,0,0
32647,-100,4,2,1,70,0,0
36328,-100,4,2,1,70,0,0
39457,-100,4,2,1,75,0,0
39641,-100,4,2,1,70,0,0
45898,-100,4,2,1,60,0,0
46634,-100,4,2,1,50,0,0
47371,-100,4,2,1,40,0,0
48107,-100,4,2,1,60,0,0
48291,-100,4,2,1,70,0,0
48475,-100,4,2,2,40,0,0
48659,-100,4,2,1,60,0,0
48843,-100,4,2,1,70,0,1
60254,-100,4,2,2,60,0,0
60438,-100,4,2,1,70,0,0
60622,-100,4,2,1,70,0,1
71665,-100,4,2,2,50,0,1
71849,-100,4,2,1,75,0,1
72401,-100,4,2,1,75,0,0
76266,-100,4,2,1,60,0,0
76726,-100,4,2,1,70,0,0
77555,-100,4,2,1,50,0,0
78291,-100,4,2,1,30,0,0
79027,-100,4,2,1,10,0,0
79211,-100,4,2,1,5,0,0

[Colours]
Combo1 : 147,147,255
Combo2 : 255,155,155
Combo3 : 89,255,89
SliderBorder : 255,255,255

[HitObjects]
352,292,1726,6,0,B|424:256|405:172,1,140,4|2,0:0|0:0,0:0:0:0:
228,204,2462,1,0,0:0:0:0:
316,204,2646,1,0,0:0:0:0:
336,124,2830,1,2,0:0:0:0:
272,68,3014,1,0,0:0:0:0:
204,120,3198,2,0,B|127:151|145:232,1,140,4|2,0:0|0:0,0:0:0:0:
132,316,3750,2,0,B|96:308|72:276,1,70
64,192,4119,5,0,0:0:0:0:
116,124,4303,2,0,B|196:144|236:220,1,140,2|0,0:0|0:0,0:0:0:0:
224,288,4855,2,0,B|264:286|291:254,1,70,0|2,0:0|0:0,0:0:0:0:
340,192,5223,1,0,0:0:0:0:
408,140,5407,1,0,0:0:0:0:
476,192,5591,2,0,B|491:233|453:262,1,70,0|2,0:0|0:0,0:0:0:0:
420,328,5959,2,0,B|357:378|289:338,1,140,0|0,0:0|0:0,0:0:0:0:
224,288,6511,1,2,0:0:0:0:
160,232,6695,1,0,0:0:0:0:
100,292,6879,6,0,B|64:264|64:200|104:164,1,140,0|2,0:0|0:0,0:0:0:0:
156,100,7431,1,0,0:0:0:0:
212,164,7615,2,0,B|264:220|340:208,1,140,4|2,0:0|0:0,0:0:0:0:
420,192,8168,1,0,0:0:0:0:
468,120,8352,1,0,0:0:0:0:
324,32,8720,1,2,0:0:0:0:
256,184,9088,6,0,B|208:248|132:224,1,140,4|2,0:0|0:0,0:0:0:0:
88,136,9640,1,0,0:0:0:0:
172,136,9824,2,0,B|212:196|188:272,1,140,0|2,0:0|0:0,0:0:0:0:
144,344,10376,1,0,0:0:0:0:
68,308,10560,2,0,B|28:248|52:172,1,140,0|2,0:0|0:0,0:0:0:0:
92,100,11112,1,0,0:0:0:0:
148,40,11296,1,0,0:0:0:0:
256,168,11665,1,2,0:0:0:0:
380,60,12033,6,0,B|444:32,2,70,2|0|0,0:0|0:0|0:0,0:0:0:0:
352,140,12585,2,0,B|288:112,2,70,2|0|0,0:0|0:0|0:0,0:0:0:0:
416,192,13137,1,2,0:0:0:0:
300,312,13505,6,0,B|232:348|160:320,1,140,4|8,0:0|0:0,0:0:0:0:
100,268,14057,1,0,0:0:0:0:
36,112,14425,1,0,0:0:0:0:
96,52,14609,1,8,0:0:0:0:
180,36,14793,2,0,B|260:28|312:80,1,140,2|0,0:0|0:0,0:0:0:0:
424,100,15346,2,0,B|424:140|396:160,1,70,8|0,0:0|0:0,0:0:0:0:
304,228,15714,2,0,B|220:256|180:192,1,140,0|8,0:0|0:0,0:0:0:0:
188,100,16266,1,0,0:0:0:0:
256,152,16450,6,0,B|244:228|192:272,1,140,2|8,0:0|0:0,0:0:0:0:
124,324,17002,1,0,0:0:0:0:
72,260,17186,1,0,0:0:0:0:
140,208,17370,1,0,0:0:0:0:
192,272,17554,1,8,0:0:0:0:
192,272,17738,2,0,B|240:335|312:327,1,140,2|0,0:0|0:0,0:0:0:0:
313,326,18290,1,8,0:0:0:0:
436,216,18658,6,0,B|444:132|388:88,1,140,0|8,0:0|0:0,0:0:0:0:
332,32,19211,1,0,0:0:0:0:
256,68,19395,2,0,B|184:32,2,70,2|0|8,0:0|0:0|0:0,0:0:0:0:
296,140,19947,2,0,B|268:216|184:212,1,140
107,192,20499,1,8,0:0:0:0:
136,112,20683,1,0,0:0:0:0:
216,136,20867,6,0,B|272:188|256:268,1,140,2|8,0:0|0:0,0:0:0:0:
228,340,21419,1,0,0:0:0:0:
148,320,21603,2,0,B|92:268|108:188,1,140,0|8,0:0|0:0,0:0:0:0:
204,56,22339,6,0,B|268:28,2,70,2|0|8,0:0|0:0|0:0,0:0:0:0:
148,120,22892,1,0,0:0:0:0:
148,120,23076,2,0,B|84:92,2,70,2|0|8,0:0|0:0|0:0,0:0:0:0:
192,192,23628,1,0,0:0:0:0:
256,248,23812,2,0,B|328:224|340:144,1,140,2|8,0:0|0:0,0:0:0:0:
400,76,24364,6,0,B|372:48|336:56,1,70
256,80,24732,1,8,0:0:0:0:
256,80,24824,1,0,0:0:0:0:
256,80,24916,1,8,0:0:0:0:
168,60,25100,1,0,0:0:0:0:
88,100,25284,6,0,B|48:164|92:240,1,140,4|8,0:0|0:0,0:0:0:0:
68,328,25836,2,0,B|152:348|188:260,1,140
220,180,26388,1,8,0:0:0:0:
296,244,26573,2,0,B|340:172|296:112,1,140
232,40,27125,1,8,0:0:0:0:
440,32,27493,6,0,B|396:104|440:164,1,140,4|8,0:0|0:0,0:0:0:0:
344,340,28229,2,0,B|388:268|344:208,1,140,4|8,0:0|0:0,0:0:0:0:
304,128,28781,1,0,0:0:0:0:
144,260,29149,1,0,0:0:0:0:
76,208,29333,1,8,0:0:0:0:
108,132,29517,2,0,B|148:64|232:92,1,140
304,128,30069,1,8,0:0:0:0:
400,328,30438,6,0,B|476:300|472:212,1,140,4|8,0:0|0:0,0:0:0:0:
384,44,31174,1,4,0:0:0:0:
376,128,31358,1,0,0:0:0:0:
324,196,31542,1,8,0:0:0:0:
240,192,31726,1,0,0:0:0:0:
136,40,32094,6,0,B|108:104,1,70,0|8,0:0|0:0,0:0:0:0:
40,152,32462,2,0,B|0:220|52:284,1,140,0|0,0:0|0:0,0:0:0:0:
116,336,33014,1,8,0:0:0:0:
296,280,33382,2,0,B|333:284|357:246,1,70,0|0,0:0|0:0,0:0:0:0:
420,196,33750,1,8,0:0:0:0:
420,196,33934,1,0,0:0:0:0:
476,124,34119,6,0,B|400:128|352:64,1,140,0|8,0:0|0:0,0:0:0:0:
276,32,34671,1,0,0:0:0:0:
256,112,34855,2,0,B|188:148,1,70
112,124,35223,1,8,0:0:0:0:
112,124,35407,1,0,0:0:0:0:
60,192,35591,6,0,B|46:228|73:259,1,70,0|0,0:0|0:0,0:0:0:0:
112,332,35959,1,8,0:0:0:0:
196,372,36143,1,0,0:0:0:0:
268,312,36327,6,0,B|332:264|304:188,1,140,4|8,0:0|0:0,0:0:0:0:
324,108,36879,1,0,0:0:0:0:
256,60,37063,2,0,B|216:120|148:148,1,140,4|8,0:0|0:0,0:0:0:0:
80,192,37615,1,0,0:0:0:0:
192,316,37984,5,2,0:0:0:0:
256,260,38168,1,8,0:0:0:0:
340,276,38352,1,0,0:0:0:0:
404,220,38536,2,0,B|324:204|300:136,1,140,4|8,0:0|0:0,0:0:0:0:
308,52,39088,1,0,0:0:0:0:
128,128,39456,6,0,B|124:208|192:244,1,140,2|0,0:0|0:0,0:0:0:0:
256,316,40008,2,0,B|312:356,2,70,4|0|8,0:0|0:0|0:0,0:0:0:0:
160,336,40560,1,0,0:0:0:0:
192,244,40744,1,0,0:0:0:0:
288,244,40928,2,0,B|368:268|412:192,1,140,2|0,0:0|0:0,0:0:0:0:
448,108,41480,1,0,0:0:0:0:
364,56,41665,2,0,B|304:88,1,70,0|8,0:0|0:0,0:0:0:0:
108,104,42217,5,0,0:0:0:0:
68,180,42401,2,0,B|80:260|152:280,1,140,2|0,0:0|0:0,0:0:0:0:
152,280,42953,1,4,0:0:0:0:
236,332,43137,1,0,0:0:0:0:
332,348,43321,1,8,0:0:0:0:
420,304,43505,2,0,B|472:256|472:176,1,140
444,84,44057,1,8,0:0:0:0:
384,144,44241,1,0,0:0:0:0:
340,72,44425,6,0,B|276:48,1,70,4|0,0:0|0:0,0:0:0:0:
192,96,44793,2,0,B|257:120,1,70,8|0,0:0|0:0,0:0:0:0:
292,212,45161,2,0,B|228:188,1,70
144,236,45530,2,0,B|209:260,1,70,8|0,0:0|0:0,0:0:0:0:
256,192,45898,12,0,47370,0:0:0:0:
388,188,48106,5,2,0:0:0:0:
336,260,48290,1,0,0:0:0:0:
256,300,48474,1,4,0:0:0:0:
176,260,48658,1,0,0:0:0:0:
112,192,48842,6,0,B|78:173|46:197,1,70,6|0,0:0|0:0,0:0:0:0:
92,276,49211,1,8,0:0:0:0:
188,160,49395,2,0,B|183:122|145:110,2,70,0|2|0,0:0|0:0|0:0,0:0:0:0:
248,220,49947,1,8,0:0:0:0:
232,336,50131,5,0,0:0:0:0:
232,336,50223,1,0,0:0:0:0:
232,336,50315,2,0,B|164:312,1,70,2|0,0:0|0:0,0:0:0:0:
84,356,50683,2,0,B|52:280|116:232,1,140,8|2,0:0|0:0,0:0:0:0:
256,128,51419,1,8,0:0:0:0:
328,172,51603,1,0,0:0:0:0:
392,120,51787,6,0,B|456:160|440:244,1,140,2|8,0:0|0:0,0:0:0:0:
300,356,52523,2,0,B|221:348|176:285,1,140,2|8,0:0|0:0,0:0:0:0:
111,138,53260,2,0,B|189:145|234:208,1,140,2|8,0:0|0:0,0:0:0:0:
276,272,53812,1,0,0:0:0:0:
344,224,53996,1,2,0:0:0:0:
432,80,54364,1,8,0:0:0:0:
272,28,54732,6,0,B|192:16|152:88,1,140,2|8,0:0|0:0,0:0:0:0:
154,84,55284,1,0,0:0:0:0:
104,308,55652,1,0,0:0:0:0:
184,280,55836,1,8,0:0:0:0:
220,356,56020,1,0,0:0:0:0:
292,312,56204,2,0,B|372:292|372:212,1,140,2|8,0:0|0:0,0:0:0:0:
360,128,56757,1,0,0:0:0:0:
316,56,56941,1,2,0:0:0:0:
148,36,57309,5,8,0:0:0:0:
32,160,57677,2,0,B|44:240|116:264,1,140,4|8,0:0|0:0,0:0:0:0:
260,348,58413,1,2,0:0:0:0:
308,280,58597,1,0,0:0:0:0:
356,348,58781,1,8,0:0:0:0:
468,224,59149,2,0,B|460:140|384:120,1,140,4|8,0:0|0:0,0:0:0:0:
308,148,59701,1,0,0:0:0:0:
256,84,59885,1,2,0:0:0:0:
184,128,60069,5,0,0:0:0:0:
184,128,60161,1,0,0:0:0:0:
184,128,60253,2,0,B|120:152,1,70,4|0,0:0|0:0,0:0:0:0:
44,192,60622,2,0,B|32:280|100:312,1,140,4|8,0:0|0:0,0:0:0:0:
180,288,61174,1,0,0:0:0:0:
244,348,61358,1,2,0:0:0:0:
324,312,61542,1,0,0:0:0:0:
348,224,61726,1,8,0:0:0:0:
428,192,61910,5,0,0:0:0:0:
428,192,62002,1,0,0:0:0:0:
428,192,62094,2,0,B|472:136,2,70,2|0|8,0:0|0:0|0:0,0:0:0:0:
348,224,62646,1,0,0:0:0:0:
316,148,62830,2,0,B|256:96|188:144,1,140,2|8,0:0|0:0,0:0:0:0:
120,192,63382,5,0,0:0:0:0:
108,276,63566,1,2,0:0:0:0:
252,192,63934,2,0,B|252:116|196:68,1,140,8|2,0:0|0:0,0:0:0:0:
32,36,64671,1,8,0:0:0:0:
36,204,65039,2,0,B|36:280|92:328,1,140,4|8,0:0|0:0,0:0:0:0:
172,352,65591,1,0,0:0:0:0:
240,304,65775,1,2,0:0:0:0:
400,352,66143,5,8,0:0:0:0:
436,276,66327,1,0,0:0:0:0:
384,208,66511,2,0,B|348:132|272:148,1,140,2|8,0:0|0:0,0:0:0:0:
200,192,67063,1,0,0:0:0:0:
128,148,67247,1,2,0:0:0:0:
36,288,67615,5,8,0:0:0:0:
92,348,67800,1,0,0:0:0:0:
152,288,67984,2,0,B|232:313|272:247,1,140,2|8,0:0|0:0,0:0:0:0:
344,192,68536,1,0,0:0:0:0:
288,128,68720,2,0,B|248:116|236:84,2,70,2|0|8,0:0|0:0|0:0,0:0:0:0:
368,276,69456,6,0,B|408:272|424:240,1,70,4|0,0:0|0:0,0:0:0:0:
480,176,69824,1,8,0:0:0:0:
388,36,70192,2,0,B|316:60|288:124,1,105,2|0,0:0|0:0,0:0:0:0:
288,128,70560,1,8,0:0:0:0:
252,204,70744,1,0,0:0:0:0:
308,272,70928,1,2,0:0:0:0:
396,128,71296,5,8,0:0:0:0:
256,40,71665,2,0,B|180:48|148:120,1,140,4|8,0:0|0:0,0:0:0:0:
56,256,72401,6,0,B|32:280,2,35,6|0|0,0:0|0:0|0:0,0:0:0:0:
140,244,72769,2,0,B|164:220,2,35,2|0|0,0:0|0:0|0:0,0:0:0:0:
156,328,73137,2,0,B|132:352,2,35,2|0|0,0:0|0:0|0:0,0:0:0:0:
240,316,73505,2,0,B|264:292,2,35,2|0|0,0:0|0:0|0:0,0:0:0:0:
320,348,73873,6,0,B|404:352|444:296,1,140,4|2,0:0|0:0,0:0:0:0:
468,132,74609,2,0,B|384:128|344:184,1,140,4|2,0:0|0:0,0:0:0:0:
240,316,75346,2,0,B|192:268|202:186,1,140,4|0,0:0|0:0,0:0:0:0:
324,72,76082,1,0,0:0:0:0:
256,24,76266,2,0,B|180:8|124:56,1,140,8|4,0:0|0:0,0:0:0:0:
256,192,76726,12,0,79211,0:0:0:0:
