osu file format v14

[General]
AudioFilename: audio.mp3
AudioLeadIn: 0
PreviewTime: 52414
Countdown: 1
SampleSet: None
StackLeniency: 0.7
Mode: 0
LetterboxInBreaks: 0
WidescreenStoryboard: 0

[Editor]
Bookmarks: 13414,15595,16141,25050,26504,27959,33504,36868,39323,45686,48323,50323,51232,51777,52323,80504
DistanceSpacing: 1.7
BeatDivisor: 4
GridSize: 4
TimelineZoom: 1

[Metadata]
Title:STAND PROUD
TitleUnicode:STAND PROUD
Artist:Hashimoto Jin
ArtistUnicode:橋本仁
Creator:nuvasek
Version:Insane
Source:JoJo's Bizarre Adventure: Stardust Crusaders
Tags:Opening , ジョジョの奇妙な冒険 , JoJo no Kimyou na Bouken , Jojolion , Kochira Katsushika-ku Kameari Kouen-mae Hashutsujoto , hirohiko haraki , shueisha
BeatmapID:1108716
BeatmapSetID:522017

[Difficulty]
HPDrainRate:8
CircleSize:4.2
OverallDifficulty:8
ApproachRate:9.4
SliderMultiplier:1.7
SliderTickRate:1

[Events]
//Background and Video events
Video,0,"vid.avi"
0,0,"IMG_0001.jpg",0,0
//Break Periods
//Storyboard Layer 0 (Background)
//Storyboard Layer 1 (Fail)
//Storyboard Layer 2 (Pass)
//Storyboard Layer 3 (Foreground)
//Storyboard Sound Samples

[TimingPoints]
1414,363.636363636364,4,3,0,60,1,0
1686,-200,4,3,0,60,0,0
7242,-100,4,3,0,60,0,0
13414,-80,4,3,0,60,0,0
25414,-55.5555555555556,4,3,0,60,0,0
25900,-80,4,3,0,60,0,0
26504,-55.5555555555556,4,3,0,60,0,0
27232,-50,4,3,0,60,0,0
27777,-80,4,3,0,60,0,0
52414,-80,4,3,0,75,0,1
54595,-66.6666666666667,4,3,0,75,0,1
71595,-66.6666666666667,4,3,0,60,0,0
74232,-200,4,3,0,60,0,0
75959,-133.333333333333,4,3,0,60,0,0
76504,-200,4,3,0,60,0,0
78868,-133.333333333333,4,3,0,60,0,0
79777,-100,4,3,0,60,0,0

[HitObjects]
112,72,1414,5,0,0:0:0:0:
153,66,1504,1,0,0:0:0:0:
195,74,1595,1,0,0:0:0:0:
232,95,1686,1,0,0:0:0:0:
268,116,1777,2,0,P|332:140|396:128,1,127.5
376,232,2868,2,0,P|424:208|444:184,2,85
372,68,3777,1,0,0:0:0:0:
148,284,3959,5,8,0:0:0:0:
60,44,4141,1,8,0:0:0:0:
336,152,4504,2,0,P|388:212|400:312,1,170
188,296,5414,1,0,0:0:0:0:
428,36,5777,2,0,P|460:68|476:112,2,85
428,248,6686,1,0,0:0:0:0:
156,312,6868,5,8,0:0:0:0:
228,68,7050,1,8,0:0:0:0:
436,336,7414,6,4,P|372:304|352:280,1,85,4|0,0:2|0:3,2:2:0:0:
328,128,7777,1,0,0:0:0:0:
224,260,7959,1,8,0:0:0:0:
196,227,8050,1,8,0:0:0:0:
169,194,8141,1,8,0:0:0:0:
288,72,8323,1,0,0:0:0:0:
400,200,8504,1,0,0:0:0:0:
268,308,8686,1,8,0:0:0:0:
227,319,8777,1,8,0:0:0:0:
184,317,8868,1,8,0:0:0:0:
88,76,9050,5,0,0:0:0:0:
260,76,9232,1,8,0:0:0:0:
302,80,9323,1,8,0:0:0:0:
343,91,9414,1,8,0:0:0:0:
200,184,9595,1,8,0:0:0:0:
174,217,9686,1,8,0:0:0:0:
164,258,9777,1,8,0:0:0:0:
332,232,9959,1,8,0:0:0:0:
366,258,10050,1,8,0:0:0:0:
396,288,10141,2,8,L|460:356,1,85
88,80,10504,5,0,0:0:0:0:
300,104,10686,1,8,0:0:0:0:
341,112,10777,1,8,0:0:0:0:
383,120,10868,1,8,0:0:0:0:
260,316,11050,1,0,0:0:0:0:
104,172,11232,1,8,0:0:0:0:
75,140,11323,1,8,0:0:0:0:
47,108,11414,1,8,0:0:0:0:
320,108,11595,5,8,0:0:0:0:
357,128,11685,1,8,0:0:0:0:
394,148,11776,1,8,0:0:0:0:
432,168,11867,1,8,0:0:0:0:
469,188,11958,1,8,0:0:0:0:
292,336,12141,1,8,0:0:0:0:
250,340,12231,1,8,0:0:0:0:
209,332,12322,1,8,0:0:0:0:
204,120,12504,1,8,0:0:0:0:
80,292,12686,1,8,0:0:0:0:
86,249,12776,1,8,0:0:0:0:
92,207,12867,1,8,0:0:0:0:
304,208,13050,1,8,0:0:0:0:
310,250,13140,1,8,0:0:0:0:
316,292,13231,1,8,0:0:0:0:
88,88,13414,5,0,0:0:0:0:
132,60,13504,1,0,0:0:0:0:
185,58,13595,1,0,0:0:0:0:
231,82,13686,1,0,0:0:0:0:
188,164,13777,5,0,0:0:0:0:
193,216,13867,1,0,0:0:0:0:
224,258,13958,1,0,0:0:0:0:
272,280,14049,1,0,0:0:0:0:
352,324,14141,5,0,0:0:0:0:
393,291,14231,1,0,0:0:0:0:
412,242,14322,1,0,0:0:0:0:
403,191,14413,1,0,0:0:0:0:
376,104,14504,5,0,0:0:0:0:
326,121,14594,1,0,0:0:0:0:
275,108,14685,1,0,0:0:0:0:
238,70,14776,1,0,0:0:0:0:
148,64,14868,5,0,0:0:0:0:
158,116,14958,1,0,0:0:0:0:
179,164,15049,1,0,0:0:0:0:
216,200,15110,1,0,0:0:0:0:
268,128,15200,5,0,0:0:0:0:
320,136,15291,1,0,0:0:0:0:
362,168,15382,1,0,0:0:0:0:
383,215,15474,1,0,0:0:0:0:
300,272,15595,5,0,0:0:0:0:
300,272,15686,1,0,0:0:0:0:
300,272,15777,2,0,L|244:344,4,53.125
96,44,16504,5,0,0:0:0:0:
304,92,16686,2,0,P|336:168|316:236,1,106.25
120,208,17050,2,0,P|104:296|144:336,2,106.25
308,312,17595,1,0,0:0:0:0:
436,140,17777,2,0,P|360:124|296:124,1,106.25
116,128,18141,5,0,0:0:0:0:
116,128,18232,1,0,0:0:0:0:
116,128,18323,2,0,P|188:156|236:192,1,106.25
412,100,18686,1,0,0:0:0:0:
352,304,18868,1,0,0:0:0:0:
299,310,18958,1,0,0:0:0:0:
246,312,19049,1,0,0:0:0:0:
204,104,19232,2,0,P|128:148|112:204,1,106.25
328,212,19595,1,0,0:0:0:0:
452,40,19777,2,0,P|436:136|448:184,1,106.25
328,212,20141,5,0,0:0:0:0:
276,225,20231,1,0,0:0:0:0:
223,222,20322,1,0,0:0:0:0:
173,205,20413,1,0,0:0:0:0:
130,174,20504,2,0,P|88:120|32:88,1,106.25
272,104,20868,1,0,0:0:0:0:
416,260,21050,2,0,P|340:320|304:328,1,106.25
124,280,21414,2,0,P|208:256|268:280,1,106.25
276,120,21777,5,0,0:0:0:0:
224,124,21868,1,0,0:0:0:0:
180,156,21959,2,0,P|272:192|296:192,1,106.25
452,320,22323,1,0,0:0:0:0:
240,312,22504,6,0,P|136:272|104:248,1,106.25
332,176,22868,2,0,P|260:136|196:132,1,106.25
60,148,23141,1,0,0:0:0:0:
44,196,23232,1,0,0:0:0:0:
43,248,23322,1,0,0:0:0:0:
66,295,23413,1,0,0:0:0:0:
280,300,23595,6,0,P|252:200|264:152,1,106.25
424,72,23959,1,0,0:0:0:0:
402,119,24049,1,0,0:0:0:0:
407,172,24140,1,0,0:0:0:0:
280,300,24323,2,0,P|256:240|252:192,1,106.25
88,64,24686,5,0,0:0:0:0:
88,64,24777,1,0,0:0:0:0:
88,64,24868,6,0,P|84:152|96:196,1,106.25
276,68,25232,1,0,0:0:0:0:
200,336,25414,1,0,0:0:0:0:
200,336,25504,1,0,0:0:0:0:
200,336,25595,6,0,P|260:348|400:320,1,152.999995330811
196,192,25959,1,0,0:0:0:0:
304,40,26141,5,0,0:0:0:0:
356,40,26231,1,0,0:0:0:0:
408,40,26322,1,0,0:0:0:0:
136,68,26504,6,0,P|92:168|120:264,1,152.999995330811
112,248,26777,1,0,0:0:0:0:
144,282,26868,1,0,0:0:0:0:
440,208,27050,1,0,0:0:0:0:
188,44,27232,6,0,B|253:81|312:80|312:80|256:136|328:176,2,170
208,204,27777,2,0,P|140:192|96:200,2,106.25
380,292,28323,2,0,P|288:328|240:320,1,106.25
188,136,28686,2,0,P|148:220|160:252,1,106.25
364,228,29050,2,0,P|376:164|348:116,1,106.25
152,72,29414,6,0,P|112:132|100:188,1,106.25
304,232,29777,5,0,0:0:0:0:
337,273,29867,1,0,0:0:0:0:
356,323,29958,1,0,0:0:0:0:
452,132,30141,2,0,P|368:112|324:116,1,106.25
148,148,30504,5,0,0:0:0:0:
160,200,30595,1,0,0:0:0:0:
172,248,30686,1,0,0:0:0:0:
380,212,30868,2,0,P|388:264|340:332,1,106.25
288,112,31232,5,0,0:0:0:0:
288,112,31323,1,0,0:0:0:0:
288,112,31414,2,0,P|248:172|240:216,1,106.25
428,308,31777,1,0,0:0:0:0:
108,164,31959,6,0,P|184:112|208:72,1,106.25
404,132,32323,1,0,0:0:0:0:
276,300,32504,1,0,0:0:0:0:
284,88,32686,2,0,P|320:60|404:48,1,106.25
124,264,33050,5,0,0:0:0:0:
368,156,33232,1,0,0:0:0:0:
108,88,33414,5,0,0:0:0:0:
160,83,33504,1,0,0:0:0:0:
212,93,33595,1,0,0:0:0:0:
259,118,33686,1,0,0:0:0:0:
298,154,33777,2,0,P|344:232|360:292,1,106.25
136,248,34141,1,0,0:0:0:0:
136,248,34232,1,0,0:0:0:0:
136,248,34323,2,0,P|200:276|264:292,1,106.25
368,120,34686,1,0,0:0:0:0:
160,68,34868,6,0,P|104:92|88:152,1,106.25
276,232,35232,2,0,P|272:320|256:352,1,106.25
368,120,35595,2,0,P|428:120|512:104,1,106.25
200,116,35959,2,0,P|80:120|48:128,1,106.25
168,320,36323,6,0,L|232:292,1,53.125
356,228,36504,1,0,0:0:0:0:
399,197,36594,1,0,0:0:0:0:
424,151,36685,1,0,0:0:0:0:
116,72,36868,1,0,0:0:0:0:
324,124,37050,1,0,0:0:0:0:
424,284,37232,5,0,0:0:0:0:
375,304,37322,1,0,0:0:0:0:
328,316,37414,2,0,P|256:324|208:324,1,106.25
404,212,37777,1,0,0:0:0:0:
56,56,37959,5,0,0:0:0:0:
104,40,38050,1,0,0:0:0:0:
152,40,38141,2,0,P|212:60|252:92,1,106.25
476,348,38504,5,0,0:0:0:0:
8,116,38868,5,0,0:0:0:0:
500,32,39232,5,0,0:0:0:0:
388,144,39414,1,0,0:0:0:0:
228,144,39595,2,0,P|188:220|196:276,1,106.25
332,308,39959,1,0,0:0:0:0:
464,220,40141,2,0,P|424:172|420:124,1,106.25
268,84,40504,1,0,0:0:0:0:
196,212,40686,2,0,P|240:200|324:216,1,106.25
448,200,41050,5,0,0:0:0:0:
300,140,41232,2,0,P|192:144|148:164,1,106.25
192,304,41595,1,0,0:0:0:0:
352,308,41777,2,0,P|416:252|432:216,1,106.25
424,72,42141,1,0,0:0:0:0:
292,140,42323,2,0,P|228:184|207:222,1,106.25
108,88,42686,1,0,0:0:0:0:
88,248,42868,6,0,L|196:212,1,106.25
344,176,43232,1,0,0:0:0:0:
224,72,43414,2,0,L|112:112,1,106.25
180,260,43777,1,0,0:0:0:0:
340,260,43959,2,0,L|428:180,1,106.25
296,84,44323,1,0,0:0:0:0:
180,192,44504,1,0,0:0:0:0:
248,344,44686,6,0,P|168:336|100:304,1,106.25
308,192,45050,2,0,L|460:192,1,106.25
248,40,45414,2,0,P|168:48|100:80,1,106.25
80,260,45777,5,0,0:0:0:0:
188,196,45959,1,0,0:0:0:0:
308,152,46141,1,0,0:0:0:0:
424,100,46323,1,0,0:0:0:0:
432,332,46504,6,0,P|372:320|308:288,2,106.25
432,204,47050,1,0,0:0:0:0:
432,52,47232,6,0,P|372:64|308:96,2,106.25
360,204,47777,2,0,P|268:204|240:204,1,106.25
96,60,48141,1,0,0:0:0:0:
112,312,48323,5,0,0:0:0:0:
368,96,48626,1,0,0:0:0:0:
380,248,48868,5,0,0:0:0:0:
380,248,48959,1,0,0:0:0:0:
84,52,49050,1,0,0:0:0:0:
200,132,49323,2,0,P|208:188|152:284,1,159.375
388,300,49686,1,0,0:0:0:0:
388,300,49777,2,0,P|468:284|492:212,2,141.666666666667
116,148,50504,6,0,L|162:137,1,35.4166666666667
170,135,50626,2,0,L|228:121,1,35.4166666666667
225,122,50747,2,0,L|263:113,1,35.4166666666667
279,110,50868,2,0,L|337:96,1,35.4166666666667
334,97,50989,2,0,L|376:87,1,35.4166666666667
387,81,51141,2,0,P|408:67|433:49,5,35.4166666666667
256,192,51504,12,0,52323,0:0:0:0:
90,183,52504,5,0,0:0:0:0:
359,47,52686,1,0,0:0:0:0:
343,347,52868,1,0,0:0:0:0:
343,347,53050,1,0,0:0:0:0:
454,214,53232,5,0,0:0:0:0:
176,6,53414,1,0,0:0:0:0:
134,351,53596,1,0,0:0:0:0:
134,351,53777,1,0,0:0:0:0:
96,120,53959,5,0,0:3:0:0:
426,16,54141,1,0,0:3:0:0:
348,355,54323,1,0,0:3:0:0:
348,355,54504,1,0,0:3:0:0:
176,152,54686,5,0,0:0:0:0:
428,296,54868,2,0,P|440:228|420:156,1,127.500004863739
180,288,55232,1,0,0:0:0:0:
412,68,55414,1,0,0:0:0:0:
412,68,55504,1,0,0:0:0:0:
412,68,55595,6,0,P|324:144|300:176,2,127.500004863739
92,60,56141,1,0,0:0:0:0:
172,304,56323,1,0,0:0:0:0:
172,304,56504,2,0,P|280:280|296:264,1,127.500004863739
388,36,56868,2,0,P|384:132|400:176,1,127.500004863739
140,116,57232,5,0,0:0:0:0:
364,236,57414,1,0,0:0:0:0:
88,84,57595,1,0,0:0:0:0:
88,84,57777,1,0,0:0:0:0:
448,288,57959,1,0,0:0:0:0:
416,36,58141,1,0,0:0:0:0:
248,132,58323,5,0,0:0:0:0:
213,169,58413,1,0,0:0:0:0:
177,205,58504,1,0,0:0:0:0:
396,336,58686,1,0,0:0:0:0:
396,80,58868,1,0,0:0:0:0:
292,328,59050,5,0,0:0:0:0:
248,301,59140,1,0,0:0:0:0:
210,267,59231,1,0,0:0:0:0:
364,60,59414,1,0,0:0:0:0:
112,56,59595,1,0,0:0:0:0:
312,216,59777,5,0,0:0:0:0:
352,247,59867,1,0,0:0:0:0:
392,278,59958,1,0,0:0:0:0:
140,328,60141,1,0,0:0:0:0:
48,88,60323,5,0,0:0:0:0:
200,292,60505,1,0,0:0:0:0:
180,36,60686,2,0,B|240:68|279:99|299:131,1,127.500004863739
380,348,61050,2,0,P|416:284|436:212,1,127.500004863739
196,336,61414,2,0,P|112:304|72:272,1,127.500004863739
336,308,61777,5,0,0:0:0:0:
178,91,61959,1,0,0:0:0:0:
433,174,62141,1,0,0:0:0:0:
178,256,62323,1,0,0:0:0:0:
336,40,62504,1,0,0:0:0:0:
336,40,62686,1,0,0:0:0:0:
76,320,62868,5,0,0:0:0:0:
384,92,63050,1,0,0:0:0:0:
248,344,63414,5,0,0:0:0:0:
480,40,63596,1,0,0:0:0:0:
420,348,63959,5,0,0:0:0:0:
208,28,64141,1,0,0:0:0:0:
100,328,64323,5,0,0:0:0:0:
292,160,64504,2,0,P|348:120|432:84,1,127.500004863739
412,328,64869,5,0,0:0:0:0:
220,160,65050,2,0,P|164:120|80:84,1,127.500004863739
256,328,65414,1,0,0:0:0:0:
256,48,65595,5,0,0:0:0:0:
256,308,65777,2,0,L|256:168,1,127.500004863739
472,44,66141,1,0,0:0:0:0:
388,284,66323,1,0,0:0:0:0:
276,56,66504,6,0,P|192:96|144:132,1,127.500004863739
304,332,66868,2,0,P|248:248|208:216,1,127.500004863739
64,36,67232,5,0,0:0:0:0:
136,264,67414,1,0,0:0:0:0:
316,84,67595,2,0,P|372:136|424:224,1,127.500004863739
152,112,67959,1,0,0:0:0:0:
356,264,68141,6,0,P|452:296|504:296,2,127.500004863739
104,300,68686,1,0,0:0:0:0:
280,116,68868,1,0,0:0:0:0:
380,352,69050,2,0,P|412:288|424:208,1,127.500004863739
176,300,69414,1,0,0:0:0:0:
88,60,69595,1,0,0:0:0:0:
308,192,69777,6,0,P|400:176|444:148,2,127.500004863739
88,60,70323,1,0,0:0:0:0:
204,284,70504,2,0,P|276:312|348:320,1,127.500004863739
108,184,70868,1,0,0:0:0:0:
344,84,71050,1,0,0:0:0:0:
260,324,71232,2,0,P|272:244|248:188,2,127.500004863739
52,340,71959,5,0,0:0:0:0:
468,44,72323,1,0,0:0:0:0:
20,288,72686,1,0,0:0:0:0:
336,344,73050,5,0,0:0:0:0:
128,24,73232,1,0,0:0:0:0:
412,324,73595,5,0,0:0:0:0:
98,76,73777,1,0,0:0:0:0:
480,104,74141,5,0,0:0:0:0:
38,244,74323,2,0,P|76:304|172:324,1,170
364,80,75595,1,0,0:0:0:0:
336,332,75959,2,0,P|312:260|236:156,1,191.250007295609
76,312,76686,5,0,0:0:0:0:
212,72,76868,1,0,0:0:0:0:
388,256,77232,2,0,P|348:272|224:256,1,170
72,52,78504,1,0,0:0:0:0:
320,116,78868,2,0,P|376:160|424:268,1,191.250007295609
40,292,79595,1,0,0:0:0:0:
180,52,79777,1,0,0:0:0:0:
432,268,80141,6,0,P|340:268|312:256,1,85
416,116,80504,1,0,0:0:0:0:
124,96,80686,1,0,0:0:0:0:
371,75,80868,5,0,0:0:0:0:
142,285,81050,1,0,0:0:0:0:
295,39,81232,5,0,0:0:0:0:
343,347,81414,1,0,0:0:0:0:
213,36,81595,5,0,0:0:0:0:
190,339,81777,1,0,0:0:0:0:
385,106,81959,1,0,0:0:0:0:
88,178,82141,1,0,0:0:0:0:
373,292,82323,1,0,0:0:0:0:
213,36,82504,2,0,P|226:102|245:146,1,85
412,137,82868,1,0,0:0:0:0:
261,214,83050,1,0,0:0:0:0:
88,312,83232,5,0,0:0:0:0:
172,160,83414,1,0,0:0:0:0:
195,124,83504,1,0,0:0:0:0:
219,89,83595,1,0,0:0:0:0:
424,72,83777,5,0,0:0:0:0:
332,216,83959,1,0,0:0:0:0:
308,251,84049,1,0,0:0:0:0:
284,286,84140,1,0,0:0:0:0:
130,190,84323,5,0,0:0:0:0:
151,153,84413,1,0,0:0:0:0:
180,121,84504,1,0,0:0:0:0:
214,97,84595,1,0,0:0:0:0:
254,82,84686,1,0,0:0:0:0:
392,160,84868,1,0,0:0:0:0:
392,202,84958,1,0,0:0:0:0:
392,245,85049,1,0,0:0:0:0:
256,348,85232,1,0,0:0:0:0:
140,224,85414,1,0,0:0:0:0:
140,181,85504,1,0,0:0:0:0:
140,139,85595,1,0,0:0:0:0:
388,80,85777,1,0,0:0:0:0:
388,80,85868,1,0,0:0:0:0:
256,192,85959,12,0,88686,0:0:0:0:
