osu file format v14

[General]
AudioFilename: Jin Hashimoto - STAND PROUD.mp3
AudioLeadIn: 0
PreviewTime: 52478
Countdown: 0
SampleSet: Soft
StackLeniency: 0.4
Mode: 0
LetterboxInBreaks: 0
WidescreenStoryboard: 0

[Editor]
Bookmarks: 8841
DistanceSpacing: 1
BeatDivisor: 4
GridSize: 4
TimelineZoom: 1

[Metadata]
Title:STAND PROUD (TV Size)
TitleUnicode:STAND PROUD (TV Size)
Artist:Hashimoto Jin
ArtistUnicode:橋本仁
Creator:Atsuro
Version:Normal
Source:JoJo's Bizarre Adventure: Stardust Crusaders
Tags:atsuro0 Opening ジョジョの奇妙な冒険 JoJo no Kimyou na Bouken Jojolion Kochira Katsushika-ku Kameari Kouen-mae Hashutsujoto hirohiko haraki shueisha anime op japanese rock jrock j-rock スターダストクルセイダース Shoko Fujibayashi 藤林聖子 Takatsugu Wakabayashi 若林タカツグ ZENTA
BeatmapID:423898
BeatmapSetID:166137

[Difficulty]
HPDrainRate:4
CircleSize:3.5
OverallDifficulty:5
ApproachRate:5.5
SliderMultiplier:1.3
SliderTickRate:1

[Events]
//Background and Video events
Video,0,"vid.avi"
0,0,"Background.jpg",0,0
//Break Periods
//Storyboard Layer 0 (Background)
//Storyboard Layer 1 (Fail)
//Storyboard Layer 2 (Pass)
//Storyboard Layer 3 (Foreground)
//Storyboard Layer 4 (Overlay)
//Storyboard Sound Samples

[TimingPoints]
1432,363.636363636364,4,2,1,100,1,0
1796,363.636363636364,4,2,1,60,1,0
1796,-111.111111111111,4,2,1,60,0,0
7432,-100,4,2,1,60,0,0
39614,-111.111111111111,4,2,1,60,0,0
44705,-100,4,2,1,60,0,0
52705,-90.9090909090909,4,2,1,60,0,1
74341,-100,4,2,1,60,0,0
80159,-90.9090909090909,4,2,1,60,0,0

[Colours]
Combo1 : 0,0,255
Combo2 : 128,0,128
Combo3 : 0,128,0
Combo4 : 221,13,44
Combo5 : 236,177,0

[HitObjects]
168,296,1795,6,0,P|256:336|340:296,1,194.999994049072,4|0,0:0|0:0,0:0:0:0:
256,164,2886,1,0,0:0:0:0:
180,72,3250,2,0,P|256:36|336:76,1,175.499994644165
280,144,3977,2,8,L|316:208,1,58.4999982147217
140,152,4523,6,0,B|84:268|212:352,1,233.999992858887,4|0,0:0|0:0,0:0:0:0:
256,176,5796,1,0,0:0:0:0:
372,152,6159,2,0,B|428:268|300:352,1,233.999992858887,0|8,0:0|0:0,0:0:0:0:
257,312,7068,1,8,0:0:0:0:
256,156,7432,6,0,P|216:92|160:68,1,130,4|8,0:0|0:0,0:0:0:0:
64,148,8159,1,8,0:0:0:0:
156,240,8523,1,8,0:0:0:0:
256,156,8886,6,8,L|256:76,1,65,8|4,0:0|0:0,0:0:0:0:
380,52,9432,1,8,0:0:0:0:
380,184,9796,2,8,P|304:240|284:304,1,130
384,353,10523,6,8,L|208:353,1,130
188,353,11068,2,8,L|188:273,1,65
100,192,11614,2,8,L|256:192,1,130
296,192,12159,2,8,L|296:104,1,65
192,48,12705,2,8,L|344:48,1,130
256,192,13432,12,0,15614,0:0:0:0:
168,48,15977,6,0,L|248:88,1,65,0|4,0:0|0:0,0:0:0:0:
412,192,16705,6,0,P|372:256|368:320,1,130,8|0,0:0|0:0,0:0:0:0:
256,228,17432,1,8,0:0:0:0:
152,308,17796,2,0,P|143:244|107:191,1,130,0|8,0:0|0:0,0:0:0:0:
136,36,18523,2,0,P|147:99|190:147,1,130,0|8,0:0|0:0,0:0:0:0:
329,76,19250,6,0,P|377:137|381:201,1,130,0|8,0:0|0:0,0:0:0:0:
256,180,19977,1,0,0:0:0:0:
318,294,20341,2,0,P|246:313|191:295,1,130,8|0,0:0|0:0,0:0:0:0:
256,180,21068,2,0,L|255:96,1,65,8|0,0:0|0:0,0:0:0:0:
196,232,21614,2,0,L|196:300,2,65,8|4|0,0:0|0:0|0:0,0:0:0:0:
192,60,22523,5,8,0:0:0:0:
320,60,22886,1,0,0:0:0:0:
256,172,23250,1,8,0:0:0:0:
196,288,23614,2,0,P|256:308|332:276,1,130,0|8,0:0|0:0,0:0:0:0:
324,160,24341,1,0,0:0:0:0:
188,160,24705,1,8,0:0:0:0:
148,36,25068,6,0,P|92:100|76:232,1,195,0|8,0:0|0:0,0:0:0:0:
100,264,25796,1,0,0:0:0:0:
208,196,26159,1,8,0:0:0:0:
316,272,26523,2,0,P|372:208|388:76,1,195,0|8,0:0|0:0,0:0:0:0:
364,44,27251,1,0,0:0:0:0:
256,116,27614,2,0,L|256:188,1,65,8|4,0:0|0:0,0:0:0:0:
120,320,28341,6,0,P|176:248|200:196,1,130,8|0,0:0|0:0,0:0:0:0:
324,212,29068,2,0,P|355:268|397:318,1,130,8|0,0:0|0:0,0:0:0:0:
432,192,29796,1,8,0:0:0:0:
376,76,30159,1,0,0:0:0:0:
256,128,30523,1,8,0:0:0:0:
136,76,30886,5,0,0:0:0:0:
80,192,31250,2,0,P|124:248|128:304,1,130,8|0,0:0|0:0,0:0:0:0:
184,188,31977,1,8,0:0:0:0:
240,304,32341,2,0,P|246:240|287:191,1,130,0|8,0:0|0:0,0:0:0:0:
400,128,33068,1,0,0:0:0:0:
284,72,33432,6,0,L|188:96,2,65,8|0|4,0:0|0:0|0:0,0:0:0:0:
416,76,34159,1,8,0:0:0:0:
440,120,34341,2,0,P|452:199|402:258,1,130,0|0,0:0|0:0,0:0:0:0:
352,252,34886,2,0,P|370:292|408:312,2,65,8|0|0,0:0|0:0|0:0,0:0:0:0:
289,137,35614,1,8,0:0:0:0:
174,76,35977,1,0,0:0:0:0:
40,92,36341,2,0,P|32:186|61:235,1,130,8|2,0:0|0:0,0:0:0:0:
91,262,36886,6,2,L|163:306,3,65,2|8|2|2,0:0|0:0|0:0|0:0,0:0:0:0:
164,168,37796,1,10,0:0:0:0:
256,64,38159,1,2,0:0:0:0:
348,168,38523,1,10,0:0:0:0:
256,240,38886,6,0,L|256:324,2,65,2|0|10,0:0|0:0|0:0,0:0:0:0:
164,168,39614,2,0,P|256:106|350:173,1,233.999992858887,4|8,0:0|0:0,0:0:0:0:
256,216,40705,2,0,L|256:296,1,58.4999982147217,0|2,0:0|0:0,0:0:0:0:
360,220,41250,1,2,0:0:0:0:
308,116,41614,2,0,L|308:36,1,58.4999982147217,2|8,0:0|0:0,0:0:0:0:
208,116,42159,5,0,0:0:0:0:
94,88,42523,2,0,P|107:180|240:229,1,233.999992858887,2|8,0:0|0:0,0:0:0:0:
343,231,43614,2,0,L|455:231,1,58.4999982147217,0|2,0:0|0:0,0:0:0:0:
322,144,44159,1,2,0:0:0:0:
204,144,44523,2,0,L|128:144,1,58.4999982147217,2|8,0:0|0:0,0:0:0:0:
204,260,45068,5,0,0:0:0:0:
336,256,45432,2,0,P|368:184|348:100,1,130,2|8,0:0|0:0,0:0:0:0:
256,60,46159,2,0,L|256:140,2,65,0|0|8,0:0|0:0|0:0,0:0:0:0:
159,146,46886,6,0,P|157:211|186:268,1,130,2|8,0:0|0:0,0:0:0:0:
325,268,47614,2,0,P|352:221|358:200,1,65
355,146,47977,1,8,0:0:0:0:
429,39,48341,1,2,0:0:0:0:
256,232,49068,1,2,0:0:0:0:
82,39,49796,1,2,0:0:0:0:
256,192,50159,12,8,52159,0:0:0:0:
188,320,52705,6,0,L|264:296,1,71.5000021820069
296,240,53068,1,8,0:0:0:0:
364,112,53432,6,0,L|300:63,1,71.5000021820069
236,69,53795,1,8,0:0:0:0:
96,84,54159,6,0,L|72:160,1,71.5000021820069
99,218,54522,1,8,0:0:0:0:
152,352,54886,6,0,P|204:312|236:240,1,143.000004364014,0|8,0:0|0:0,0:0:0:0:
256,100,55614,2,0,L|256:28,2,71.5000021820069,0|0|8,0:0|0:0|0:0,0:0:0:0:
296,160,56159,2,0,P|352:188|440:156,1,143.000004364014
484,124,56705,6,0,P|500:168|488:204,1,71.5000021820069,8|0,0:0|0:0,0:0:0:0:
424,316,57250,2,0,L|348:328,1,71.5000021820069,0|8,0:0|0:0,0:0:0:0:
288,356,57614,2,0,P|240:336|204:236,1,143.000004364014
256,208,58159,5,8,0:0:0:0:
316,164,58341,2,0,L|384:116,2,71.5000021820069,0|0|0,0:0|0:0|0:0,0:0:0:0:
144,140,59068,2,0,L|65:111,2,71.5000021820069,0|0|0,0:0|0:0|0:0,0:0:0:0:
220,292,59796,2,0,L|220:375,2,71.5000021820069,0|0|0,0:0|0:0|0:0,0:0:0:0:
220,220,60341,1,8,0:0:0:0:
156,88,60705,6,0,P|221:71|301:97,1,143.000004364014,0|8,0:0|0:0,0:0:0:0:
342,142,61250,1,0,0:0:0:0:
375,205,61432,2,0,B|326:218|377:280|308:335,1,143.000004364014,0|8,0:0|0:0,0:0:0:0:
208,238,62159,1,0,0:0:0:0:
139,220,62341,2,0,L|54:197,2,71.5000021820069,0|8|0,0:0|0:0|0:0,0:0:0:0:
195,175,62886,6,0,L|222:101,1,71.5000021820069,8|2,0:0|0:0,0:0:0:0:
327,202,63432,2,0,L|352:269,1,71.5000021820069,8|2,0:0|0:0,0:0:0:0:
214,306,63977,2,0,L|121:293,1,71.5000021820069,8|2,0:0|0:0,0:0:0:0:
75,271,64341,6,0,P|37:189|50:120,1,143.000004364014,4|8,0:0|0:0,0:0:0:0:
145,40,65068,2,0,P|184:123|171:192,1,143.000004364014,0|8,0:0|0:0,0:0:0:0:
256,300,65796,2,0,P|307:245|319:164,1,143.000004364014,0|8,0:0|0:0,0:0:0:0:
451,120,66523,6,0,P|461:164|451:208,1,71.5000021820069
423,255,66886,1,8,0:0:0:0:
284,290,67250,2,0,P|214:275|189:212,1,143.000004364014,0|8,0:0|0:0,0:0:0:0:
266,216,67796,1,0,0:0:0:0:
175,105,68159,2,0,P|119:129|95:161,1,71.5000021820069,0|8,0:0|0:0,0:0:0:0:
80,200,68523,2,0,P|103:310|145:350,1,143.000004364014
190,351,69068,1,8,0:0:0:0:
332,308,69432,1,0,0:0:0:0:
256,188,69796,6,0,L|256:300,2,71.5000021820069,8|0|4,0:0|0:0|0:0,0:0:0:0:
188,60,70523,2,0,P|255:34|327:66,1,143.000004364014,8|0,0:0|0:0,0:0:0:0:
256,188,71250,1,8,0:0:0:0:
320,316,71614,6,0,P|253:336|186:312,1,143.000004364014,8|0,0:0|0:0,0:0:0:0:
184,168,72341,1,0,0:0:0:0:
328,168,72705,1,0,0:0:0:0:
396,292,73068,6,8,L|396:363,1,71.5000021820069
300,256,73614,2,8,L|300:372,1,71.5000021820069
204,220,74159,2,8,L|204:324,1,71.5000021820069,8|4,0:0|0:0,0:0:0:0:
348,72,75068,6,0,P|428:152|424:240,1,195
304,196,75977,1,0,0:0:0:0:
132,296,76705,2,8,L|132:220,1,65
23,159,77250,6,0,P|136:97|248:173,1,260,4|0,0:0|0:0,0:0:0:0:
131,318,78523,1,0,0:0:0:0:
256,272,78886,2,0,P|356:200|444:208,1,195
424,268,79614,2,8,L|424:360,1,65
282,353,80159,6,0,P|203:340|173:259,1,143.000004364014,6|8,0:0|0:0,0:0:0:0:
99,167,80886,1,8,0:0:0:0:
179,48,81250,1,8,0:0:0:0:
257,167,81614,6,0,L|297:251,1,71.5000021820069,8|6,0:0|0:0,0:0:0:0:
387,333,82159,1,8,0:0:0:0:
448,204,82523,2,0,P|460:104|496:68,1,143.000004364014,8|8,0:0|0:0,0:0:0:0:
348,44,83250,5,8,0:0:0:0:
256,152,83614,2,8,L|256:76,2,71.5000021820069
120,192,84341,1,8,0:0:0:0:
256,232,84705,2,8,L|256:308,2,71.5000021820069
256,80,85432,6,8,L|256:160,1,71.5000021820069
256,232,85796,2,0,L|256:328,1,71.5000021820069,8|4,0:0|0:0,0:0:0:0:
256,192,86068,12,0,88523,0:0:0:0:
