osu file format v14

[General]
AudioFilename: Jin Hashimoto - STAND PROUD.mp3
AudioLeadIn: 0
PreviewTime: 52478
Countdown: 0
SampleSet: Soft
StackLeniency: 0.4
Mode: 0
LetterboxInBreaks: 0
WidescreenStoryboard: 0

[Editor]
Bookmarks: 12175
DistanceSpacing: 1.4
BeatDivisor: 4
GridSize: 4
TimelineZoom: 1.4

[Metadata]
Title:STAND PROUD (TV Size)
TitleUnicode:STAND PROUD (TV Size)
Artist:Hashimoto Jin
ArtistUnicode:橋本仁
Creator:Atsuro
Version:Insane
Source:JoJo's Bizarre Adventure: Stardust Crusaders
Tags:atsuro0 Opening ジョジョの奇妙な冒険 JoJo no Kimyou na Bouken Jojolion Kochira Katsushika-ku Kameari Kouen-mae Hashutsujoto hirohiko haraki shueisha anime op japanese rock jrock j-rock スターダストクルセイダース Shoko Fujibayashi 藤林聖子 Takatsugu Wakabayashi 若林タカツグ ZENTA
BeatmapID:403910
BeatmapSetID:166137

[Difficulty]
HPDrainRate:7
CircleSize:4
OverallDifficulty:8
ApproachRate:9
SliderMultiplier:1.8
SliderTickRate:1

[Events]
//Background and Video events
Video,0,"vid.avi"
0,0,"Background.jpg",0,0
//Break Periods
//Storyboard Layer 0 (Background)
//Storyboard Layer 1 (Fail)
//Storyboard Layer 2 (Pass)
//Storyboard Layer 3 (Foreground)
//Storyboard Layer 4 (Overlay)
//Storyboard Sound Samples

[TimingPoints]
1432,363.636363636364,4,2,1,60,1,0
1795,363.636363636364,4,2,1,100,1,0
1795,-133.333333333333,4,2,1,60,0,0
7431,-100,4,2,1,60,0,0
39613,-133.333333333333,4,2,1,60,0,0
44704,-100,4,2,1,60,0,0
52704,-76.9230769230769,4,2,1,60,0,1
74340,-100,4,2,1,60,0,0
80158,-83.3333333333333,4,2,1,60,0,0

[Colours]
Combo1 : 0,0,255
Combo2 : 128,0,128
Combo3 : 0,128,0
Combo4 : 221,13,44
Combo5 : 236,177,0

[HitObjects]
120,276,1432,5,8,0:0:0:0:
160,292,1522,1,8,0:0:0:0:
200,296,1613,1,8,0:0:0:0:
240,280,1704,1,8,0:0:0:0:
268,252,1795,2,4,P|273:188|335:126,1,135.000005149842,4|0,0:0|0:0,0:0:0:0:
376,228,2340,1,0,0:0:0:0:
136,228,2885,5,0,0:0:0:0:
179,88,3249,2,0,P|255:32|331:88,1,202.500007724762
256,112,3976,1,8,0:0:0:0:
256,208,4158,2,0,L|256:292,1,67.5000025749208
336,220,4522,6,0,P|436:213|505:127,1,202.500007724762,4|0,0:0|0:0,0:0:0:0:
380,96,5310,1,0,0:0:0:0:
128,100,5795,1,0,0:0:0:0:
44,268,6158,2,0,P|125:323|200:258,1,202.500007724762
120,240,6885,5,8,0:0:0:0:
80,172,7067,1,2,0:0:0:0:
160,172,7249,1,2,0:0:0:0:
200,236,7431,1,0,0:0:0:0:
244,164,7613,6,0,L|296:80,1,90,0|8,0:0|0:0,0:0:0:0:
318,238,7976,2,0,L|266:322,1,90,0|8,0:0|0:0,0:0:0:0:
152,314,8340,1,0,0:0:0:0:
160,197,8522,1,8,0:0:0:0:
271,160,8704,2,0,P|322:145|364:167,1,90,0|8,0:0|0:0,0:0:0:0:
479,241,9067,6,0,P|427:255|386:233,1,90,8|0,0:0|0:0,0:0:0:0:
268,250,9431,1,8,0:0:0:0:
152,216,9613,1,0,0:0:0:0:
128,173,9704,1,0,0:0:0:0:
125,130,9795,1,8,0:0:0:0:
226,56,9976,1,0,0:0:0:0:
328,132,10158,1,8,0:0:0:0:
325,175,10249,1,0,0:0:0:0:
309,219,10340,2,0,P|264:271|219:285,1,90,0|8,0:0|0:0,0:0:0:0:
107,246,10704,5,8,0:0:0:0:
88,208,10795,1,8,0:0:0:0:
88,164,10886,1,8,0:0:0:0:
216,76,11067,1,8,0:0:0:0:
340,164,11249,1,8,0:0:0:0:
340,208,11340,1,8,0:0:0:0:
316,246,11431,1,8,0:0:0:0:
216,300,11613,1,8,0:0:0:0:
216,255,11703,1,8,0:0:0:0:
216,210,11794,1,8,0:0:0:0:
216,76,11976,5,8,0:0:0:0:
384,68,12158,2,8,L|304:68,2,45
432,180,12522,1,8,0:0:0:0:
384,316,12704,1,8,0:0:0:0:
240,364,12885,1,8,0:0:0:0:
96,316,13067,1,8,0:0:0:0:
72,277,13157,1,8,0:0:0:0:
63,233,13248,1,8,0:0:0:0:
123,104,13431,5,0,3:0:0:0:
155,89,13522,1,0,0:0:0:0:
189,79,13613,1,0,0:0:0:0:
224,75,13704,1,0,0:0:0:0:
259,79,13795,1,0,3:0:0:0:
292,90,13885,1,0,0:0:0:0:
324,105,13976,1,0,0:0:0:0:
354,124,14067,1,0,0:0:0:0:
379,149,14158,1,0,3:0:0:0:
398,179,14249,1,0,0:0:0:0:
408,213,14340,1,0,0:0:0:0:
411,248,14431,1,0,0:0:0:0:
408,283,14522,5,8,0:0:0:0:
391,314,14613,1,8,0:0:0:0:
360,333,14704,1,8,0:0:0:0:
324,339,14795,1,8,0:0:0:0:
288,336,14885,1,8,0:0:0:0:
252,328,14976,1,0,0:0:0:0:
220,312,15067,1,0,0:0:0:0:
188,292,15158,1,0,0:0:0:0:
164,264,15249,2,0,L|163:214,5,30,0|0|0|0|0|0,3:0|0:0|0:0|0:0|0:0|0:0,0:0:0:0:
166,197,15613,2,0,B|205:146|195:89|152:56|117:43|117:46|117:44|241:44,1,270,0|4,3:0|0:0,0:0:0:0:
448,76,16522,5,8,0:0:0:0:
420,200,16704,2,0,P|388:252|336:264,1,90,0|8,0:0|0:0,0:0:0:0:
240,284,17067,2,0,L|138:304,1,90,0|8,0:0|0:0,0:0:0:0:
220,196,17431,2,0,L|322:176,1,90,0|8,0:0|0:0,0:0:0:0:
240,72,17795,5,0,0:0:0:0:
116,100,17976,1,8,0:0:0:0:
44,200,18158,2,0,P|54:254|79:286,1,90,0|8,0:0|0:0,0:0:0:0:
192,328,18522,1,0,0:0:0:0:
316,320,18704,1,8,0:0:0:0:
361,303,18795,1,0,0:0:0:0:
380,256,18885,1,0,0:0:0:0:
396,132,19067,1,8,0:0:0:0:
300,48,19249,6,0,B|282:110|281:112|247:147,1,90,0|8,0:0|0:0,0:0:0:0:
152,44,19613,2,0,B|170:106|171:108|205:143,1,90,0|8,0:0|0:0,0:0:0:0:
224,244,19976,2,0,L|223:349,1,90,0|8,0:0|0:0,0:0:0:0:
348,304,20340,1,0,0:0:0:0:
392,276,20431,1,0,0:0:0:0:
408,224,20522,1,8,0:0:0:0:
404,96,20704,6,0,P|360:144|296:164,1,90,0|8,0:0|0:0,0:0:0:0:
173,155,21067,2,0,P|135:131|108:96,1,90,0|8,0:0|0:0,0:0:0:0:
256,76,21431,1,0,0:0:0:0:
256,192,21613,1,8,0:0:0:0:
136,164,21795,1,2,0:0:0:0:
117,208,21885,1,2,0:0:0:0:
104,252,21976,2,0,B|136:328|136:328|224:324|240:292,1,180,12|8,0:0|0:0,0:0:0:0:
312,208,22522,1,0,0:0:0:0:
292,63,22704,1,8,0:0:0:0:
393,167,22885,1,0,0:0:0:0:
249,143,23067,1,8,0:0:0:0:
379,79,23249,1,0,0:0:0:0:
312,208,23431,1,8,0:0:0:0:
208,264,23613,6,0,P|164:280|116:272,1,90,0|8,0:0|0:0,0:0:0:0:
304,264,23976,2,0,P|348:280|396:272,1,90,0|8,0:0|0:0,0:0:0:0:
364,160,24340,1,0,0:0:0:0:
256,112,24522,1,8,0:0:0:0:
148,160,24704,1,0,0:0:0:0:
208,248,24885,5,8,0:0:0:0:
168,272,24976,1,0,0:0:0:0:
128,292,25067,2,0,P|72:272|44:244,1,90,0|8,0:0|0:0,0:0:0:0:
256,148,25431,1,0,0:0:0:0:
304,248,25613,1,8,0:0:0:0:
344,272,25704,1,0,0:0:0:0:
384,292,25795,2,0,P|440:272|468:244,1,90,0|8,0:0|0:0,0:0:0:0:
256,148,26158,2,0,L|256:32,1,90,0|8,0:0|0:0,0:0:0:0:
200,212,26522,5,0,0:0:0:0:
312,212,26704,1,8,0:0:0:0:
140,284,26885,1,0,0:0:0:0:
364,284,27067,1,8,0:0:0:0:
196,348,27249,1,0,0:0:0:0:
312,348,27431,1,8,0:0:0:0:
256,240,27613,1,2,0:0:0:0:
256,192,27703,1,2,0:0:0:0:
256,144,27795,2,0,B|272:64|272:64|352:48|408:88,1,180,4|8,0:0|0:0,0:0:0:0:
460,156,28340,6,0,P|444:224|396:248,1,90,0|8,0:0|0:0,0:0:0:0:
344,148,28704,1,0,0:0:0:0:
168,148,28885,1,8,0:0:0:0:
255,285,29067,1,0,0:0:0:0:
256,96,29249,1,8,0:0:0:0:
344,232,29431,6,0,L|452:232,1,90,0|8,0:0|0:0,0:0:0:0:
416,100,29795,1,0,0:0:0:0:
256,96,29976,2,0,L|166:96,1,90,8|0,0:0|0:0,0:0:0:0:
56,176,30340,1,8,0:0:0:0:
168,248,30522,2,0,L|284:248,1,90,0|8,0:0|0:0,0:0:0:0:
380,280,30885,6,0,P|419:190|388:112,1,180,0|0,0:0|0:0,0:0:0:0:
292,192,31431,1,8,0:0:0:0:
288,80,31613,2,0,P|246:95|209:121,1,90,0|8,0:0|0:0,0:0:0:0:
209,263,31976,2,0,P|245:288|288:304,1,90,0|8,0:0|0:0,0:0:0:0:
312,192,32340,5,0,0:0:0:0:
200,192,32522,1,8,0:0:0:0:
331,244,32704,1,0,0:0:0:0:
183,141,32886,1,8,0:0:0:0:
299,312,33067,1,0,0:0:0:0:
213,75,33249,1,8,0:0:0:0:
256,352,33431,6,8,L|256:307,1,45
256,184,33613,2,8,L|256:248,1,45,8|8,0:0|0:0,0:0:0:0:
324,268,33795,2,0,P|380:268|412:240,1,90,0|8,0:0|0:0,0:0:0:0:
404,116,34158,2,0,P|367:93|323:97,1,90,0|8,0:0|0:0,0:0:0:0:
256,184,34522,1,0,0:0:0:0:
156,116,34704,1,8,0:0:0:0:
92,216,34885,5,0,0:0:0:0:
188,288,35067,1,8,0:0:0:0:
292,308,35249,2,0,P|312:240|360:228,1,90,0|8,0:0|0:0,0:0:0:0:
220,76,35613,2,0,P|200:144|152:156,1,90,0|8,0:0|0:0,0:0:0:0:
220,308,35976,2,0,P|200:240|152:228,1,90,0|8,0:0|0:0,0:0:0:0:
292,76,36340,2,0,P|312:144|360:156,1,90,0|8,0:0|0:0,0:0:0:0:
380,180,36613,1,2,0:0:0:0:
412,232,36704,6,0,P|344:272|304:268,1,90,2|0,0:0|0:0,0:0:0:0:
180,264,37067,1,10,0:0:0:0:
136,240,37158,1,0,0:0:0:0:
104,204,37249,1,0,0:0:0:0:
92,156,37340,1,0,0:0:0:0:
96,112,37431,2,0,P|168:52|268:48,1,180,2|10,0:0|0:0,0:0:0:0:
404,44,37976,2,0,L|444:72,1,45,2|0,0:0|0:0,0:0:0:0:
428,132,38158,2,0,P|408:184|368:224,1,90,2|0,0:0|0:0,0:0:0:0:
272,152,38522,2,0,P|232:196|184:212,1,90,10|0,0:0|0:0,0:0:0:0:
80,216,38885,5,2,0:0:0:0:
132,100,39067,1,0,0:0:0:0:
256,128,39249,1,10,0:0:0:0:
376,92,39431,1,0,0:0:0:0:
440,216,39613,2,0,P|404:264|320:288,1,135.000005149842,2|0,0:0|0:0,0:0:0:0:
360,204,40158,2,0,P|314:220|272:221,1,67.5000025749208,0|8,0:0|0:0,0:0:0:0:
208,228,40522,5,0,0:0:0:0:
144,168,40704,1,0,0:0:0:0:
156,72,40885,2,2,P|227:53|278:82,2,135.000005149842
212,144,41795,5,8,0:0:0:0:
160,220,41976,2,0,P|200:252|228:264,1,67.5000025749208,0|0,0:0|0:0,0:0:0:0:
292,204,42340,1,0,0:0:0:0:
380,176,42522,2,0,P|417:107|392:40,1,135.000005149842,2|0,0:0|0:0,0:0:0:0:
332,104,43067,2,0,L|260:88,1,67.5000025749208,0|8,0:0|0:0,0:0:0:0:
160,108,43431,5,0,0:0:0:0:
92,172,43613,1,0,0:0:0:0:
164,236,43795,2,0,P|216:192|300:204,2,135.000005149842,2|2|2,0:0|0:0|0:0,0:0:0:0:
249,287,44704,2,0,P|321:295|365:303,1,90,8|0,0:0|0:0,0:0:0:0:
444,217,45067,2,0,P|372:209|328:201,1,90,2|0,0:0|0:0,0:0:0:0:
240,224,45431,5,2,0:0:0:0:
109,239,45613,1,0,0:0:0:0:
95,110,45795,1,8,0:0:0:0:
224,93,45976,1,0,0:0:0:0:
228,264,46158,1,2,0:0:0:0:
69,230,46340,1,2,0:0:0:0:
104,72,46522,1,8,0:0:0:0:
261,104,46703,1,0,0:0:0:0:
376,124,46885,6,0,B|443:138|443:138|399:240|345:236,1,180,2|8,0:0|0:0,0:0:0:0:
296,308,47431,1,2,0:0:0:0:
172,336,47613,1,2,0:0:0:0:
92,252,47795,1,0,0:0:0:0:
208,236,47976,2,0,P|264:228|308:200,1,90,8|0,0:0|0:0,0:0:0:0:
380,104,48340,6,0,L|272:112,1,90,2|0,0:0|0:0,0:0:0:0:
244,156,48613,2,0,P|192:176|148:164,1,90,2|0,0:0|0:0,0:0:0:0:
72,72,48885,2,0,L|36:148,1,45,2|8,0:0|0:0,0:0:0:0:
36,232,49067,6,0,L|140:240,1,90,2|0,0:0|0:0,0:0:0:0:
164,272,49340,2,0,P|216:292|260:280,1,90,2|0,0:0|0:0,0:0:0:0:
384,264,49613,2,8,L|368:216,1,45,2|8,0:0|0:0,0:0:0:0:
384,92,49795,6,0,L|292:152,1,90,2|0,0:0|0:0,0:0:0:0:
276,184,50067,2,0,P|216:192|168:168,1,90,2|0,0:0|0:0,0:0:0:0:
128,88,50340,2,0,L|160:44,2,45,2|0|8,0:0|0:0|0:0,0:0:0:0:
36,180,50704,1,2,0:0:0:0:
128,268,50885,1,2,0:0:0:0:
216,180,51067,1,10,0:0:0:0:
256,192,51249,12,8,51795,0:0:0:0:
168,192,51976,5,8,0:0:0:0:
208,312,52158,2,0,P|344:348|468:288,1,270,8|4,0:0|0:0,0:0:0:0:
484,188,52885,5,8,0:0:0:0:
412,96,53067,2,0,P|332:76|308:96,1,116.999994644165,0|8,0:0|0:0,0:0:0:0:
201,291,53431,2,0,P|150:314|100:288,1,116.999994644165,0|8,0:0|0:0,0:0:0:0:
100,96,53795,2,0,P|180:76|204:96,1,116.999994644165,0|8,0:0|0:0,0:0:0:0:
310,291,54158,6,0,P|361:314|412:288,1,116.999994644165,0|8,0:0|0:0,0:0:0:0:
256,152,54522,2,0,B|200:132|200:168|120:152,1,116.999994644165,0|8,0:0|0:0,0:0:0:0:
136,296,54885,2,0,B|192:316|192:280|272:296,1,116.999994644165,0|8,0:0|0:0,0:0:0:0:
376,228,55249,1,0,0:0:0:0:
256,152,55431,1,8,0:0:0:0:
136,228,55613,2,0,L|260:228,1,116.999994644165,0|8,0:0|0:0,0:0:0:0:
372,152,55976,2,0,L|244:152,1,116.999994644165,0|8,0:0|0:0,0:0:0:0:
136,228,56340,1,0,0:0:0:0:
60,108,56522,5,8,0:0:0:0:
88,72,56613,1,0,0:0:0:0:
128,56,56704,2,0,P|208:40|264:52,1,116.999994644165,0|8,0:0|0:0,0:0:0:0:
384,56,57067,1,0,0:0:0:0:
420,192,57249,1,8,0:0:0:0:
376,324,57431,1,0,0:0:0:0:
328,192,57613,2,0,L|208:192,2,116.999994644165,8|0|8,0:0|0:0|0:0,0:0:0:0:
256,72,58158,1,0,0:0:0:0:
120,100,58340,5,8,0:0:0:0:
96,144,58431,1,0,0:0:0:0:
88,192,58522,2,0,P|96:260|124:304,1,116.999994644165,0|8,0:0|0:0,0:0:0:0:
256,196,58885,1,0,0:0:0:0:
392,284,59067,1,8,0:0:0:0:
416,240,59158,1,0,0:0:0:0:
424,192,59249,2,0,P|416:124|388:80,1,116.999994644165,0|8,0:0|0:0,0:0:0:0:
256,196,59613,1,0,0:0:0:0:
120,100,59795,5,8,0:0:0:0:
96,144,59886,1,0,0:0:0:0:
88,192,59977,2,0,P|96:260|124:304,1,116.999994644165,0|8,0:0|0:0,0:0:0:0:
391,300,60340,2,0,P|419:249|424:192,1,116.999994644165,0|8,0:0|0:0,0:0:0:0:
344,60,60704,6,0,P|289:40|236:62,1,116.999994644165,0|8,0:0|0:0,0:0:0:0:
168,324,61067,2,0,P|222:343|275:321,1,116.999994644165,0|8,0:0|0:0,0:0:0:0:
256,128,61431,1,0,0:0:0:0:
408,128,61613,1,8,0:0:0:0:
256,232,61795,1,0,0:0:0:0:
104,232,61976,1,8,0:0:0:0:
256,328,62158,1,0,0:0:0:0:
408,328,62340,1,8,0:0:0:0:
256,328,62522,2,0,P|168:296|128:260,1,116.999994644165
176,132,62885,5,8,0:0:0:0:
336,132,63067,1,8,0:0:0:0:
128,96,63431,1,8,0:0:0:0:
384,96,63613,1,8,0:0:0:0:
80,59,63976,1,8,0:0:0:0:
432,59,64158,1,8,0:0:0:0:
424,248,64340,6,0,P|380:312|312:328,1,116.999994644165,0|8,0:0|0:0,0:0:0:0:
88,136,64704,2,0,P|132:72|200:56,1,116.999994644165,0|8,0:0|0:0,0:0:0:0:
432,171,65067,2,0,P|420:248|365:291,1,116.999994644165,0|8,0:0|0:0,0:0:0:0:
81,212,65431,2,0,P|93:135|148:92,1,116.999994644165,0|8,0:0|0:0,0:0:0:0:
407,99,65795,2,0,P|428:174|397:236,1,116.999994644165,0|8,0:0|0:0,0:0:0:0:
106,284,66158,2,0,P|85:209|116:147,1,116.999994644165,0|8,0:0|0:0,0:0:0:0:
160,48,66522,5,0,0:0:0:0:
220,176,66704,1,8,0:0:0:0:
276,48,66885,1,0,0:0:0:0:
396,120,67067,1,8,0:0:0:0:
428,156,67158,1,0,0:0:0:0:
440,204,67249,2,0,P|404:264|344:284,1,116.999994644165,0|8,0:0|0:0,0:0:0:0:
288,164,67613,2,0,P|208:152|148:100,1,116.999994644165,0|8,0:0|0:0,0:0:0:0:
176,5,67976,1,0,0:0:0:0:
80,88,68158,6,0,L|52:168,1,58.4999973220826,8|0,0:0|0:0,0:0:0:0:
60,216,68340,2,0,P|132:260|172:260,1,116.999994644165,0|8,0:0|0:0,0:0:0:0:
294,221,68704,1,0,0:0:0:0:
296,37,68885,1,8,0:0:0:0:
386,131,69067,1,0,0:0:0:0:
203,130,69249,1,8,0:0:0:0:
204,272,69431,2,0,P|242:318|310:323,1,116.999994644165,0|8,0:0|0:0,0:0:0:0:
428,248,69795,6,0,P|408:184|436:80,1,175.499991966248,0|8,0:0|0:0,0:0:0:0:
436,81,70158,2,0,P|368:101|320:81,1,116.999994644165,0|8,0:0|0:0,0:0:0:0:
172,44,70522,1,0,0:0:0:0:
108,172,70704,1,8,0:0:0:0:
172,300,70885,1,0,0:0:0:0:
236,172,71067,1,8,0:0:0:0:
326,67,71249,2,0,P|390:108|437:199,1,175.499991966248
435,193,71613,1,0,0:0:0:0:
76,192,71976,1,0,0:0:0:0:
256,348,72340,1,0,0:0:0:0:
436,194,72704,1,0,0:0:0:0:
256,348,73067,5,8,0:0:0:0:
256,144,73249,1,8,0:0:0:0:
256,348,73613,1,8,0:0:0:0:
256,116,73795,1,8,0:0:0:0:
256,348,74158,1,8,0:0:0:0:
256,84,74340,6,0,B|324:40|324:40|420:100|344:228,1,270,4|0,0:0|0:0,0:0:0:0:
256,192,75067,1,0,0:0:0:0:
256,348,75613,1,0,0:0:0:0:
256,348,75976,2,0,P|294:271|250:187,1,180
120,176,76522,2,0,P|142:113|176:87,1,90,0|8,0:0|0:0,0:0:0:0:
256,36,76885,1,8,0:0:0:0:
142,296,77249,6,0,P|255:358|368:295,1,270,4|0,0:0|0:0,0:0:0:0:
257,206,77976,1,0,0:0:0:0:
256,120,78522,1,0,0:0:0:0:
352,282,78885,2,0,P|252:360|156:257,1,270
256,72,79613,2,0,L|256:172,1,90,8|0,0:0|0:0,0:0:0:0:
256,260,79976,1,0,0:0:0:0:
360,344,80158,5,2,0:0:0:0:
408,308,80249,1,0,0:0:0:0:
436,272,80340,2,0,P|444:216|432:152,1,107.999996704102,0|8,0:0|0:0,0:0:0:0:
175,157,80704,2,0,P|167:210|176:264,1,107.999996704102,0|8,0:0|0:0,0:0:0:0:
336,264,81067,2,0,P|344:208|332:144,1,107.999996704102,0|8,0:0|0:0,0:0:0:0:
75,165,81431,2,0,P|67:218|76:272,1,107.999996704102,0|8,0:0|0:0,0:0:0:0:
176,64,81795,5,8,0:0:0:0:
336,64,81976,1,0,0:0:0:0:
111,159,82158,1,8,0:0:0:0:
400,160,82340,1,0,0:0:0:0:
176,256,82522,1,8,0:0:0:0:
336,256,82704,1,0,0:0:0:0:
256,48,82885,2,0,L|256:160,1,107.999996704102,8|0,0:0|0:0,0:0:0:0:
256,288,83249,5,8,0:0:0:0:
92,304,83431,1,8,0:0:0:0:
60,268,83522,1,8,0:0:0:0:
40,224,83613,2,8,P|36:156|64:120,1,107.999996704102
420,80,83976,1,8,0:0:0:0:
452,116,84067,1,8,0:0:0:0:
472,160,84158,2,8,P|480:212|454:258,1,107.999996704102
92,304,84522,1,8,0:0:0:0:
60,268,84613,1,8,0:0:0:0:
40,224,84704,5,8,0:0:0:0:
144,64,84885,1,8,0:0:0:0:
368,64,85067,1,8,0:0:0:0:
256,192,85249,1,8,0:0:0:0:
204,328,85431,2,8,P|256:340|328:320,1,107.999996704102
308,54,85795,1,8,0:0:0:0:
256,44,85886,1,8,0:0:0:0:
204,56,85976,1,12,0:0:0:0:
256,192,86158,12,0,88704,0:0:0:0:
