osu file format v14

[General]
AudioFilename: Jin Hashimoto - STAND PROUD.mp3
AudioLeadIn: 0
PreviewTime: 52478
Countdown: 0
SampleSet: Soft
StackLeniency: 0.4
Mode: 0
LetterboxInBreaks: 0
WidescreenStoryboard: 0

[Editor]
Bookmarks: 8841
DistanceSpacing: 1.2
BeatDivisor: 4
GridSize: 4
TimelineZoom: 1

[Metadata]
Title:STAND PROUD (TV Size)
TitleUnicode:STAND PROUD (TV Size)
Artist:Hashimoto Jin
ArtistUnicode:橋本仁
Creator:Atsuro
Version:Hard
Source:JoJo's Bizarre Adventure: Stardust Crusaders
Tags:atsuro0 Opening ジョジョの奇妙な冒険 JoJo no Kimyou na Bouken Jojolion Kochira Katsushika-ku Kameari Kouen-mae Hashutsujoto hirohiko haraki shueisha anime op japanese rock jrock j-rock スターダストクルセイダース Shoko Fujibayashi 藤林聖子 Takatsugu Wakabayashi 若林タカツグ ZENTA
BeatmapID:403909
BeatmapSetID:166137

[Difficulty]
HPDrainRate:6
CircleSize:4
OverallDifficulty:5.5
ApproachRate:7.5
SliderMultiplier:1.6
SliderTickRate:1

[Events]
//Background and Video events
Video,0,"vid.avi"
0,0,"Background.jpg",0,0
//Break Periods
//Storyboard Layer 0 (Background)
//Storyboard Layer 1 (Fail)
//Storyboard Layer 2 (Pass)
//Storyboard Layer 3 (Foreground)
//Storyboard Layer 4 (Overlay)
//Storyboard Sound Samples

[TimingPoints]
1432,363.636363636364,4,2,1,60,1,0
1796,363.636363636364,4,2,1,60,1,0
1796,-133.333333333333,4,2,1,60,0,0
7432,-100,4,2,1,60,0,0
39614,-133.333333333333,4,2,1,60,0,0
44705,-100,4,2,1,60,0,0
52705,-76.9230769230769,4,2,1,60,0,1
74341,-100,4,2,1,60,0,0
80159,-83.3333333333333,4,2,1,60,0,0

[Colours]
Combo1 : 0,0,255
Combo2 : 128,0,128
Combo3 : 0,128,0
Combo4 : 221,13,44
Combo5 : 236,177,0

[HitObjects]
168,272,1432,6,8,L|144:240,3,40,8|8|8|8,0:0|0:0|0:0|0:0,0:0:0:0:
116,212,1796,2,0,P|172:164|196:96,1,120.000004577637,4|0,0:0|0:0,0:0:0:0:
256,52,2341,1,0,0:0:0:0:
388,192,2886,1,0,0:0:0:0:
292,300,3250,2,0,P|256:256|136:168,1,200.000007629395
116,128,3977,2,8,L|40:152,1,60.0000022888184,8|0,0:0|0:0,0:0:0:0:
192,84,4523,6,0,P|232:124|392:68,1,240.000009155274,4|0,0:0|0:0,0:0:0:0:
452,256,5796,2,0,P|400:300|324:300,1,120.000004577637
216,180,6886,1,8,0:0:0:0:
216,180,7068,1,2,0:0:0:0:
412,184,7432,5,4,0:0:0:0:
464,272,7614,2,0,P|488:328|484:364,1,80,0|8,0:0|0:0,0:0:0:0:
391,343,7977,2,0,P|367:287|371:251,1,80,0|8,0:0|0:0,0:0:0:0:
412,183,8341,2,0,P|448:168|476:140,1,80,0|8,0:0|0:0,0:0:0:0:
432,48,8705,1,0,0:0:0:0:
336,36,8886,1,8,0:0:0:0:
240,44,9068,6,0,P|144:100|132:176,1,160,8|8,0:0|0:0,0:0:0:0:
132,220,9614,1,0,0:0:0:0:
212,232,9796,2,0,P|308:176|320:100,1,160,8|8,0:0|0:0,0:0:0:0:
352,60,10341,2,0,P|400:96|408:128,1,80,0|8,0:0|0:0,0:0:0:0:
420,192,10705,6,8,L|396:244,2,40
324,176,11068,1,8,0:0:0:0:
228,192,11250,2,8,L|252:244,2,40
168,116,11614,1,8,0:0:0:0:
108,192,11796,2,8,L|84:244,2,40
168,116,12159,5,8,0:0:0:0:
120,32,12341,1,8,0:0:0:0:
216,28,12523,1,8,0:0:0:0:
264,112,12705,2,8,L|328:112,2,40
168,116,13068,2,8,L|100:116,2,40
197,250,13432,6,0,L|158:284,2,40,8|0|0,0:0|0:0|0:0,0:0:0:0:
276,271,13796,2,0,L|286:322,2,40,8|0|0,0:0|0:0|0:0,0:0:0:0:
335,212,14159,2,0,L|384:229,2,40,8|0|0,0:0|0:0|0:0,0:0:0:0:
314,133,14523,2,0,L|353:99,2,40,8|0|0,0:0|0:0|0:0,0:0:0:0:
234,111,14886,2,0,L|224:60,2,40,8|0|0,0:0|0:0|0:0,0:0:0:0:
175,170,15250,2,0,L|126:152,2,40,8|0|0,0:0|0:0|0:0,0:0:0:0:
164,264,15614,2,0,B|196:244|196:244|228:260|228:260|260:244|260:244|292:260|292:260|324:244|324:244|356:260|356:260|388:244|388:244,1,240,0|4,0:0|0:0,0:0:0:0:
448,64,16523,5,8,0:0:0:0:
352,80,16705,2,0,P|308:100|248:92,1,80,0|8,0:0|0:0,0:0:0:0:
188,40,17068,2,0,P|148:42|112:60,1,80,0|8,0:0|0:0,0:0:0:0:
68,148,17432,1,0,0:0:0:0:
112,232,17614,1,8,0:0:0:0:
192,288,17796,6,0,B|240:256|240:256|288:288|352:256,1,160,0|0,0:0|0:0,0:0:0:0:
432,208,18341,1,8,0:0:0:0:
464,116,18523,2,0,P|440:72|392:44,1,80,0|8,0:0|0:0,0:0:0:0:
370,137,18886,2,0,P|335:178|283:188,1,80,0|8,0:0|0:0,0:0:0:0:
279,96,19250,6,0,P|234:126|182:122,1,80,0|8,0:0|0:0,0:0:0:0:
136,189,19614,2,0,P|180:219|232:215,1,80,0|8,0:0|0:0,0:0:0:0:
279,283,19977,2,0,P|234:313|182:309,1,80,0|8,0:0|0:0,0:0:0:0:
120,351,20341,2,0,P|112:297|139:252,1,80,0|8,0:0|0:0,0:0:0:0:
210,316,20705,2,0,P|248:308|279:283,1,80,0|8,0:0|0:0,0:0:0:0:
350,218,21068,1,0,0:0:0:0:
286,146,21250,1,8,0:0:0:0:
221,215,21432,2,0,L|161:161,1,80,0|8,0:0|0:0,0:0:0:0:
160,80,21796,2,2,L|120:72,2,40,2|2|6,0:0|0:0|0:0,0:0:0:0:
336,156,22341,5,8,0:0:0:0:
412,208,22523,2,0,P|460:268|460:292,1,80,0|8,0:0|0:0,0:0:0:0:
364,280,22887,1,0,0:0:0:0:
268,280,23068,1,8,0:0:0:0:
172,292,23250,2,0,P|188:328|219:351,1,80,0|8,0:0|0:0,0:0:0:0:
316,348,23614,1,0,0:0:0:0:
412,344,23796,1,8,0:0:0:0:
508,336,23978,6,0,P|491:299|460:276,1,80,0|8,0:0|0:0,0:0:0:0:
364,280,24341,1,0,0:0:0:0:
268,280,24523,1,8,0:0:0:0:
193,205,24705,2,0,L|276:205,1,80,0|8,0:0|0:0,0:0:0:0:
364,204,25068,6,0,P|408:169|404:41,1,160
330,110,25614,1,8,0:0:0:0:
257,46,25796,1,0,0:0:0:0:
182,110,25977,1,8,0:0:0:0:
148,204,26159,2,0,P|104:169|108:41,1,160
182,110,26705,1,8,0:0:0:0:
258,47,26887,1,0,0:0:0:0:
330,110,27068,1,8,0:0:0:0:
394,181,27250,2,0,P|426:217|424:277,1,80,0|8,0:0|0:0,0:0:0:0:
321,247,27614,2,2,L|361:245,2,40,2|2|6,0:0|0:0|0:0,0:0:0:0:
144,192,28159,5,8,0:0:0:0:
128,300,28341,2,0,P|96:248|56:240,1,80,0|8,0:0|0:0,0:0:0:0:
84,136,28705,2,0,P|116:114|131:77,1,80,0|8,0:0|0:0,0:0:0:0:
188,192,29068,2,0,L|304:192,1,80,0|8,0:0|0:0,0:0:0:0:
392,192,29432,5,0,0:0:0:0:
324,124,29614,1,8,0:0:0:0:
324,260,29796,2,0,L|208:260,1,80,0|8,0:0|0:0,0:0:0:0:
264,336,30159,2,0,L|168:364,1,80,0|8,0:0|0:0,0:0:0:0:
100,324,30523,1,0,0:0:0:0:
72,232,30705,1,8,0:0:0:0:
152,184,30886,6,0,P|172:128|120:40,1,160
64,128,31432,1,8,0:0:0:0:
72,232,31614,1,0,0:0:0:0:
164,284,31796,1,8,0:0:0:0:
244,220,31977,6,0,P|276:184|276:132,1,80,0|8,0:0|0:0,0:0:0:0:
268,56,32341,1,0,0:0:0:0:
364,56,32523,1,8,0:0:0:0:
351,153,32705,2,0,P|359:192|388:220,1,80,0|8,0:0|0:0,0:0:0:0:
308,272,33068,2,0,L|196:272,1,80,0|8,0:0|0:0,0:0:0:0:
144,216,33432,6,0,L|160:272,2,40,8|8|8,0:0|0:0|0:0,0:0:0:0:
100,124,33796,2,0,P|148:80|180:72,1,80,4|8,0:0|0:0,0:0:0:0:
200,164,34159,1,0,0:0:0:0:
248,80,34341,1,8,0:0:0:0:
300,164,34523,2,0,P|344:208|452:204,1,160
392,124,35068,5,8,0:0:0:0:
380,40,35250,2,0,P|320:56|280:88,1,80,0|8,0:0|0:0,0:0:0:0:
144,96,35614,2,0,P|204:112|244:144,1,80,0|8,0:0|0:0,0:0:0:0:
380,148,35977,2,0,P|320:164|280:196,1,80,0|8,0:0|0:0,0:0:0:0:
228,244,36341,2,0,P|192:262|153:269,1,80,0|8,0:0|0:0,0:0:0:0:
68,208,36705,6,0,P|48:156|60:120,1,80,2|8,0:0|0:0,0:0:0:0:
112,36,37068,1,2,0:0:0:0:
192,104,37250,1,0,0:0:0:0:
264,180,37432,2,2,P|320:144|336:40,2,160,2|10|2,0:0|0:0|0:0,0:0:0:0:
192,104,38341,1,0,0:0:0:0:
112,36,38523,1,10,0:0:0:0:
52,124,38705,6,0,P|80:176|116:196,1,80,0|2,0:0|0:0,0:0:0:0:
192,232,39068,1,0,0:0:0:0:
288,228,39250,1,10,0:0:0:0:
240,144,39432,1,0,0:0:0:0:
192,232,39614,6,0,P|208:284|272:312,1,120.000004577637,6|0,0:0|0:0,0:0:0:0:
264,240,40159,2,0,L|328:240,1,60.0000022888184,0|8,0:0|0:0,0:0:0:0:
396,224,40523,1,0,0:0:0:0:
440,156,40705,1,0,0:0:0:0:
424,80,40886,2,2,P|364:88|288:64,2,120.000004577637
440,156,41796,6,0,P|383:163|355:156,1,60.0000022888184,8|0,0:0|0:0,0:0:0:0:
308,164,42159,1,0,0:0:0:0:
240,140,42341,1,0,0:0:0:0:
176,108,42523,2,0,P|128:100|72:168,1,120.000004577637,2|0,0:0|0:0,0:0:0:0:
88,216,43068,2,0,P|128:244|148:248,1,60.0000022888184,2|8,0:0|0:0,0:0:0:0:
168,312,43432,2,0,P|128:316|88:300,2,60.0000022888184,0|0|2,0:0|0:0|0:0,0:0:0:0:
312,312,44159,1,2,0:0:0:0:
428,224,44523,1,2,0:0:0:0:
428,128,44705,6,0,L|428:44,1,80,8|0,0:0|0:0,0:0:0:0:
348,100,45068,2,0,L|348:192,1,80,2|0,0:0|0:0,0:0:0:0:
292,264,45432,2,2,P|271:297|235:315,1,80
140,296,45796,1,8,0:0:0:0:
88,216,45977,1,0,0:0:0:0:
88,120,46159,2,0,P|109:86|144:69,1,80,2|0,0:0|0:0,0:0:0:0:
240,84,46523,1,8,0:0:0:0:
316,144,46705,1,2,0:0:0:0:
384,76,46886,6,0,P|412:131|374:220,1,160,0|8,0:0|0:0,0:0:0:0:
316,144,47432,1,0,0:0:0:0:
220,144,47614,1,2,0:0:0:0:
268,228,47796,1,2,0:0:0:0:
304,316,47977,2,0,P|266:329|213:293,1,80,8|0,0:0|0:0,0:0:0:0:
144,276,48341,5,2,0:0:0:0:
60,160,48614,1,2,0:0:0:0:
148,36,48886,2,2,L|148:96,2,40,2|8|0,0:0|0:0|0:0,0:0:0:0:
232,168,49341,1,2,0:0:0:0:
388,168,49614,2,0,L|436:168,2,40,2|8|0,0:0|0:0|0:0,0:0:0:0:
304,36,50068,1,2,0:0:0:0:
148,36,50341,1,2,0:0:0:0:
148,124,50523,1,2,0:0:0:0:
148,212,50705,1,2,0:0:0:0:
244,212,50886,2,0,L|244:280,2,40,0|0|8,0:0|0:0|0:0,0:0:0:0:
256,192,51250,12,4,52705,0:0:0:0:
256,192,52886,6,0,P|220:248|184:264,1,103.999995239258
158,163,53250,1,8,0:0:0:0:
256,192,53432,2,0,P|292:136|327:120,1,103.999995239258,0|8,0:0|0:0,0:0:0:0:
353,220,53796,1,0,0:0:0:0:
256,192,53977,2,0,P|220:248|184:264,1,103.999995239258,8|0,0:0|0:0,0:0:0:0:
159,162,54341,2,0,P|191:102|231:78,1,103.999995239258,8|0,0:0|0:0,0:0:0:0:
316,72,54705,5,8,0:0:0:0:
416,140,54886,2,0,P|388:189|338:230,1,103.999995239258,0|8,0:0|0:0,0:0:0:0:
368,304,55250,2,0,P|316:328|252:332,1,103.999995239258,0|8,0:0|0:0,0:0:0:0:
168,288,55614,2,0,P|192:236|192:184,1,103.999995239258,0|8,0:0|0:0,0:0:0:0:
220,88,55977,1,0,0:0:0:0:
288,156,56159,2,0,P|332:200|472:240,1,207.999990478516,8|8,0:0|0:0,0:0:0:0:
460,116,56705,6,0,P|408:102|369:53,1,103.999995239258,0|8,0:0|0:0,0:0:0:0:
276,68,57068,1,0,0:0:0:0:
180,40,57250,1,8,0:0:0:0:
104,112,57432,1,0,0:0:0:0:
200,148,57614,2,0,L|220:260,2,103.999995239258,8|0|8,0:0|0:0|0:0,0:0:0:0:
276,68,58159,1,0,0:0:0:0:
180,40,58341,1,8,0:0:0:0:
104,112,58522,6,0,P|96:168|116:220,1,103.999995239258,0|8,0:0|0:0,0:0:0:0:
208,212,58886,2,0,L|328:212,1,103.999995239258,0|8,0:0|0:0,0:0:0:0:
413,216,59249,2,0,P|428:166|420:116,1,103.999995239258,0|8,0:0|0:0,0:0:0:0:
312,124,59613,2,0,L|200:124,1,103.999995239258,0|8,0:0|0:0,0:0:0:0:
92,116,59977,2,0,P|84:172|104:224,1,103.999995239258,0|8,0:0|0:0,0:0:0:0:
208,280,60341,2,0,P|256:292|308:280,1,103.999995239258,0|8,0:0|0:0,0:0:0:0:
256,164,60705,6,0,L|256:60,1,103.999995239258,0|8,0:0|0:0,0:0:0:0:
364,120,61068,2,0,L|364:224,1,103.999995239258,0|8,0:0|0:0,0:0:0:0:
256,292,61432,2,0,B|216:340|216:340|152:320,1,103.999995239258,0|8,0:0|0:0,0:0:0:0:
64,272,61796,2,0,B|104:224|104:224|168:244,1,103.999995239258,0|8,0:0|0:0,0:0:0:0:
256,292,62159,2,0,B|296:340|296:340|360:320,1,103.999995239258,0|8,0:0|0:0,0:0:0:0:
448,268,62523,2,0,B|408:220|408:220|344:240,1,103.999995239258,0|8,0:0|0:0,0:0:0:0:
356,116,62886,5,8,0:0:0:0:
256,192,63068,1,8,0:0:0:0:
156,116,63432,1,8,0:0:0:0:
256,192,63614,1,8,0:0:0:0:
256,320,63977,1,8,0:0:0:0:
256,192,64159,1,8,0:0:0:0:
332,148,64341,6,0,P|336:224|304:284,1,103.999995239258,0|8,0:0|0:0,0:0:0:0:
184,249,64705,2,0,P|172:199|180:148,1,103.999995239258,0|8,0:0|0:0,0:0:0:0:
343,184,65068,2,0,P|314:254|260:295,1,103.999995239258,0|8,0:0|0:0,0:0:0:0:
167,213,65432,2,0,P|177:163|205:120,1,103.999995239258,0|8,0:0|0:0,0:0:0:0:
338,221,65796,2,0,P|282:273|216:287,1,103.999995239258,0|8,0:0|0:0,0:0:0:0:
166,174,66159,2,0,P|196:132|240:105,1,103.999995239258,0|8,0:0|0:0,0:0:0:0:
360,104,66523,6,0,P|408:160|420:216,1,103.999995239258,0|8,0:0|0:0,0:0:0:0:
312,236,66886,1,0,0:0:0:0:
196,232,67068,1,8,0:0:0:0:
84,204,67250,2,0,P|44:144|44:96,1,103.999995239258,0|8,0:0|0:0,0:0:0:0:
124,52,67614,1,0,0:0:0:0:
172,144,67796,2,0,P|248:168|372:96,1,207.999990478516,8|8,0:0|0:0,0:0:0:0:
428,36,68341,5,0,0:0:0:0:
464,132,68523,1,8,0:0:0:0:
408,220,68705,2,0,L|340:312,1,103.999995239258,0|8,0:0|0:0,0:0:0:0:
244,308,69068,1,0,0:0:0:0:
156,252,69250,2,0,P|164:152|260:56,1,207.999990478516,8|8,0:0|0:0,0:0:0:0:
332,40,69796,6,0,L|276:24,2,51.999997619629,0|0|8,0:0|0:0|0:0,0:0:0:0:
432,84,70159,2,0,P|460:148|460:192,1,103.999995239258,0|8,0:0|0:0,0:0:0:0:
440,304,70523,1,0,0:0:0:0:
332,344,70705,2,0,P|236:352|132:304,1,207.999990478516,8|0,0:0|0:0,0:0:0:0:
128,184,71250,6,0,L|204:92,1,103.999995239258,8|0,0:0|0:0,0:0:0:0:
324,104,71614,2,0,L|391:185,1,103.999995239258,8|0,0:0|0:0,0:0:0:0:
256,192,71977,1,0,0:0:0:0:
72,52,72341,1,0,0:0:0:0:
256,192,72705,1,0,0:0:0:0:
440,60,73068,6,8,P|472:116|468:168,1,103.999995239258
256,236,73614,2,8,P|224:180|228:128,1,103.999995239258
388,300,74159,1,8,0:0:0:0:
292,340,74341,6,0,B|202:338|202:338|84:295|65:145,1,320,4|0,0:0|0:0,0:0:0:0:
244,120,75614,2,0,P|284:176|371:213,1,160
412,24,76341,1,0,0:0:0:0:
328,72,76523,2,0,P|368:108|416:120,2,80,0|8|8,0:0|0:0|0:0,0:0:0:0:
280,228,77250,6,0,P|160:320|36:196,1,320,4|0,0:0|0:0,0:0:0:0:
276,92,78523,2,0,P|344:56|436:92,1,160
356,220,79250,2,0,L|360:312,1,80,0|0,0:0|0:0,0:0:0:0:
268,336,79614,2,0,P|212:296|172:292,1,80,8|0,0:0|0:0,0:0:0:0:
16,162,80159,1,0,0:0:0:0:
112,160,80341,6,0,L|232:160,1,95.9999970703126,0|8,0:0|0:0,0:0:0:0:
160,68,80705,2,0,L|264:68,1,95.9999970703126,0|8,0:0|0:0,0:0:0:0:
308,160,81068,2,0,L|416:160,1,95.9999970703126,0|8,0:0|0:0,0:0:0:0:
344,68,81432,2,0,L|456:68,1,95.9999970703126,0|8,0:0|0:0,0:0:0:0:
476,176,81795,5,8,0:0:0:0:
416,276,81977,1,0,0:0:0:0:
336,328,82159,2,0,P|260:348|220:340,1,95.9999970703126,8|0,0:0|0:0,0:0:0:0:
280,236,82523,2,0,P|248:184|200:160,1,95.9999970703126,8|0,0:0|0:0,0:0:0:0:
104,172,82886,2,0,P|65:199|43:242,2,95.9999970703126,8|0|8,0:0|0:0|0:0,0:0:0:0:
144,96,83432,6,8,L|96:56,2,47.9999985351563,8|8|8,0:0|0:0|0:0,0:0:0:0:
232,172,83796,1,8,0:0:0:0:
312,92,83977,2,8,L|348:56,2,47.9999985351563,8|8|8,0:0|0:0|0:0,0:0:0:0:
344,204,84341,2,8,L|380:160,2,47.9999985351563
276,300,84705,5,8,0:0:0:0:
196,220,84886,1,8,0:0:0:0:
120,136,85068,1,8,0:0:0:0:
40,224,85250,1,8,0:0:0:0:
117,307,85432,1,8,0:0:0:0:
196,220,85614,1,8,0:0:0:0:
120,136,85796,2,8,L|120:88,2,47.9999985351563,8|8|12,0:0|0:0|0:0,0:0:0:0:
256,192,86068,12,0,88523,0:0:0:0:
