osu file format v14

[General]
AudioFilename: Jin Hashimoto - STAND PROUD.mp3
AudioLeadIn: 0
PreviewTime: 52478
Countdown: 0
SampleSet: Soft
StackLeniency: 0.4
Mode: 0
LetterboxInBreaks: 0
WidescreenStoryboard: 0

[Editor]
Bookmarks: 8841
DistanceSpacing: 1.2
BeatDivisor: 4
GridSize: 4
TimelineZoom: 1

[Metadata]
Title:STAND PROUD (TV Size)
TitleUnicode:STAND PROUD (TV Size)
Artist:Hashimoto Jin
ArtistUnicode:橋本仁
Creator:Atsuro
Version:Easy
Source:JoJo's Bizarre Adventure: Stardust Crusaders
Tags:atsuro0 Opening ジョジョの奇妙な冒険 JoJo no Kimyou na Bouken Jojolion Kochira Katsushika-ku Kameari Kouen-mae Hashutsujoto hirohiko haraki shueisha anime op japanese rock jrock j-rock スターダストクルセイダース Shoko Fujibayashi 藤林聖子 Takatsugu Wakabayashi 若林タカツグ ZENTA
BeatmapID:403908
BeatmapSetID:166137

[Difficulty]
HPDrainRate:2
CircleSize:2
OverallDifficulty:3
ApproachRate:3
SliderMultiplier:0.9
SliderTickRate:1

[Events]
//Background and Video events
Video,0,"vid.avi"
0,0,"Background.jpg",0,0
//Break Periods
//Storyboard Layer 0 (Background)
//Storyboard Layer 1 (Fail)
//Storyboard Layer 2 (Pass)
//Storyboard Layer 3 (Foreground)
//Storyboard Layer 4 (Overlay)
//Storyboard Sound Samples

[TimingPoints]
1432,363.636363636364,4,2,1,100,1,0
1796,363.636363636364,4,2,1,60,1,0
1796,-100,4,2,1,60,0,0
7432,-100,4,2,1,60,0,0
39614,-100,4,2,1,60,0,0
44705,-100,4,2,1,60,0,0
52705,-90.9090909090909,4,2,1,60,0,1
74341,-100,4,2,1,60,0,0
80159,-100,4,2,1,60,0,0

[Colours]
Combo1 : 0,0,255
Combo2 : 128,0,128
Combo3 : 0,128,0
Combo4 : 221,13,44
Combo5 : 236,177,0

[HitObjects]
106,124,1796,6,0,P|82:194|128:274,2,135,4|0|0,0:0|0:0|0:0,0:0:0:0:
180,188,3250,2,0,L|380:188,1,180,0|8,0:0|0:0,0:0:0:0:
416,52,4523,6,0,P|348:96|232:72,1,180,4|0,0:0|0:0,0:0:0:0:
104,112,5796,1,0,0:0:0:0:
24,168,6159,2,0,P|80:204|192:152,1,180,0|8,0:0|0:0,0:0:0:0:
247,21,7432,6,0,P|313:75|337:181,1,180,6|8,0:0|0:0,0:0:0:0:
284,300,8705,1,8,0:0:0:0:
188,312,9068,2,0,P|148:256|116:140,2,180,2|8|8,0:0|0:0|0:0,0:0:0:0:
300,216,11068,6,0,P|356:160|384:76,1,135,8|8,0:0|0:0,0:0:0:0:
274,110,11977,2,0,P|216:132|148:108,1,135,8|8,0:0|0:0,0:0:0:0:
44,200,13068,1,8,0:0:0:0:
256,192,13432,12,0,15614,0:0:0:0:
256,192,16159,5,4,0:0:0:0:
148,292,16705,2,0,P|148:228|92:116,1,180,0|8,0:0|2:0,0:0:0:0:
188,80,17796,2,0,P|264:32|332:96,1,180,0|8,0:0|0:0,0:0:0:0:
256,148,18886,1,0,0:0:0:0:
152,179,19250,2,0,P|224:247|364:167,1,270,0|8,0:0|0:0,0:0:0:0:
256,148,20705,2,8,L|256:24,1,90,0|8,0:0|0:0,0:0:0:0:
156,48,21432,2,0,B|156:104|156:104|116:108|72:144,1,135,0|4,0:0|0:0,0:0:0:0:
112,280,22523,6,0,P|196:196|276:292,1,270,8|0,0:0|0:0,0:0:0:0:
372,308,23977,1,8,0:0:0:0:
420,220,24341,2,0,P|452:140|392:32,1,180,0|8,0:0|0:0,0:0:0:0:
240,140,25796,1,8,0:0:0:0:
196,40,26159,2,0,P|132:124|216:248,1,270,0|8,0:0|0:0,0:0:0:0:
332,140,27796,1,4,0:0:0:0:
492,116,28341,6,0,P|476:220|404:280,1,180,0|8,0:0|0:0,0:0:0:0:
320,240,29432,2,0,B|228:340|228:340|136:232,1,270,0|8,0:0|0:0,0:0:0:0:
130,130,30886,2,0,P|170:82|350:162,1,270,0|8,0:0|0:0,0:0:0:0:
236,157,32341,2,0,P|296:217|456:145,1,270,0|8,0:0|0:0,0:0:0:0:
345,131,33796,6,0,P|313:79|185:63,1,180,4|8,0:0|0:0,0:0:0:0:
243,155,34886,1,0,0:0:0:0:
156,219,35250,2,0,L|204:311,2,90,0|8|0,0:0|0:0|0:0,0:0:0:0:
81,140,36341,1,8,0:0:0:0:
163,70,36705,2,0,P|251:34|331:78,2,180,6|10|2,0:0|0:0|0:0,0:0:0:0:
242,143,38523,2,0,L|242:255,1,90,10|2,0:0|0:0,0:0:0:0:
284,332,39250,1,8,0:0:0:0:
388,305,39614,6,0,P|436:241|452:117,1,180,4|8,0:0|0:0,0:0:0:0:
311,204,40886,2,0,P|243:227|95:205,1,225,2|8,0:0|0:0,0:0:0:0:
86,96,42159,1,0,0:0:0:0:
191,72,42523,2,0,P|267:32|351:84,1,180,2|8,0:0|0:0,0:0:0:0:
265,214,43796,2,0,L|265:342,1,90,2|2,0:0|0:0,0:0:0:0:
112,264,44705,6,0,P|116:184|196:100,1,180,8|0,0:0|0:0,0:0:0:0:
256,48,45796,1,8,0:0:0:0:
332,112,46159,2,0,P|390:178|398:267,1,180
304,296,47250,1,8,0:0:0:0:
204,300,47614,2,0,P|124:236|124:144,1,180,0|2,0:0|0:0,0:0:0:0:
300,88,49068,1,2,0:0:0:0:
300,288,49796,1,2,0:0:0:0:
256,192,50159,12,4,52705,0:0:0:0:
184,220,53432,6,0,P|272:256|380:204,1,198.000006042481,8|0,0:0|0:0,0:0:0:0:
276,160,54523,1,8,0:0:0:0:
180,108,54886,2,0,P|128:120|112:280,1,198.000006042481,0|0,0:0|0:0,0:0:0:0:
176,304,55977,2,8,L|296:304,1,99.0000030212403,8|0,0:0|0:0,0:0:0:0:
420,228,56886,2,8,P|344:144|308:84,1,148.50000453186
244,40,57796,2,0,L|148:108,1,99.0000030212403,0|8,0:0|0:0,0:0:0:0:
56,84,58523,6,0,P|80:168|204:196,1,198.000006042481,0|8,0:0|0:0,0:0:0:0:
396,212,59977,2,0,P|372:128|248:100,1,198.000006042481,0|0,0:0|0:0,0:0:0:0:
244,196,61068,1,8,0:0:0:0:
188,288,61432,2,0,B|120:276|120:280|92:128,1,198.000006042481,0|8,0:0|0:0,0:0:0:0:
192,92,62523,1,0,0:0:0:0:
284,36,62886,2,8,P|276:140|168:200,1,198.000006042481,8|8,0:0|0:0,0:0:0:0:
192,92,63977,1,8,0:0:0:0:
96,144,64341,6,0,P|80:232|188:300,1,198.000006042481,4|8,0:0|0:0,0:0:0:0:
188,196,65432,2,0,L|316:152,1,99.0000030212403,0|8,0:0|0:0,0:0:0:0:
388,136,66159,1,0,0:0:0:0:
368,244,66523,2,0,P|300:284|156:280,1,198.000006042481,8|0,0:0|0:0,0:0:0:0:
76,300,67614,2,0,P|96:236|140:192,1,99.0000030212403,8|0,0:0|0:0,0:0:0:0:
82,97,68341,2,0,P|194:121|236:228,1,198.000006042481,8|0,0:0|0:0,0:0:0:0:
116,212,69432,6,0,L|116:320,1,99.0000030212403,8|0,0:0|0:0,0:0:0:0:
232,280,70159,2,0,L|440:280,1,198.000006042481,4|8,0:0|0:0,0:0:0:0:
408,164,71250,1,0,0:0:0:0:
288,164,71614,1,8,0:0:0:0:
168,164,71977,2,0,L|60:164,2,99.0000030212403
224,268,73068,6,8,P|296:284|396:252,1,148.50000453186,8|8,0:0|0:0,0:0:0:0:
300,64,74341,1,4,0:0:0:0:
84,92,75068,2,0,P|112:152|188:216,1,135
160,308,75977,2,0,P|240:280|269:186,1,180,0|8,0:0|0:0,0:0:0:0:
230,20,77311,6,0,B|230:92|230:92|178:116|162:180,1,180,4|0,0:0|0:0,0:0:0:0:
256,283,78523,1,0,0:0:0:0:
363,283,78886,2,0,B|362:210|362:210|419:177|424:109,1,180,0|8,0:0|0:0,0:0:0:0:
258,77,80159,6,0,L|70:77,1,180,4|8,0:0|0:0,0:0:0:0:
96,280,81432,1,8,0:0:0:0:
196,280,81796,2,8,L|296:280,1,90,8|8,0:0|0:0,0:0:0:0:
252,188,82523,2,8,L|364:188,1,90,8|8,0:0|0:0,0:0:0:0:
372,92,83250,6,8,P|316:60|212:96,1,180
292,156,84341,1,8,0:0:0:0:
372,216,84705,2,8,P|324:252|212:212,1,180
68,157,85977,1,12,0:0:0:0:
256,192,86068,12,0,88523,0:0:0:0:
