osu file format v14

[General]
AudioFilename: audio.mp3
AudioLeadIn: 0
PreviewTime: 64079
Countdown: 0
SampleSet: Soft
StackLeniency: 0.2
Mode: 0
LetterboxInBreaks: 0
WidescreenStoryboard: 0

[Editor]
Bookmarks: 41400,52829,64257
DistanceSpacing: 0.6
BeatDivisor: 4
GridSize: 32
TimelineZoom: 2.399999

[Metadata]
Title:Uragirimono no Requiem (TV Size)
TitleUnicode:裏切り者のレクイエム (TV Size)
Artist:Hasegawa Daisuke
ArtistUnicode:ハセガワダイスケ
Creator:hypercyte
Version:Gold Experience Requiem
Source:JoJo's Bizarre Adventure Part 5: Golden Wind
Tags:traitors requiem ジョジョの奇妙な冒険 黄金の風 JoJo no Kimyou na Bouken Part 5 Ougon no Kaze e Bizzarre Avventure Di GioGio Parte 5: Vento Aureo opening 2 japanese anime hypercute peter petereu celerih toybot ascendance hareimu
BeatmapID:1964685
BeatmapSetID:940726

[Difficulty]
HPDrainRate:6.4
CircleSize:4.2
OverallDifficulty:8.7
ApproachRate:9.3
SliderMultiplier:1.8
SliderTickRate:1

[Events]
//Background and Video events
0,0,"I giorno giovanna have a dream.jpg",0,0
Video,-504,"gang star.avi"
//Break Periods
//Storyboard Layer 0 (Background)
//Storyboard Layer 1 (Fail)
//Storyboard Layer 2 (Pass)
//Storyboard Layer 3 (Foreground)
//Storyboard Sound Samples

[TimingPoints]
971,779.220779220778,4,2,1,40,1,0
971,-100,4,2,1,40,0,0
1360,705.882352941176,4,2,1,40,1,0
1360,-142.857142857143,4,2,1,40,0,0
1712,705.882352941176,4,2,1,40,1,0
1712,-142.857142857143,4,2,1,40,0,0
3829,705.882352941176,4,2,1,40,1,0
3829,-142.857142857143,4,2,1,40,0,0
10359,-142.857142857143,4,2,1,10,0,0
10888,-142.857142857143,4,2,1,39,0,0
11241,-142.857142857143,4,2,1,49,0,0
11594,-142.857142857143,4,2,1,59,0,0
11947,-142.857142857143,4,2,1,69,0,0
12123,-142.857142857143,4,2,1,5,0,0
12275,357.142857142857,4,2,1,60,1,0
12275,-125,4,2,1,60,0,0
12721,-125,4,2,1,5,0,0
12810,-125,4,2,1,60,0,0
13346,-166.666666666667,4,2,1,60,0,0
13971,-166.666666666667,4,2,1,5,0,0
14060,-166.666666666667,4,2,1,60,0,0
15132,346.820809248555,4,2,1,60,1,0
15738,-100,4,2,1,5,0,0
15825,-100,4,2,1,60,0,0
17559,-142.857142857143,4,2,1,60,0,0
17819,-142.857142857143,4,2,1,5,0,0
17906,357.142857142857,4,2,1,60,1,0
17906,-90.9090909090909,4,2,1,60,0,0
18977,365.853658536585,4,2,1,60,1,0
18977,-125,4,2,1,60,0,0
19434,-125,4,2,1,5,0,0
19525,348.837209302326,4,2,1,60,1,0
19525,-100,4,2,1,60,0,0
19699,365.853658536585,4,2,1,60,1,0
20022,348.837209302326,4,2,1,60,1,0
20022,-100,4,2,1,60,0,0
20371,-100,4,2,1,60,0,0
20895,366.97247706422,4,2,1,60,1,0
21812,350.058343057176,4,2,1,60,1,0
22249,-100,4,2,1,5,0,0
22337,-100,4,2,1,60,0,0
22862,360.576923076923,4,2,1,60,1,0
24288,357.142857142857,4,2,1,65,1,0
27145,-83.3333333333333,4,2,1,70,0,0
29645,-100,4,2,1,70,0,0
30002,-125,4,2,1,60,0,0
40895,333.333333333333,4,2,1,60,1,0
41395,392.156862745098,4,2,1,65,1,0
41430,-100,4,2,1,65,0,0
41787,357.142857142857,4,2,1,65,1,0
42858,357.142857142857,4,2,1,65,1,0
42858,-100,4,2,1,65,0,0
52858,-125,4,2,1,55,0,0
55715,-125,4,2,1,65,0,0
55716,-125,4,2,1,65,0,0
55835,-125,4,2,1,5,0,0
55954,-125,4,2,1,65,0,0
56073,-125,4,2,1,5,0,0
56192,-125,4,2,1,65,0,0
56311,-125,4,2,1,5,0,0
56429,-111.111111111111,4,2,1,65,0,0
56607,-111.111111111111,4,2,1,5,0,0
56697,-111.111111111111,4,2,1,65,0,0
56875,-111.111111111111,4,2,1,5,0,0
56965,-111.111111111111,4,2,1,65,0,0
57054,-111.111111111111,4,2,1,5,0,0
57145,-111.111111111111,4,2,1,65,0,0
58215,-90.9090909090908,4,2,1,80,0,0
58482,-90.9090909090908,4,2,1,5,0,0
58572,-125,4,2,1,65,0,0
60000,-142.857142857143,4,2,1,65,0,0
60715,-99.9999999999999,4,2,1,65,0,0
60893,-99.9999999999999,4,2,1,70,0,0
61429,-90.9090909090908,4,2,1,70,0,0
64286,-83.3333333333333,4,2,1,90,0,1
71429,-83.3333333333333,4,2,1,80,0,1
72857,-83.3333333333333,4,2,1,90,0,1
78215,-83.3333333333333,4,2,1,100,0,1
78572,-83.3333333333333,4,2,1,90,0,1
80000,-83.3333333333333,4,2,1,80,0,1
81429,-76.9230769230769,4,2,1,70,0,0
81965,-83.3333333333333,4,2,1,70,0,0
86786,-100,4,2,1,70,0,0
86965,-200,4,2,1,70,0,0
87322,-200,4,2,1,70,0,0

[Colours]
Combo1 : 212,212,212
Combo2 : 255,211,130
Combo3 : 248,139,207
Combo4 : 141,215,254
Combo5 : 255,128,140

[HitObjects]
121,124,971,6,0,P|179:117|247:126,1,90,2|2,0:0|0:0,0:0:0:0:
282,173,1712,1,2,0:0:0:0:
293,290,2418,1,2,0:0:0:0:
306,171,3123,1,2,0:0:0:0:
283,312,3830,2,0,L|302:384,2,62.9999980773926,2|2|2,0:0|0:0|0:0,0:0:0:0:
296,297,5240,2,0,L|309:148,1,125.999996154785,2|2,0:0|0:0,0:0:0:0:
79,115,6652,6,0,P|149:112|201:147,1,125.999996154785,2|2,0:0|0:0,0:0:0:0:
196,159,8064,2,0,P|176:195|173:224,2,62.9999980773926,2|2|2,0:0|0:0|0:0,0:0:0:0:
409,78,9476,2,0,B|391:108|362:117|362:117|330:109|298:78,1,125.999996154785,2|2,0:0|0:0,0:0:0:0:
256,192,10359,12,0,12124,0:0:0:0:
378,100,12275,6,0,B|309:85|309:85|268:101|268:101|196:89,1,180,12|0,0:2|0:0,0:0:0:0:
197,78,12810,1,8,0:2:0:0:
327,183,12989,1,8,0:1:0:0:
342,198,13346,6,0,B|377:289|377:289|340:382,1,188.999994232178,12|0,0:2|0:0,0:0:0:0:
329,379,14060,1,8,0:3:0:0:
232,356,14239,1,8,0:3:0:0:
85,234,14596,1,4,0:3:0:0:
33,331,14775,1,4,0:3:0:0:
33,331,15132,6,0,B|122:341|122:341|212:253|212:253|330:267,1,315,12|0,0:2|0:0,0:0:0:0:
322,279,15825,1,8,0:1:0:0:
208,116,16172,1,12,0:2:0:0:
294,179,16345,1,8,0:1:0:0:
306,22,16519,1,8,0:1:0:0:
313,41,16866,5,8,0:3:0:0:
208,116,17039,1,8,0:3:0:0:
111,178,17212,1,4,0:3:0:0:
202,317,17386,1,4,0:3:0:0:
31,284,17559,2,0,P|100:272|146:280,1,94.499997116089,4|0,0:3|0:0,0:0:0:0:
202,317,17906,5,12,0:2:0:0:
298,260,18084,2,0,P|325:209|322:156,1,99.0000030212403,8|0,0:1|0:0,0:0:0:0:
191,335,18441,1,8,0:2:0:0:
299,362,18620,2,0,P|354:345|406:272,1,148.50000453186,8|0,0:1|0:0,0:0:0:0:
492,305,18977,6,0,P|441:246|422:147,1,180,12|0,0:2|0:0,0:0:0:0:
440,134,19525,1,8,0:1:0:0:
301,260,19699,2,0,P|258:263|196:235,1,90,8|8,0:1|0:2,0:0:0:0:
108,359,20022,2,0,P|128:302|46:208,1,180,8|4,0:1|0:3,0:0:0:0:
8,106,20545,1,2,0:0:0:0:
12,116,20633,1,2,0:0:0:0:
16,124,20720,1,12,0:2:0:0:
165,190,20894,5,8,0:3:0:0:
277,181,21078,2,0,L|186:202,1,90,4|8,0:3|0:3,0:0:0:0:
399,80,21445,1,8,0:1:0:0:
386,94,21812,2,0,B|369:180|369:180|399:232|399:232|382:324,1,225,12|0,0:2|0:0,0:0:0:0:
393,324,22337,1,8,0:3:0:0:
298,374,22512,2,0,L|199:357,1,90,4|0,0:3|0:0,0:0:0:0:
82,280,22862,6,0,L|181:263,1,90,8|0,0:1|0:0,0:0:0:0:
282,169,23222,2,0,L|183:152,1,90,10|0,0:1|0:0,0:0:0:0:
228,23,24288,5,14,0:0:0:0:
272,28,24377,1,0,0:0:0:0:
317,33,24466,1,0,0:0:0:0:
362,38,24555,1,0,0:0:0:0:
406,43,24645,2,0,L|490:30,3,45,10|0|0|0,0:1|0:0|0:0|0:0,0:0:0:0:
310,132,25002,5,10,0:1:0:0:
286,170,25091,1,0,0:0:0:0:
280,214,25180,1,0,0:0:0:0:
292,257,25270,1,0,0:0:0:0:
322,292,25359,2,0,P|370:298|389:296,3,45,10|0|0|0,0:1|0:0|0:0|0:0,0:0:0:0:
210,308,25716,5,10,0:0:0:0:
165,301,25805,1,0,0:0:0:0:
121,294,25895,1,10,0:0:0:0:
76,287,25984,1,0,0:0:0:0:
32,280,26073,2,0,L|-38:295,3,45,10|0|0|0,0:1|0:0|0:0|0:0,0:0:0:0:
199,185,26430,5,10,0:1:0:0:
187,166,26520,1,0,0:0:0:0:
176,148,26609,1,0,0:0:0:0:
164,129,26698,1,0,0:0:0:0:
153,111,26788,2,0,L|164:17,1,90,10|0,0:1|0:0,0:0:0:0:
287,310,27145,5,10,0:0:0:0:
242,343,27234,1,2,0:0:0:0:
187,352,27323,1,10,0:0:0:0:
135,333,27413,1,2,0:0:0:0:
98,291,27502,2,0,P|106:252|109:202,1,53.9999983520508,10|0,0:1|0:0,0:0:0:0:
182,185,27680,2,0,P|177:158|172:131,1,53.9999983520508,2|0,0:0|0:0,0:0:0:0:
103,23,27859,5,10,0:1:0:0:
151,45,27948,1,2,0:0:0:0:
205,47,28038,1,10,0:0:0:0:
255,29,28127,1,2,0:0:0:0:
301,0,28216,2,0,P|338:1|386:11,1,53.9999983520508,10|0,0:1|0:0,0:0:0:0:
433,61,28395,2,0,P|459:61|486:58,1,53.9999983520508,2|0,0:0|0:0,0:0:0:0:
352,105,28573,5,10,0:0:0:0:
367,156,28663,1,2,0:0:0:0:
383,208,28752,1,10,0:0:0:0:
399,259,28841,1,2,0:0:0:0:
415,311,28930,2,0,L|404:378,1,53.9999983520508,10|0,0:1|0:0,0:0:0:0:
314,362,29109,2,0,L|322:308,1,53.9999983520508,0|0,0:0|0:0,0:0:0:0:
233,265,29288,5,8,0:1:0:0:
230,280,29377,1,8,0:1:0:0:
226,295,29466,1,8,0:1:0:0:
223,310,29555,1,8,0:1:0:0:
219,325,29645,2,0,L|229:379,3,45,8|0|8|0,0:1|0:0|0:0|0:0,0:0:0:0:
121,254,30002,5,14,0:0:0:0:
237,41,30180,1,10,0:0:0:0:
237,132,30359,2,0,L|222:61,1,72,8|0,0:1|0:0,0:0:0:0:
181,192,30716,1,0,0:0:0:0:
86,127,30895,1,10,0:0:0:0:
130,343,31073,1,10,0:1:0:0:
136,47,31252,1,10,0:0:0:0:
38,203,31430,5,8,0:0:0:0:
119,248,31609,2,0,L|276:217,1,144,10|2,0:2|0:0,0:0:0:0:
429,99,32145,1,10,0:1:0:0:
511,190,32323,1,8,0:2:0:0:
512,33,32502,1,8,0:1:0:0:
430,249,32680,5,8,0:1:0:0:
427,238,32770,1,8,0:1:0:0:
424,227,32859,1,14,0:0:0:0:
305,7,33038,1,10,0:0:0:0:
312,105,33216,2,0,L|322:22,1,72,8|0,0:1|0:0,0:0:0:0:
162,53,33573,1,0,0:0:0:0:
172,208,33752,1,10,0:0:0:0:
305,7,33930,1,10,0:1:0:0:
65,208,34109,1,10,0:0:0:0:
206,301,34288,5,8,0:0:0:0:
316,203,34466,2,0,B|378:237|378:237|482:212,2,144,10|2|10,0:0|0:0|0:0,0:0:0:0:
196,61,35359,2,0,L|105:79,1,72,8|8,0:1|0:0,0:0:0:0:
469,215,35716,5,10,0:0:0:0:
386,18,35895,1,10,0:0:0:0:
385,116,36073,2,0,L|400:31,1,72,8|2,0:1|0:0,0:0:0:0:
386,18,36341,1,8,0:1:0:0:
379,25,36430,1,8,0:1:0:0:
292,120,36609,1,8,0:0:0:0:
512,98,36787,1,10,0:0:0:0:
241,24,36966,1,10,0:0:0:0:
283,191,37145,6,0,L|292:117,1,72,8|8,0:0|0:0,0:0:0:0:
140,0,37502,2,0,L|149:74,1,72,8|0,0:1|0:0,0:0:0:0:
144,212,37859,1,10,0:0:0:0:
284,106,38037,1,10,0:0:0:0:
122,319,38216,1,10,0:1:0:0:
44,127,38395,1,10,0:0:0:0:
281,205,38573,5,10,0:0:0:0:
212,383,38752,1,10,0:0:0:0:
200,280,38930,1,8,0:1:0:0:
355,282,39109,2,0,L|345:366,1,72,10|0,0:0|0:0,0:0:0:0:
441,141,39466,1,10,0:0:0:0:
231,59,39645,1,10,0:1:0:0:
441,244,39823,5,10,0:0:0:0:
436,234,39912,1,8,0:0:0:0:
431,224,40002,1,8,0:1:0:0:
313,148,40180,1,8,0:1:0:0:
162,178,40359,1,8,0:1:0:0:
112,310,40537,1,8,0:1:0:0:
354,27,40716,5,12,0:2:0:0:
486,160,40895,1,8,0:1:0:0:
449,127,40978,1,8,0:1:0:0:
402,113,41061,1,8,0:1:0:0:
354,121,41145,1,8,0:1:0:0:
313,148,41228,1,8,0:1:0:0:
288,190,41311,1,8,0:1:0:0:
288,236,41395,6,0,B|297:292|297:292|315:308|315:308|324:392,1,135,10|0,0:2|0:0,0:0:0:0:
330,368,41787,1,10,0:1:0:0:
397,221,41965,1,2,0:0:0:0:
197,352,42144,1,10,0:0:0:0:
81,247,42322,1,10,0:0:0:0:
86,358,42501,2,0,L|98:267,1,90,8|0,0:1|0:0,0:0:0:0:
122,83,42858,5,8,0:0:0:0:
219,175,43036,2,0,L|306:153,1,90,10|8,0:0|0:1,0:0:0:0:
512,183,43393,1,8,0:0:0:0:
340,28,43572,1,10,0:0:0:0:
305,266,43750,1,10,0:0:0:0:
440,120,43929,1,8,0:1:0:0:
474,268,44108,1,8,0:0:0:0:
505,33,44286,5,10,0:0:0:0:
301,171,44465,2,0,P|344:181|388:195,1,90,10|8,0:0|0:1,0:0:0:0:
139,3,44822,1,0,0:0:0:0:
107,171,45000,1,10,0:0:0:0:
262,89,45179,1,10,0:0:0:0:
156,93,45358,2,0,P|197:106|247:106,1,90,8|0,0:1|0:0,0:0:0:0:
405,4,45715,6,0,P|360:4|317:17,1,90,8|10,0:0|0:0,0:0:0:0:
286,282,46072,1,8,0:1:0:0:
347,172,46250,1,10,0:0:0:0:
370,347,46429,1,8,0:0:0:0:
265,105,46608,1,10,0:0:0:0:
272,384,46786,1,10,0:1:0:0:
358,75,46965,5,10,0:1:0:0:
367,84,47054,1,8,0:1:0:0:
376,93,47143,2,0,B|384:47|384:47|357:-7,2,90,12|2|10,0:2|0:0|0:1,0:0:0:0:
145,176,47679,1,2,0:2:0:0:
112,17,47858,1,8,0:0:0:0:
256,192,48036,1,8,0:0:0:0:
50,226,48215,2,0,B|32:185|32:185|43:141,1,90,10|8,0:1|0:0,0:0:0:0:
50,126,48483,1,0,0:0:0:0:
55,138,48572,1,8,0:0:0:0:
165,312,48750,5,8,0:0:0:0:
215,69,48929,1,8,0:1:0:0:
339,170,49108,2,0,P|280:175|251:195,1,90,2|8,0:2|0:0,0:0:0:0:
500,103,49465,1,10,0:0:0:0:
457,255,49643,1,10,0:1:0:0:
430,160,49822,1,2,0:2:0:0:
385,335,50000,6,0,B|413:297|459:291|459:291|502:315|512:361,1,180,10|8,0:0|0:1,0:0:0:0:
271,285,50536,2,0,P|296:343|299:373,1,90,10|8,0:0|0:1,0:0:0:0:
93,216,50893,1,8,0:0:0:0:
94,330,51072,2,0,L|113:234,1,90,10|0,0:1|0:0,0:0:0:0:
17,16,51429,5,12,0:0:0:0:
5,257,51608,1,8,0:3:0:0:
98,94,51786,1,8,0:3:0:0:
0,234,51965,1,4,0:3:0:0:
218,81,52143,5,8,0:1:0:0:
262,76,52233,1,8,0:1:0:0:
302,95,52322,1,8,0:1:0:0:
327,132,52411,1,8,0:1:0:0:
330,176,52500,2,0,L|313:243,3,45,8|8|8|8,0:1|0:1|0:1|0:1,0:0:0:0:
512,15,52858,6,0,P|454:66|377:69,1,144,14|8,0:2|0:1,0:0:0:0:
201,25,53393,1,0,0:0:0:0:
56,74,53572,2,0,P|38:128|46:171,1,72,10|0,0:2|0:0,0:0:0:0:
122,225,53929,1,8,0:1:0:0:
53,309,54107,1,2,0:2:0:0:
134,202,54286,6,0,P|210:181|276:222,1,144,10|10,0:2|0:1,0:0:0:0:
304,306,54822,2,0,P|352:328|391:324,1,72,2|8,0:2|0:2,0:0:0:0:
442,264,55179,2,0,P|490:242|529:246,1,72,10|8,0:2|0:1,0:0:0:0:
112,153,55536,2,0,L|156:170,1,36,2|0,0:0|0:0,0:0:0:0:
220,281,55715,6,0,L|206:195,1,48,10|0,0:2|0:0,0:0:0:0:
276,129,55953,6,0,L|208:184,1,48,2|8,0:0|0:1,0:0:0:0:
112,153,56191,6,0,L|193:183,1,48,2|0,0:0|0:0,0:0:0:0:
439,309,56429,6,0,L|358:277,1,80.9999975280763,2|0,0:2|0:0,0:0:0:0:
303,333,56697,2,0,L|364:279,1,80.9999975280763,2|8,0:0|0:1,0:0:0:0:
348,158,56965,2,0,L|356:210,1,40.4999987640381,2|0,0:0|0:0,0:0:0:0:
220,281,57143,6,0,L|206:201,1,80.9999975280763,10|8,0:2|0:2,0:0:0:0:
320,104,57500,2,0,L|333:183,1,80.9999975280763,8|0,0:1|0:0,0:0:0:0:
396,335,57857,1,8,0:2:0:0:
497,162,58036,1,8,0:2:0:0:
512,301,58215,6,0,B|493:299|472:282|472:282|459:229|484:166,1,148.50000453186,14|0,0:1|0:0,0:0:0:0:
413,32,58572,2,0,P|414:85|404:115,1,72,14|8,0:0|0:2,0:0:0:0:
273,132,58929,1,8,0:1:0:0:
105,65,59107,2,0,P|159:19|230:21,1,144,2|8,0:0|0:2,0:0:0:0:
0,139,59643,2,0,P|24:177|32:220,1,72,10|2,0:1|0:0,0:0:0:0:
166,309,60000,6,0,L|172:244,1,62.9999980773926,10|8,0:0|0:0,0:0:0:0:
183,157,60357,2,0,L|192:247,1,62.9999980773926,8|2,0:1|0:0,0:0:0:0:
340,334,60715,6,0,L|349:236,1,90,10|10,0:0|0:0,0:0:0:0:
363,122,61072,2,0,L|373:233,1,90,8|8,0:1|0:0,0:0:0:0:
97,112,61429,54,0,B|103:52|140:27|140:27|199:31|230:76,1,198.000006042481,10|8,0:0|0:1,0:0:0:0:
240,269,61965,1,0,0:0:0:0:
329,163,62143,1,8,0:0:0:0:
319,350,62322,1,8,0:0:0:0:
214,144,62500,1,8,0:1:0:0:
464,311,62679,1,0,0:0:0:0:
441,39,62857,5,12,0:0:0:0:
240,269,63036,1,8,0:3:0:0:
243,254,63125,1,8,0:3:0:0:
247,239,63215,1,8,0:3:0:0:
286,66,63393,1,4,0:3:0:0:
291,79,63482,1,4,0:3:0:0:
297,92,63572,1,4,0:3:0:0:
365,302,63750,1,8,0:1:0:0:
353,292,63840,1,8,0:1:0:0:
341,282,63929,1,8,0:1:0:0:
99,85,64107,21,8,0:1:0:0:
106,72,64197,1,8,0:1:0:0:
114,58,64286,2,0,B|147:111|147:111|106:213|106:213|127:253,1,215.999993408203,14|10,0:2|0:1,0:0:0:0:
228,356,64822,1,2,0:0:0:0:
294,156,65000,1,8,0:0:0:0:
353,307,65179,1,8,0:0:0:0:
234,241,65357,1,10,0:1:0:0:
389,63,65536,1,2,0:0:0:0:
117,66,65715,6,0,B|92:144|92:144|129:235,1,161.999995056153,10|2,0:0|0:0,0:0:0:0:
96,300,66072,2,0,B|113:249|113:249|90:195,1,107.999996704102,8|2,0:1|0:0,0:0:0:0:
0,33,66429,1,10,0:0:0:0:
13,256,66607,1,8,0:0:0:0:
202,100,66786,1,10,0:1:0:0:
251,80,66875,1,2,0:0:0:0:
304,86,66965,1,2,0:0:0:0:
348,116,67054,1,2,0:0:0:0:
373,164,67143,6,0,B|359:232|359:232|373:270|373:270|357:334,1,161.999995056153,10|0,0:2|0:0,0:0:0:0:
353,363,67500,1,10,0:1:0:0:
453,224,67679,1,2,0:0:0:0:
201,330,67857,2,0,B|151:344|151:344|99:322,1,107.999996704102,8|8,0:2|0:2,0:0:0:0:
156,71,68215,1,10,0:1:0:0:
213,221,68393,1,2,0:0:0:0:
385,94,68572,6,0,P|318:75|236:136,1,161.999995056153,10|2,0:2|0:0,0:0:0:0:
156,71,68929,2,0,P|227:98|252:142,1,107.999996704102,8|2,0:1|0:0,0:0:0:0:
322,260,69286,6,0,L|337:353,2,71.9999978027344,10|2|2,0:2|0:0|0:0,0:0:0:0:
373,165,69643,6,0,L|388:72,2,71.9999978027344,10|2|2,0:1|0:0|0:0,0:0:0:0:
218,195,70000,6,0,B|175:173|175:173|59:205|59:205|10:181,1,215.999993408203,10|8,0:2|0:1,0:0:0:0:
71,108,70536,1,8,0:0:0:0:
158,274,70715,2,0,P|156:337|138:391,1,107.999996704102,8|8,0:2|0:0,0:0:0:0:
71,108,71072,2,0,P|56:56|56:2,1,107.999996704102,10|10,0:1|0:0,0:0:0:0:
324,55,71429,6,0,B|286:62|286:62|263:97|263:97|214:106,1,107.999996704102,10|8,0:1|0:1,0:0:0:0:
214,109,71697,1,8,0:1:0:0:
228,115,71786,1,10,0:1:0:0:
382,193,71965,1,8,0:3:0:0:
371,205,72054,1,8,0:3:0:0:
361,218,72143,1,8,0:3:0:0:
258,316,72322,1,4,0:3:0:0:
273,319,72411,1,4,0:3:0:0:
288,322,72500,1,4,0:3:0:0:
414,351,72679,1,10,0:1:0:0:
155,179,72857,6,0,B|118:277|118:277|165:382,1,215.999993408203,14|10,0:2|0:1,0:0:0:0:
491,384,73393,2,0,B|506:332|506:332|480:282,1,107.999996704102,2|8,0:2|0:0,0:0:0:0:
418,28,73750,1,8,0:0:0:0:
340,180,73929,1,10,0:1:0:0:
477,108,74107,1,2,0:2:0:0:
212,95,74286,6,0,B|241:143|241:143|229:257,1,161.999995056153,10|2,0:0|0:2,0:0:0:0:
213,332,74643,2,0,L|194:220,1,107.999996704102,8|2,0:1|0:2,0:0:0:0:
75,140,75000,1,10,0:0:0:0:
11,335,75179,1,8,0:2:0:0:
0,75,75357,1,8,0:1:0:0:
98,260,75536,1,0,0:0:0:0:
330,101,75715,6,0,B|252:93|252:93|212:43|212:43|140:34,1,215.999993408203,10|10,0:2|0:1,0:0:0:0:
512,6,76250,2,0,L|391:25,1,107.999996704102,10|8,0:2|0:2,0:0:0:0:
387,276,76607,1,8,0:2:0:0:
465,129,76786,1,10,0:1:0:0:
511,347,76965,1,2,0:2:0:0:
364,179,77143,6,0,L|180:204,1,161.999995056153,10|2,0:2|0:2,0:0:0:0:
124,212,77500,2,0,L|231:226,1,107.999996704102,8|10,0:1|0:2,0:0:0:0:
98,384,77857,1,8,0:2:0:0:
2,233,78036,1,8,0:2:0:0:
256,52,78215,6,0,P|158:78|98:57,1,161.999995056153,10|0,0:1|0:0,0:0:0:0:
0,83,78572,2,0,P|73:73|138:100,1,107.999996704102,10|8,0:2|0:0,0:0:0:0:
272,248,78929,5,8,0:1:0:0:
371,94,79107,1,8,0:0:0:0:
306,376,79286,1,8,0:2:0:0:
175,102,79465,1,8,0:0:0:0:
141,354,79643,1,10,0:1:0:0:
407,263,79822,1,10,0:0:0:0:
109,14,80000,5,10,0:1:0:0:
57,244,80179,1,8,0:1:0:0:
60,231,80268,1,8,0:1:0:0:
66,220,80357,2,0,P|140:214|175:227,1,107.999996704102,10|8,0:1|0:1,0:0:0:0:
346,94,80715,1,6,0:3:0:0:
343,107,80804,1,4,0:3:0:0:
337,118,80893,2,0,P|263:124|228:111,1,107.999996704102,4|8,0:3|0:1,0:0:0:0:
156,1,81250,1,10,0:1:0:0:
252,256,81429,6,0,B|289:230|289:230|440:272|440:272|476:248,1,233.999989288331,12|8,0:2|0:1,0:0:0:0:
428,178,81965,1,0,0:0:0:0:
166,305,82143,2,0,P|151:255|170:205,1,107.999996704102,8|8,0:0|0:0,0:0:0:0:
58,53,82500,2,0,P|76:102|61:153,1,107.999996704102,8|0,0:1|0:0,0:0:0:0:
295,146,82857,5,8,0:0:0:0:
161,80,83036,1,8,0:0:0:0:
332,352,83215,1,8,0:1:0:0:
475,233,83393,1,0,0:0:0:0:
330,19,83572,1,8,0:0:0:0:
359,229,83750,1,8,0:0:0:0:
512,76,83929,1,8,0:1:0:0:
332,352,84107,2,0,P|321:318|319:295,1,53.9999983520508,8|0,0:0|0:0,0:0:0:0:
359,229,84286,6,0,B|313:256|313:256|250:249,1,107.999996704102,8|8,0:0|0:0,0:0:0:0:
92,225,84643,1,8,0:1:0:0:
206,384,84822,1,8,0:2:0:0:
118,98,85000,1,8,0:1:0:0:
37,320,85179,1,8,0:0:0:0:
278,162,85357,1,8,0:3:0:0:
8,27,85536,5,8,0:1:0:0:
19,38,85625,1,8,0:1:0:0:
30,49,85715,2,0,B|18:104|18:104|46:164,1,107.999996704102,8|8,0:1|0:3,0:0:0:0:
350,213,86071,5,8,0:3:0:0:
289,28,86250,1,4,0:3:0:0:
46,157,86429,5,8,0:3:0:0:
96,353,86607,1,4,0:3:0:0:
478,277,86786,5,4,0:3:0:0:
402,49,86965,1,4,0:3:0:0:
400,60,87054,1,4,0:3:0:0:
398,71,87143,1,14,0:0:0:0:
256,192,87232,12,0,91072,0:0:0:0:
