osu file format v14

[General]
AudioFilename: Kirisute gomen.mp3
AudioLeadIn: 0
PreviewTime: 48007
Countdown: 0
SampleSet: Normal
StackLeniency: 0.7
Mode: 1
LetterboxInBreaks: 0
WidescreenStoryboard: 0

[Editor]
DistanceSpacing: 0.8
BeatDivisor: 4
GridSize: 32
TimelineZoom: 2.6

[Metadata]
Title:Kirisute gomen
TitleUnicode:キリステゴメン
Artist:Harunaba
ArtistUnicode:はるなば
Creator:kiminokokoro
Version:Tanoshii Oni
Source:SOUND VOLTEX IV
Tags:ひなビタ hinabita ここなつ kokonatsu 東雲夏陽 日南結里 斬捨御免 sdvx pop'n music REFLEC BEAT GITADORA jubeat
BeatmapID:1493961
BeatmapSetID:706539

[Difficulty]
HPDrainRate:5
CircleSize:5
OverallDifficulty:6
ApproachRate:5
SliderMultiplier:1.4
SliderTickRate:1

[Events]
//Background and Video events
0,0,"bg.jpg",0,0
//Break Periods
2,85322,90076
2,136091,139307
//Storyboard Layer 0 (Background)
//Storyboard Layer 1 (Fail)
//Storyboard Layer 2 (Pass)
//Storyboard Layer 3 (Foreground)
//Storyboard Sound Samples

[TimingPoints]
507,384.615384615385,4,1,0,100,1,0
6276,-50,4,1,0,100,0,0
6660,-100,4,1,0,100,0,1
18968,-95.2380952380952,4,1,0,100,0,1
19353,-90.9090909090909,4,1,0,100,0,1
19737,-86.9565217391304,4,1,0,100,0,1
20122,-83.3333333333333,4,1,0,100,0,1
22045,-100,4,1,0,100,0,0
48199,-100,4,1,0,100,0,1
72814,-100,4,1,0,100,0,0
85122,-100,4,1,0,100,0,0
91276,-149.925037481259,4,1,0,100,0,0
98872,-100,4,1,0,100,0,0
111276,-100,4,1,0,100,0,1
135891,-100,4,1,0,100,0,0
142045,-100,4,1,0,100,0,1
148199,-100,4,1,0,100,0,0
160507,-100,4,1,0,100,0,1
163583,-100,4,1,0,100,0,0
175891,-100,4,1,0,100,0,1
178968,-100,4,1,0,100,0,0
191276,-100,4,1,0,100,0,1
194353,-100,4,1,0,100,0,0
206660,-100,4,1,0,100,0,0
218968,-100,4,1,0,100,0,1
237430,-100,4,1,0,100,0,1
252814,-100,4,1,0,100,0,0
258583,-50,4,1,0,100,0,0

[HitObjects]
224,192,507,5,0,0:0:0:0:
192,160,1083,1,8,0:0:0:0:
192,160,1180,1,0,0:0:0:0:
160,192,1372,1,0,0:0:0:0:
416,128,1468,1,0,0:0:0:0:
320,192,1660,1,8,0:0:0:0:
320,96,1853,1,0,0:0:0:0:
224,192,2045,1,0,0:0:0:0:
224,160,2237,1,8,0:0:0:0:
96,160,2430,1,0,0:0:0:0:
192,160,2622,1,8,0:0:0:0:
192,160,2718,1,0,0:0:0:0:
128,128,2910,1,0,0:0:0:0:
224,160,3007,1,0,0:0:0:0:
192,160,3103,1,0,0:0:0:0:
320,192,3199,1,8,0:0:0:0:
320,96,3391,1,0,0:0:0:0:
288,160,3776,1,0,0:0:0:0:
192,160,3968,1,8,0:0:0:0:
192,192,4160,1,8,0:0:0:0:
192,96,4257,1,0,0:0:0:0:
320,160,4545,1,8,0:0:0:0:
352,128,4737,1,8,0:0:0:0:
384,96,4930,1,8,0:0:0:0:
288,160,5122,1,0,0:0:0:0:
256,224,5314,1,0,0:0:0:0:
256,288,5507,1,0,0:0:0:0:
224,128,5699,1,0,0:0:0:0:
224,192,5795,1,0,0:0:0:0:
320,128,6276,1,12,0:0:0:0:
320,256,6660,1,0,0:0:0:0:
288,224,6853,1,0,0:0:0:0:
320,160,7045,1,8,0:0:0:0:
320,128,7141,1,0,0:0:0:0:
416,160,7333,1,0,0:0:0:0:
384,128,7430,1,8,0:0:0:0:
448,192,7526,1,0,0:0:0:0:
384,224,7622,1,0,0:0:0:0:
352,256,7718,1,8,0:0:0:0:
288,256,7814,1,0,0:0:0:0:
224,256,7910,1,0,0:0:0:0:
160,256,8007,1,8,0:0:0:0:
256,96,8199,1,0,0:0:0:0:
224,128,8391,1,0,0:0:0:0:
224,128,8583,1,8,0:0:0:0:
224,128,8680,1,0,0:0:0:0:
288,160,8872,1,0,0:0:0:0:
352,160,8968,1,8,0:0:0:0:
224,224,9064,1,0,0:0:0:0:
192,224,9160,1,0,0:0:0:0:
160,224,9257,1,0,0:0:0:0:
160,160,9353,1,8,0:0:0:0:
160,96,9449,1,0,0:0:0:0:
160,96,9545,1,0,0:0:0:0:
192,96,9641,1,8,0:0:0:0:
320,128,9737,1,0,0:0:0:0:
352,160,9930,1,0,0:0:0:0:
192,128,10122,1,8,0:0:0:0:
192,128,10218,1,0,0:0:0:0:
288,224,10410,1,0,0:0:0:0:
288,224,10507,1,8,0:0:0:0:
288,224,10603,1,0,0:0:0:0:
288,192,10699,1,0,0:0:0:0:
288,192,10795,1,8,0:0:0:0:
288,192,10891,1,0,0:0:0:0:
288,192,10987,1,0,0:0:0:0:
288,192,11083,1,8,0:0:0:0:
96,128,11276,1,8,0:0:0:0:
128,128,11372,1,8,0:0:0:0:
160,128,11468,1,0,0:0:0:0:
192,128,11564,1,8,0:0:0:0:
224,128,11660,1,8,0:0:0:0:
352,128,11853,1,0,0:0:0:0:
256,96,11949,1,8,0:0:0:0:
160,160,12045,1,0,0:0:0:0:
320,128,12141,1,8,0:0:0:0:
160,128,12333,1,8,0:0:0:0:
192,128,12430,1,0,0:0:0:0:
192,128,12526,1,8,0:0:0:0:
192,128,12622,1,0,0:0:0:0:
320,256,12814,1,0,0:0:0:0:
320,128,13007,1,0,0:0:0:0:
320,160,13199,1,8,0:0:0:0:
320,128,13295,1,0,0:0:0:0:
416,160,13487,1,0,0:0:0:0:
384,128,13583,1,8,0:0:0:0:
448,192,13680,1,0,0:0:0:0:
384,224,13776,1,0,0:0:0:0:
352,256,13872,1,8,0:0:0:0:
288,256,13968,1,0,0:0:0:0:
224,256,14064,1,0,0:0:0:0:
160,256,14160,1,8,0:0:0:0:
256,96,14353,1,0,0:0:0:0:
288,128,14545,1,0,0:0:0:0:
224,128,14737,1,8,0:0:0:0:
224,128,14833,1,0,0:0:0:0:
288,160,15026,1,0,0:0:0:0:
352,160,15122,1,8,0:0:0:0:
224,224,15218,1,0,0:0:0:0:
192,224,15314,1,0,0:0:0:0:
160,224,15410,1,0,0:0:0:0:
160,160,15507,1,8,0:0:0:0:
160,96,15603,1,0,0:0:0:0:
160,96,15699,1,0,0:0:0:0:
320,128,15795,1,8,0:0:0:0:
320,128,15891,1,0,0:0:0:0:
288,96,16083,1,0,0:0:0:0:
192,128,16276,1,8,0:0:0:0:
192,128,16372,1,0,0:0:0:0:
288,224,16564,1,0,0:0:0:0:
288,224,16660,1,8,0:0:0:0:
288,224,16757,1,0,0:0:0:0:
288,192,16853,1,0,0:0:0:0:
288,192,16949,1,8,0:0:0:0:
288,192,17045,1,0,0:0:0:0:
288,192,17141,1,0,0:0:0:0:
288,192,17237,1,8,0:0:0:0:
160,160,17430,1,8,0:0:0:0:
160,160,17526,1,8,0:0:0:0:
160,160,17622,1,0,0:0:0:0:
192,160,17718,1,8,0:0:0:0:
224,160,17814,1,8,0:0:0:0:
352,128,18007,1,8,0:0:0:0:
352,128,18103,1,0,0:0:0:0:
352,160,18199,1,0,0:0:0:0:
384,160,18295,1,8,0:0:0:0:
384,160,18391,1,0,0:0:0:0:
352,128,18487,1,0,0:0:0:0:
352,160,18583,1,8,0:0:0:0:
192,192,18968,1,4,0:0:0:0:
224,192,19353,1,4,0:0:0:0:
256,192,19737,1,4,0:0:0:0:
352,160,20122,1,12,0:0:0:0:
352,160,20507,1,4,0:0:0:0:
256,192,22045,1,8,0:0:0:0:
224,128,22430,1,8,0:0:0:0:
224,128,22622,1,0,0:0:0:0:
256,160,22814,1,0,0:0:0:0:
192,160,22910,1,0,0:0:0:0:
224,128,23007,1,0,0:0:0:0:
192,160,23103,1,0,0:0:0:0:
320,64,23199,1,8,0:0:0:0:
384,96,23295,1,8,0:0:0:0:
224,128,23583,1,0,0:0:0:0:
256,160,23680,1,0,0:0:0:0:
256,160,23776,1,0,0:0:0:0:
256,160,23968,1,8,0:0:0:0:
256,160,24160,1,8,0:0:0:0:
256,192,24353,1,0,0:0:0:0:
224,192,24545,1,8,0:0:0:0:
256,192,24737,1,0,0:0:0:0:
288,192,24833,1,0,0:0:0:0:
256,192,25122,1,8,0:0:0:0:
224,128,25507,1,8,0:0:0:0:
224,128,25699,1,0,0:0:0:0:
256,160,25891,1,0,0:0:0:0:
192,160,25987,1,8,0:0:0:0:
224,128,26083,1,8,0:0:0:0:
192,160,26180,1,0,0:0:0:0:
320,64,26276,1,8,0:0:0:0:
384,96,26372,1,0,0:0:0:0:
224,128,26660,1,0,0:0:0:0:
256,160,26757,1,0,0:0:0:0:
256,160,26853,1,0,0:0:0:0:
256,160,27045,1,8,0:0:0:0:
256,160,27237,1,8,0:0:0:0:
256,192,27430,1,0,0:0:0:0:
224,160,27526,1,0,0:0:0:0:
224,192,27622,1,8,0:0:0:0:
192,160,27718,1,8,0:0:0:0:
256,192,27814,1,0,0:0:0:0:
288,192,27910,1,8,0:0:0:0:
256,128,28199,1,8,0:0:0:0:
288,128,28391,1,0,0:0:0:0:
320,128,28583,1,8,0:0:0:0:
192,96,28680,1,0,0:0:0:0:
192,128,28776,1,0,0:0:0:0:
288,96,28968,1,8,0:0:0:0:
288,96,29160,1,0,0:0:0:0:
320,128,29353,1,8,0:0:0:0:
352,192,29449,1,0,0:0:0:0:
256,192,29545,1,0,0:0:0:0:
320,192,29737,1,8,0:0:0:0:
352,192,29833,1,8,0:0:0:0:
352,192,29930,1,8,0:0:0:0:
384,192,30026,1,8,0:0:0:0:
320,96,30122,1,0,0:0:0:0:
256,96,30314,1,8,0:0:0:0:
288,160,30507,1,0,0:0:0:0:
288,160,30603,1,0,0:0:0:0:
288,160,30699,1,8,0:0:0:0:
160,160,30795,1,8,0:0:0:0:
192,160,30891,1,0,0:0:0:0:
256,128,31276,1,8,0:0:0:0:
288,128,31468,1,0,0:0:0:0:
320,128,31660,1,8,0:0:0:0:
192,96,31757,1,0,0:0:0:0:
192,128,31853,1,0,0:0:0:0:
288,96,32045,1,8,0:0:0:0:
288,96,32141,1,8,0:0:0:0:
288,96,32237,1,0,0:0:0:0:
256,96,32333,1,0,0:0:0:0:
320,128,32430,1,8,0:0:0:0:
256,192,32622,1,0,0:0:0:0:
192,160,32814,1,8,0:0:0:0:
256,96,32910,1,8,0:0:0:0:
192,160,33007,1,0,0:0:0:0:
224,160,33103,1,8,0:0:0:0:
192,160,33199,1,8,0:0:0:0:
224,160,33391,1,0,0:0:0:0:
288,192,33583,1,0,0:0:0:0:
288,96,33680,1,0,0:0:0:0:
288,192,33776,1,8,0:0:0:0:
288,160,33872,1,0,0:0:0:0:
339,170,33968,1,0,0:0:0:0:
320,128,34064,1,8,0:0:0:0:
320,192,34353,1,0,0:0:0:0:
320,192,34641,1,0,0:0:0:0:
288,128,34930,1,0,0:0:0:0:
256,192,35122,1,0,0:0:0:0:
288,192,35218,1,0,0:0:0:0:
320,192,35314,1,0,0:0:0:0:
384,160,35507,1,0,0:0:0:0:
320,160,35699,1,8,0:0:0:0:
288,160,35795,1,8,0:0:0:0:
224,160,35987,1,0,0:0:0:0:
160,192,36180,1,8,0:0:0:0:
128,192,36276,1,8,0:0:0:0:
128,192,36468,1,0,0:0:0:0:
384,128,36660,1,8,0:0:0:0:
320,160,36853,1,0,0:0:0:0:
192,160,37045,1,0,0:0:0:0:
320,192,37237,1,8,0:0:0:0:
320,192,37333,1,0,0:0:0:0:
320,192,37526,1,0,0:0:0:0:
320,192,37622,1,8,0:0:0:0:
320,256,37718,1,8,0:0:0:0:
352,224,37814,1,0,0:0:0:0:
96,128,37910,1,8,0:0:0:0:
288,160,38007,1,0,0:0:0:0:
192,96,38199,1,8,0:0:0:0:
192,128,38295,1,0,0:0:0:0:
288,128,38391,1,0,0:0:0:0:
160,160,38487,1,8,0:0:0:0:
160,160,38583,1,8,0:0:0:0:
160,160,38680,1,0,0:0:0:0:
160,160,38872,1,8,0:0:0:0:
160,128,38968,1,0,0:0:0:0:
192,128,39064,1,0,0:0:0:0:
192,64,39160,1,8,0:0:0:0:
160,64,39353,1,8,0:0:0:0:
256,192,39545,1,0,0:0:0:0:
192,128,39737,1,8,0:0:0:0:
256,192,39833,1,0,0:0:0:0:
224,96,40026,1,0,0:0:0:0:
320,192,40122,1,8,0:0:0:0:
256,160,40314,1,0,0:0:0:0:
256,160,40410,1,8,0:0:0:0:
256,160,40507,1,0,0:0:0:0:
256,160,40603,1,0,0:0:0:0:
352,160,40699,1,0,0:0:0:0:
256,160,40891,1,0,0:0:0:0:
160,160,41083,1,0,0:0:0:0:
160,160,41180,1,8,0:0:0:0:
64,128,41276,1,0,0:0:0:0:
256,192,41372,1,0,0:0:0:0:
256,160,41564,1,0,0:0:0:0:
384,224,41660,1,8,0:0:0:0:
352,256,41853,1,0,0:0:0:0:
256,192,42045,1,0,0:0:0:0:
256,192,42622,1,0,0:0:0:0:
256,192,42718,1,0,0:0:0:0:
288,192,43007,1,0,0:0:0:0:
256,192,43487,1,0,0:0:0:0:
256,192,44353,1,0,0:0:0:0:
256,192,44449,1,0,0:0:0:0:
288,160,44737,1,0,0:0:0:0:
320,128,44930,1,8,0:0:0:0:
256,128,45122,1,0,0:0:0:0:
256,128,45218,1,0,0:0:0:0:
256,128,45314,1,8,0:0:0:0:
256,128,45410,1,0,0:0:0:0:
256,128,45507,1,8,0:0:0:0:
256,128,45603,1,0,0:0:0:0:
256,128,45699,1,0,0:0:0:0:
256,128,45795,1,8,0:0:0:0:
256,128,45891,1,0,0:0:0:0:
256,128,45987,1,0,0:0:0:0:
256,128,46083,1,8,0:0:0:0:
256,128,46180,1,0,0:0:0:0:
256,128,46276,1,8,0:0:0:0:
256,128,46372,1,0,0:0:0:0:
256,128,46468,1,0,0:0:0:0:
256,128,46564,1,8,0:0:0:0:
256,192,46660,1,0,0:0:0:0:
288,192,46757,1,0,0:0:0:0:
288,192,46853,1,8,0:0:0:0:
288,192,46949,1,0,0:0:0:0:
288,192,47045,1,0,0:0:0:0:
288,192,47141,1,8,0:0:0:0:
288,192,47333,1,8,0:0:0:0:
288,96,47526,1,0,0:0:0:0:
256,96,47622,1,0,0:0:0:0:
288,192,47718,1,8,0:0:0:0:
288,192,47814,1,0,0:0:0:0:
256,192,47910,1,0,0:0:0:0:
352,128,48007,1,8,0:0:0:0:
160,128,48199,1,0,0:0:0:0:
128,32,48583,1,12,0:0:0:0:
192,128,48968,1,0,0:0:0:0:
256,96,49064,1,0,0:0:0:0:
256,192,49257,1,8,0:0:0:0:
320,96,49353,1,8,0:0:0:0:
256,160,49545,1,0,0:0:0:0:
96,160,49641,1,0,0:0:0:0:
160,160,49737,1,8,0:0:0:0:
320,128,49833,1,8,0:0:0:0:
320,128,49930,1,0,0:0:0:0:
288,128,50122,1,8,0:0:0:0:
224,128,50314,1,0,0:0:0:0:
64,128,50410,1,8,0:0:0:0:
288,128,50507,1,0,0:0:0:0:
288,128,50603,1,0,0:0:0:0:
288,128,50699,1,8,0:0:0:0:
288,128,50795,1,0,0:0:0:0:
288,192,50891,1,0,0:0:0:0:
288,96,51083,1,8,0:0:0:0:
256,128,51276,1,0,0:0:0:0:
192,160,51564,1,0,0:0:0:0:
256,96,51660,1,8,0:0:0:0:
224,128,51757,1,8,0:0:0:0:
288,128,51853,1,0,0:0:0:0:
384,256,52045,1,8,0:0:0:0:
352,128,52141,1,0,0:0:0:0:
352,128,52333,1,0,0:0:0:0:
352,128,52430,1,8,0:0:0:0:
256,96,52622,1,8,0:0:0:0:
288,160,52814,1,0,0:0:0:0:
288,160,53007,1,8,0:0:0:0:
256,96,53199,1,0,0:0:0:0:
256,96,53295,1,0,0:0:0:0:
256,96,53391,1,8,0:0:0:0:
224,96,53487,2,0,L|256:128,3,35
256,128,53968,1,8,0:0:0:0:
256,192,54160,1,8,0:0:0:0:
320,192,54353,1,0,0:0:0:0:
320,192,54449,1,0,0:0:0:0:
352,192,54545,1,8,0:0:0:0:
352,192,54641,1,0,0:0:0:0:
320,192,54737,1,0,0:0:0:0:
320,192,54833,1,0,0:0:0:0:
352,192,54930,1,8,0:0:0:0:
352,192,55026,1,0,0:0:0:0:
160,128,55122,1,8,0:0:0:0:
192,128,55218,1,0,0:0:0:0:
192,128,55314,1,0,0:0:0:0:
192,128,55410,1,8,0:0:0:0:
320,192,55507,1,0,0:0:0:0:
320,192,55603,1,0,0:0:0:0:
352,192,55699,1,8,0:0:0:0:
352,192,55795,1,0,0:0:0:0:
160,128,55891,1,8,0:0:0:0:
192,128,55987,1,0,0:0:0:0:
192,128,56083,1,0,0:0:0:0:
192,128,56180,1,8,0:0:0:0:
320,192,56276,1,0,0:0:0:0:
320,192,56372,1,0,0:0:0:0:
352,192,56468,1,8,0:0:0:0:
352,192,56564,1,0,0:0:0:0:
160,128,56660,1,8,0:0:0:0:
192,128,56757,1,0,0:0:0:0:
192,128,56853,1,8,0:0:0:0:
192,128,56949,1,8,0:0:0:0:
320,192,57045,1,0,0:0:0:0:
320,192,57141,1,0,0:0:0:0:
352,192,57237,1,8,0:0:0:0:
352,192,57333,1,0,0:0:0:0:
160,128,57430,1,8,0:0:0:0:
160,128,57526,1,0,0:0:0:0:
192,128,57622,1,0,0:0:0:0:
256,96,57814,1,0,0:0:0:0:
288,128,58007,1,8,0:0:0:0:
192,96,58199,1,0,0:0:0:0:
160,128,58295,1,0,0:0:0:0:
192,96,58391,1,8,0:0:0:0:
192,64,58583,1,8,0:0:0:0:
192,96,58680,1,0,0:0:0:0:
288,96,58776,1,0,0:0:0:0:
256,192,58872,1,8,0:0:0:0:
256,192,58968,1,0,0:0:0:0:
288,160,59064,1,0,0:0:0:0:
256,192,59257,1,8,0:0:0:0:
256,160,59353,1,8,0:0:0:0:
256,192,59545,1,8,0:0:0:0:
256,160,59641,1,0,0:0:0:0:
256,128,59737,1,8,0:0:0:0:
288,128,59833,1,8,0:0:0:0:
288,128,59930,1,0,0:0:0:0:
256,160,60026,1,0,0:0:0:0:
288,128,60122,1,8,0:0:0:0:
96,160,60218,1,8,0:0:0:0:
352,96,60314,1,8,0:0:0:0:
96,160,60410,1,8,0:0:0:0:
160,128,60507,1,0,0:0:0:0:
128,32,60891,1,12,0:0:0:0:
288,128,61276,1,8,0:0:0:0:
288,128,61372,1,8,0:0:0:0:
288,128,61564,1,0,0:0:0:0:
320,160,61660,1,0,0:0:0:0:
224,160,61853,1,8,0:0:0:0:
224,160,61949,1,8,0:0:0:0:
64,128,62045,1,0,0:0:0:0:
128,96,62141,1,8,0:0:0:0:
160,96,62237,1,0,0:0:0:0:
224,96,62430,1,8,0:0:0:0:
352,64,62622,1,0,0:0:0:0:
288,128,62718,1,8,0:0:0:0:
160,192,62814,1,0,0:0:0:0:
160,192,62910,1,0,0:0:0:0:
160,192,63007,1,8,0:0:0:0:
160,192,63103,1,0,0:0:0:0:
160,96,63199,1,0,0:0:0:0:
128,160,63391,1,8,0:0:0:0:
256,192,63583,1,0,0:0:0:0:
224,128,63872,1,0,0:0:0:0:
256,160,63968,1,8,0:0:0:0:
224,160,64064,1,8,0:0:0:0:
192,160,64160,1,0,0:0:0:0:
64,192,64353,1,0,0:0:0:0:
288,128,64449,1,8,0:0:0:0:
288,128,64641,1,8,0:0:0:0:
288,128,64737,1,0,0:0:0:0:
320,96,64930,1,8,0:0:0:0:
320,96,65122,1,0,0:0:0:0:
352,96,65314,1,8,0:0:0:0:
192,128,65507,1,8,0:0:0:0:
192,128,65603,1,8,0:0:0:0:
192,128,65699,1,0,0:0:0:0:
192,160,65795,2,0,L|224:192,3,35
320,128,66276,1,8,0:0:0:0:
480,192,66468,1,8,0:0:0:0:
256,160,66660,1,0,0:0:0:0:
288,160,66757,1,0,0:0:0:0:
288,192,66853,1,8,0:0:0:0:
320,224,67045,1,0,0:0:0:0:
288,224,67141,1,0,0:0:0:0:
320,224,67333,1,0,0:0:0:0:
320,128,67430,1,0,0:0:0:0:
288,128,67526,1,8,0:0:0:0:
352,160,67622,1,8,0:0:0:0:
320,160,67814,1,0,0:0:0:0:
256,160,67910,1,0,0:0:0:0:
416,224,68007,1,8,0:0:0:0:
256,160,68199,1,0,0:0:0:0:
288,192,68391,1,8,0:0:0:0:
256,192,68487,1,0,0:0:0:0:
320,224,68583,1,0,0:0:0:0:
288,224,68680,1,0,0:0:0:0:
352,256,68776,1,8,0:0:0:0:
320,224,68872,1,0,0:0:0:0:
352,160,69064,1,0,0:0:0:0:
352,160,69160,1,8,0:0:0:0:
320,192,69353,1,8,0:0:0:0:
320,128,69545,1,8,0:0:0:0:
320,224,69737,1,0,0:0:0:0:
224,256,70122,1,8,0:0:0:0:
256,224,70314,1,8,0:0:0:0:
224,256,70507,1,0,0:0:0:0:
224,128,70891,1,8,0:0:0:0:
224,128,71083,1,8,0:0:0:0:
288,160,71276,1,0,0:0:0:0:
288,160,71372,1,0,0:0:0:0:
288,160,71468,1,0,0:0:0:0:
288,160,71564,1,0,0:0:0:0:
352,160,71660,1,0,0:0:0:0:
352,160,71757,1,0,0:0:0:0:
352,160,71853,1,0,0:0:0:0:
352,160,71949,1,0,0:0:0:0:
192,192,72045,1,0,0:0:0:0:
256,192,72141,1,0,0:0:0:0:
288,224,72237,1,0,0:0:0:0:
320,224,72333,1,0,0:0:0:0:
320,224,72430,1,8,0:0:0:0:
160,192,72814,1,8,0:0:0:0:
192,160,73007,1,8,0:0:0:0:
256,160,73199,1,0,0:0:0:0:
320,160,73391,1,8,0:0:0:0:
352,224,73583,1,0,0:0:0:0:
320,224,73680,1,0,0:0:0:0:
384,192,73776,1,0,0:0:0:0:
384,192,73968,1,8,0:0:0:0:
384,192,74160,1,0,0:0:0:0:
288,96,74353,1,8,0:0:0:0:
256,96,74449,1,0,0:0:0:0:
224,192,74545,1,8,0:0:0:0:
224,192,74737,1,0,0:0:0:0:
192,224,74930,1,8,0:0:0:0:
320,160,75122,1,0,0:0:0:0:
320,192,75218,1,0,0:0:0:0:
320,192,75314,1,0,0:0:0:0:
320,192,75507,1,8,0:0:0:0:
288,160,75603,1,8,0:0:0:0:
352,192,75699,1,0,0:0:0:0:
224,128,75891,1,8,0:0:0:0:
224,96,76083,1,8,0:0:0:0:
224,96,76276,1,0,0:0:0:0:
224,96,76468,1,8,0:0:0:0:
320,160,76660,1,0,0:0:0:0:
288,160,76757,1,0,0:0:0:0:
320,160,76853,1,0,0:0:0:0:
224,192,77045,1,8,0:0:0:0:
320,224,77237,1,0,0:0:0:0:
160,128,77430,1,8,0:0:0:0:
192,128,77526,1,0,0:0:0:0:
224,96,77622,1,8,0:0:0:0:
288,96,77814,1,0,0:0:0:0:
320,128,78007,1,8,0:0:0:0:
352,128,78199,1,0,0:0:0:0:
352,192,78391,1,0,0:0:0:0:
320,224,78583,1,8,0:0:0:0:
320,256,78776,1,0,0:0:0:0:
96,160,78968,1,8,0:0:0:0:
96,160,79064,1,8,0:0:0:0:
96,160,79160,1,8,0:0:0:0:
128,160,79257,1,0,0:0:0:0:
96,160,79353,1,0,0:0:0:0:
64,128,79545,1,8,0:0:0:0:
288,192,79737,1,0,0:0:0:0:
320,192,79833,1,0,0:0:0:0:
320,192,79930,1,0,0:0:0:0:
352,192,80122,1,8,0:0:0:0:
320,224,80314,1,0,0:0:0:0:
352,224,80507,1,8,0:0:0:0:
256,128,80603,1,0,0:0:0:0:
384,128,80699,1,8,0:0:0:0:
352,128,80795,1,0,0:0:0:0:
384,128,80891,1,0,0:0:0:0:
416,96,81083,1,8,0:0:0:0:
352,160,81276,1,8,0:0:0:0:
320,128,81468,1,0,0:0:0:0:
320,128,81660,1,8,0:0:0:0:
320,128,81853,1,0,0:0:0:0:
192,128,82045,1,8,0:0:0:0:
256,128,82141,1,8,0:0:0:0:
192,96,82237,1,8,0:0:0:0:
192,128,82333,1,0,0:0:0:0:
192,96,82430,1,0,0:0:0:0:
256,96,82622,1,8,0:0:0:0:
192,128,82814,1,8,0:0:0:0:
256,128,82910,1,8,0:0:0:0:
192,96,83007,1,0,0:0:0:0:
192,128,83103,1,0,0:0:0:0:
192,96,83199,1,0,0:0:0:0:
256,96,83391,1,8,0:0:0:0:
352,96,83583,1,0,0:0:0:0:
320,96,83680,1,0,0:0:0:0:
352,128,83776,1,0,0:0:0:0:
352,160,83968,1,8,0:0:0:0:
352,192,84160,1,0,0:0:0:0:
352,224,84353,1,8,0:0:0:0:
352,192,84449,1,0,0:0:0:0:
352,256,84545,1,8,0:0:0:0:
352,224,84641,1,0,0:0:0:0:
352,288,84737,1,0,0:0:0:0:
352,320,84930,1,8,0:0:0:0:
320,160,85122,1,4,0:0:0:0:
192,192,91276,5,0,0:0:0:0:
256,192,91853,1,8,0:0:0:0:
320,192,92045,1,0,0:0:0:0:
288,128,92430,1,8,0:0:0:0:
224,160,92814,1,0,0:0:0:0:
256,128,92910,1,8,0:0:0:0:
288,96,93007,1,0,0:0:0:0:
320,128,93103,1,8,0:0:0:0:
352,160,93199,1,0,0:0:0:0:
416,224,93391,1,8,0:0:0:0:
224,256,93583,1,8,0:0:0:0:
256,224,93680,1,0,0:0:0:0:
288,192,93776,1,8,0:0:0:0:
320,224,93872,1,0,0:0:0:0:
352,256,93968,1,8,0:0:0:0:
416,320,94160,1,0,0:0:0:0:
224,128,94353,1,8,0:0:0:0:
224,160,94737,1,0,0:0:0:0:
256,192,94930,1,8,0:0:0:0:
256,160,95026,1,0,0:0:0:0:
288,160,95122,1,0,0:0:0:0:
320,128,95314,1,0,0:0:0:0:
416,128,95507,1,8,0:0:0:0:
416,96,95699,1,0,0:0:0:0:
384,128,95891,1,0,0:0:0:0:
224,160,96276,1,8,0:0:0:0:
256,192,96468,1,0,0:0:0:0:
256,160,96564,1,8,0:0:0:0:
288,160,96660,1,8,0:0:0:0:
320,128,96853,1,8,0:0:0:0:
416,128,97045,1,0,0:0:0:0:
416,96,97237,1,8,0:0:0:0:
384,128,97430,1,0,0:0:0:0:
224,128,97718,1,0,0:0:0:0:
288,160,98007,1,0,0:0:0:0:
320,160,98295,1,0,0:0:0:0:
320,160,98391,1,0,0:0:0:0:
320,160,98487,1,0,0:0:0:0:
384,160,98583,1,0,0:0:0:0:
448,160,98872,1,8,0:0:0:0:
416,192,98968,1,8,0:0:0:0:
384,96,99160,1,0,0:0:0:0:
384,160,99449,1,8,0:0:0:0:
416,192,99545,1,8,0:0:0:0:
384,224,99737,1,0,0:0:0:0:
384,256,99930,1,8,0:0:0:0:
192,160,100122,1,0,0:0:0:0:
320,192,100314,1,8,0:0:0:0:
320,192,100410,1,0,0:0:0:0:
320,192,100603,1,0,0:0:0:0:
320,192,100699,1,8,0:0:0:0:
352,96,100795,1,8,0:0:0:0:
160,160,100891,1,0,0:0:0:0:
352,128,100987,1,8,0:0:0:0:
288,160,101083,1,0,0:0:0:0:
192,96,101276,1,8,0:0:0:0:
192,128,101372,1,0,0:0:0:0:
288,128,101468,1,0,0:0:0:0:
160,160,101564,1,8,0:0:0:0:
160,160,101660,1,8,0:0:0:0:
160,160,101757,1,0,0:0:0:0:
160,160,101949,1,8,0:0:0:0:
160,128,102045,1,0,0:0:0:0:
128,128,102141,1,0,0:0:0:0:
192,64,102237,1,8,0:0:0:0:
160,64,102430,1,8,0:0:0:0:
256,192,102622,1,0,0:0:0:0:
192,128,102814,1,8,0:0:0:0:
256,192,102910,1,0,0:0:0:0:
224,96,103103,1,0,0:0:0:0:
320,192,103199,1,8,0:0:0:0:
448,224,103391,1,0,0:0:0:0:
416,224,103487,1,8,0:0:0:0:
256,160,103583,1,0,0:0:0:0:
256,128,103680,1,0,0:0:0:0:
352,160,103776,1,0,0:0:0:0:
256,160,103968,1,0,0:0:0:0:
160,160,104160,1,0,0:0:0:0:
160,160,104257,1,8,0:0:0:0:
160,192,104353,1,0,0:0:0:0:
256,192,104449,1,0,0:0:0:0:
256,160,104641,1,0,0:0:0:0:
384,224,104737,1,8,0:0:0:0:
352,256,104930,1,0,0:0:0:0:
256,192,105122,1,0,0:0:0:0:
288,192,105699,1,0,0:0:0:0:
288,192,105795,1,0,0:0:0:0:
352,192,106083,1,0,0:0:0:0:
288,192,106564,1,0,0:0:0:0:
192,128,107430,1,0,0:0:0:0:
224,128,107526,1,0,0:0:0:0:
224,160,107814,1,0,0:0:0:0:
256,160,108007,1,8,0:0:0:0:
256,128,108199,1,0,0:0:0:0:
256,128,108295,1,0,0:0:0:0:
256,128,108391,1,8,0:0:0:0:
256,128,108487,1,0,0:0:0:0:
256,128,108583,1,8,0:0:0:0:
256,128,108680,1,0,0:0:0:0:
256,128,108776,1,0,0:0:0:0:
256,128,108872,1,8,0:0:0:0:
256,128,108968,1,0,0:0:0:0:
256,128,109064,1,0,0:0:0:0:
256,128,109160,1,8,0:0:0:0:
256,128,109257,1,0,0:0:0:0:
256,128,109353,1,8,0:0:0:0:
256,128,109449,1,0,0:0:0:0:
256,128,109545,1,0,0:0:0:0:
256,128,109641,1,8,0:0:0:0:
128,160,109737,1,0,0:0:0:0:
160,160,109833,1,0,0:0:0:0:
224,160,109930,1,8,0:0:0:0:
224,160,110026,1,0,0:0:0:0:
224,128,110122,1,0,0:0:0:0:
224,128,110218,1,8,0:0:0:0:
224,128,110410,1,8,0:0:0:0:
288,96,110603,1,0,0:0:0:0:
256,96,110699,1,0,0:0:0:0:
384,160,110795,1,8,0:0:0:0:
384,160,110891,1,0,0:0:0:0:
352,128,110987,1,0,0:0:0:0:
352,128,111083,1,8,0:0:0:0:
192,160,111276,1,0,0:0:0:0:
256,256,111660,1,12,0:0:0:0:
256,128,112045,1,0,0:0:0:0:
256,128,112141,1,0,0:0:0:0:
256,160,112333,1,8,0:0:0:0:
288,32,112430,1,8,0:0:0:0:
128,96,112622,1,0,0:0:0:0:
128,96,112814,1,8,0:0:0:0:
160,96,112910,1,8,0:0:0:0:
160,96,113007,1,0,0:0:0:0:
224,160,113103,1,8,0:0:0:0:
256,160,113199,1,8,0:0:0:0:
128,128,113295,1,0,0:0:0:0:
256,160,113391,1,0,0:0:0:0:
288,160,113487,2,0,L|320:192,5,35
192,160,114160,1,0,0:0:0:0:
192,160,114353,1,8,0:0:0:0:
288,128,114449,1,0,0:0:0:0:
352,128,114641,1,0,0:0:0:0:
320,128,114737,1,8,0:0:0:0:
288,160,114833,1,8,0:0:0:0:
416,160,114930,1,0,0:0:0:0:
256,128,115122,1,8,0:0:0:0:
288,192,115314,1,0,0:0:0:0:
32,160,115410,1,8,0:0:0:0:
128,128,115507,1,8,0:0:0:0:
288,192,115603,1,8,0:0:0:0:
96,96,115699,1,0,0:0:0:0:
288,192,115795,1,8,0:0:0:0:
288,192,115891,1,0,0:0:0:0:
288,128,116083,1,8,0:0:0:0:
288,128,116276,1,8,0:0:0:0:
288,128,116468,1,0,0:0:0:0:
224,128,116564,1,8,0:0:0:0:
160,160,116660,1,0,0:0:0:0:
160,96,116757,1,0,0:0:0:0:
256,160,116949,1,0,0:0:0:0:
320,160,117045,1,0,0:0:0:0:
224,128,117237,1,8,0:0:0:0:
224,224,117430,1,0,0:0:0:0:
256,224,117526,1,0,0:0:0:0:
288,224,117622,1,8,0:0:0:0:
352,192,117718,1,0,0:0:0:0:
352,192,117814,1,0,0:0:0:0:
352,192,117910,1,0,0:0:0:0:
224,128,118007,1,8,0:0:0:0:
288,128,118103,1,0,0:0:0:0:
352,128,118199,1,8,0:0:0:0:
352,128,118295,1,0,0:0:0:0:
352,128,118391,1,0,0:0:0:0:
416,160,118487,1,8,0:0:0:0:
416,160,118583,1,0,0:0:0:0:
416,160,118680,1,0,0:0:0:0:
384,160,118776,1,8,0:0:0:0:
384,160,118872,1,0,0:0:0:0:
160,128,118968,1,8,0:0:0:0:
192,128,119064,1,0,0:0:0:0:
192,128,119160,1,0,0:0:0:0:
192,128,119257,1,8,0:0:0:0:
320,192,119353,1,0,0:0:0:0:
320,192,119449,1,0,0:0:0:0:
352,192,119545,1,8,0:0:0:0:
352,192,119641,1,0,0:0:0:0:
160,128,119737,1,8,0:0:0:0:
192,128,119833,1,0,0:0:0:0:
192,128,119930,1,8,0:0:0:0:
192,128,120026,1,0,0:0:0:0:
320,192,120122,1,8,0:0:0:0:
320,192,120218,1,0,0:0:0:0:
352,192,120314,1,0,0:0:0:0:
160,128,120507,1,0,0:0:0:0:
160,128,120603,1,0,0:0:0:0:
192,128,120699,1,0,0:0:0:0:
384,128,120891,1,8,0:0:0:0:
384,160,120987,1,8,0:0:0:0:
448,128,121083,1,8,0:0:0:0:
384,192,121276,1,0,0:0:0:0:
384,192,121372,1,0,0:0:0:0:
448,192,121468,1,0,0:0:0:0:
384,224,121660,1,8,0:0:0:0:
416,224,121757,1,0,0:0:0:0:
416,224,121853,1,0,0:0:0:0:
320,160,121949,1,8,0:0:0:0:
256,192,122045,1,0,0:0:0:0:
288,192,122141,1,0,0:0:0:0:
256,192,122333,1,8,0:0:0:0:
224,160,122430,1,8,0:0:0:0:
256,192,122622,1,8,0:0:0:0:
256,160,122718,1,0,0:0:0:0:
320,160,122814,1,8,0:0:0:0:
320,160,122910,1,8,0:0:0:0:
288,160,123007,1,0,0:0:0:0:
352,192,123103,1,0,0:0:0:0:
192,160,123199,1,8,0:0:0:0:
205,135,123295,1,8,0:0:0:0:
256,192,123391,1,8,0:0:0:0:
256,160,123487,1,8,0:0:0:0:
288,192,123583,1,0,0:0:0:0:
352,160,123968,1,12,0:0:0:0:
352,160,124353,1,8,0:0:0:0:
352,160,124449,1,0,0:0:0:0:
288,96,124641,1,0,0:0:0:0:
384,128,124737,1,8,0:0:0:0:
256,160,124930,1,0,0:0:0:0:
128,96,125122,1,8,0:0:0:0:
192,160,125218,1,8,0:0:0:0:
192,160,125314,1,0,0:0:0:0:
192,128,125410,1,8,0:0:0:0:
192,128,125507,1,8,0:0:0:0:
128,160,125699,1,8,0:0:0:0:
160,160,125795,1,0,0:0:0:0:
224,128,125891,1,8,0:0:0:0:
224,128,125987,1,8,0:0:0:0:
224,128,126083,1,0,0:0:0:0:
224,128,126180,1,8,0:0:0:0:
224,160,126276,1,8,0:0:0:0:
288,96,126468,1,0,0:0:0:0:
256,160,126660,1,0,0:0:0:0:
352,160,126949,1,0,0:0:0:0:
320,128,127045,1,8,0:0:0:0:
256,128,127237,1,0,0:0:0:0:
224,128,127333,1,8,0:0:0:0:
256,128,127430,1,8,0:0:0:0:
256,128,127526,1,0,0:0:0:0:
320,96,127718,1,8,0:0:0:0:
352,128,127814,1,0,0:0:0:0:
320,96,128007,1,0,0:0:0:0:
224,128,128199,1,0,0:0:0:0:
224,160,128295,1,8,0:0:0:0:
224,128,128391,1,0,0:0:0:0:
256,160,128487,1,0,0:0:0:0:
224,128,128583,1,8,0:0:0:0:
192,128,128680,1,0,0:0:0:0:
224,256,128776,1,0,0:0:0:0:
128,128,128872,1,8,0:0:0:0:
288,128,129353,1,8,0:0:0:0:
288,128,129545,1,8,0:0:0:0:
224,224,129737,1,0,0:0:0:0:
256,224,129833,1,0,0:0:0:0:
288,224,129930,1,8,0:0:0:0:
352,192,130026,1,0,0:0:0:0:
352,192,130122,1,0,0:0:0:0:
352,192,130218,1,0,0:0:0:0:
224,128,130314,1,8,0:0:0:0:
288,128,130410,1,0,0:0:0:0:
352,128,130507,1,8,0:0:0:0:
352,128,130603,1,0,0:0:0:0:
352,128,130699,1,0,0:0:0:0:
416,160,130795,1,8,0:0:0:0:
416,160,130891,1,0,0:0:0:0:
416,160,130987,1,0,0:0:0:0:
384,160,131083,1,8,0:0:0:0:
384,160,131180,1,0,0:0:0:0:
160,128,131276,1,8,0:0:0:0:
192,128,131372,1,0,0:0:0:0:
192,128,131468,1,0,0:0:0:0:
192,128,131564,1,8,0:0:0:0:
320,192,131660,1,0,0:0:0:0:
320,192,131757,1,0,0:0:0:0:
352,192,131853,1,8,0:0:0:0:
352,192,131949,1,0,0:0:0:0:
160,128,132045,1,8,0:0:0:0:
192,128,132141,1,0,0:0:0:0:
192,128,132237,1,8,0:0:0:0:
192,128,132333,1,0,0:0:0:0:
320,192,132430,1,8,0:0:0:0:
320,192,132526,1,0,0:0:0:0:
352,192,132622,1,0,0:0:0:0:
256,96,132814,1,0,0:0:0:0:
256,192,133199,1,8,0:0:0:0:
256,192,133391,1,8,0:0:0:0:
320,192,133583,1,0,0:0:0:0:
288,224,133968,1,8,0:0:0:0:
320,224,134160,1,8,0:0:0:0:
256,128,134353,1,8,0:0:0:0:
256,128,134449,1,0,0:0:0:0:
256,128,134545,1,0,0:0:0:0:
256,128,134641,1,8,0:0:0:0:
256,128,134737,1,0,0:0:0:0:
256,128,134833,1,0,0:0:0:0:
256,128,134930,1,8,0:0:0:0:
256,128,135026,1,0,0:0:0:0:
256,128,135122,1,0,0:0:0:0:
256,128,135218,1,8,0:0:0:0:
256,128,135314,1,0,0:0:0:0:
256,128,135410,1,0,0:0:0:0:
256,128,135507,1,8,0:0:0:0:
256,128,135603,1,0,0:0:0:0:
256,128,135699,1,8,0:0:0:0:
256,128,135795,1,8,0:0:0:0:
256,128,135891,1,0,0:0:0:0:
320,128,140507,5,8,0:0:0:0:
288,128,140603,1,0,0:0:0:0:
320,128,140795,1,0,0:0:0:0:
320,128,140891,1,8,0:0:0:0:
288,128,140987,1,0,0:0:0:0:
288,128,141083,1,0,0:0:0:0:
288,128,141276,1,0,0:0:0:0:
256,96,141372,1,8,0:0:0:0:
224,96,141468,1,0,0:0:0:0:
192,96,141564,1,8,0:0:0:0:
192,128,141660,1,0,0:0:0:0:
192,96,141757,1,8,0:0:0:0:
160,128,141853,1,0,0:0:0:0:
256,192,142045,5,0,0:0:0:0:
224,192,142141,1,8,0:0:0:0:
256,192,142237,1,0,0:0:0:0:
256,192,142333,1,0,0:0:0:0:
256,192,142430,1,8,0:0:0:0:
233,176,142526,1,0,0:0:0:0:
320,192,142622,1,0,0:0:0:0:
384,192,142814,1,8,0:0:0:0:
384,192,142910,1,0,0:0:0:0:
448,192,143007,1,0,0:0:0:0:
448,192,143103,1,8,0:0:0:0:
448,256,143199,1,0,0:0:0:0:
256,160,143295,1,0,0:0:0:0:
448,320,143391,1,8,0:0:0:0:
256,224,143583,1,0,0:0:0:0:
224,256,143680,1,0,0:0:0:0:
160,256,143776,1,8,0:0:0:0:
256,160,143872,1,0,0:0:0:0:
256,160,143968,1,8,0:0:0:0:
224,192,144064,1,8,0:0:0:0:
224,128,144257,1,0,0:0:0:0:
288,128,144353,1,8,0:0:0:0:
224,160,144449,1,0,0:0:0:0:
256,128,144545,1,0,0:0:0:0:
256,128,144641,1,0,0:0:0:0:
224,128,144737,1,8,0:0:0:0:
256,128,144833,1,8,0:0:0:0:
288,192,144930,1,0,0:0:0:0:
256,192,145026,1,0,0:0:0:0:
224,192,145122,1,8,0:0:0:0:
224,160,145314,1,8,0:0:0:0:
192,128,145378,1,0,0:0:0:0:
160,128,145442,1,0,0:0:0:0:
192,192,145507,1,8,0:0:0:0:
160,192,145699,1,0,0:0:0:0:
288,160,145763,1,0,0:0:0:0:
288,160,145827,1,0,0:0:0:0:
160,160,145891,1,8,0:0:0:0:
160,160,145987,1,8,0:0:0:0:
160,128,146083,1,0,0:0:0:0:
160,128,146180,1,8,0:0:0:0:
256,160,146276,1,0,0:0:0:0:
256,128,146372,1,8,0:0:0:0:
192,128,146468,1,0,0:0:0:0:
224,128,146564,1,8,0:0:0:0:
192,192,146660,1,8,0:0:0:0:
256,160,146853,1,8,0:0:0:0:
256,224,147045,1,0,0:0:0:0:
256,96,147237,1,8,0:0:0:0:
192,128,147430,1,0,0:0:0:0:
224,128,147494,1,0,0:0:0:0:
256,128,147558,1,0,0:0:0:0:
256,128,147622,1,0,0:0:0:0:
256,160,147814,1,8,0:0:0:0:
224,160,147878,1,0,0:0:0:0:
192,160,147942,1,0,0:0:0:0:
228,154,148007,1,0,0:0:0:0:
320,224,148199,1,0,0:0:0:0:
320,224,148391,1,0,0:0:0:0:
320,224,148583,1,8,0:0:0:0:
288,192,148776,1,0,0:0:0:0:
224,192,148872,1,8,0:0:0:0:
224,192,149064,1,8,0:0:0:0:
224,192,149160,1,0,0:0:0:0:
256,128,149353,1,8,0:0:0:0:
256,128,149449,1,0,0:0:0:0:
256,128,149545,1,0,0:0:0:0:
256,128,149641,1,8,0:0:0:0:
256,160,149737,1,0,0:0:0:0:
288,256,149930,1,0,0:0:0:0:
320,192,150026,1,0,0:0:0:0:
288,96,150122,1,8,0:0:0:0:
384,256,150314,1,0,0:0:0:0:
352,256,150410,1,8,0:0:0:0:
192,192,150603,1,8,0:0:0:0:
224,192,150699,1,0,0:0:0:0:
256,64,150891,1,8,0:0:0:0:
256,160,150987,1,0,0:0:0:0:
256,160,151083,1,0,0:0:0:0:
256,160,151180,1,0,0:0:0:0:
256,160,151276,1,0,0:0:0:0:
288,192,151468,1,0,0:0:0:0:
256,64,151660,1,8,0:0:0:0:
352,256,151853,1,0,0:0:0:0:
320,256,151949,1,8,0:0:0:0:
288,128,152141,1,8,0:0:0:0:
256,224,152237,1,0,0:0:0:0:
288,192,152430,1,8,0:0:0:0:
224,160,152526,1,0,0:0:0:0:
224,160,152622,1,0,0:0:0:0:
288,160,152814,1,0,0:0:0:0:
224,160,152910,1,0,0:0:0:0:
288,160,153007,1,0,0:0:0:0:
320,192,153103,1,8,0:0:0:0:
288,192,153199,1,0,0:0:0:0:
256,192,153295,1,0,0:0:0:0:
320,96,153391,1,0,0:0:0:0:
320,192,153487,1,8,0:0:0:0:
320,160,153583,1,0,0:0:0:0:
288,160,153680,1,0,0:0:0:0:
256,160,153776,1,0,0:0:0:0:
256,128,153872,1,8,0:0:0:0:
288,128,153968,1,0,0:0:0:0:
288,128,154160,1,0,0:0:0:0:
320,192,154353,1,8,0:0:0:0:
288,192,154545,1,8,0:0:0:0:
288,192,154641,1,8,0:0:0:0:
288,192,154737,1,0,0:0:0:0:
256,128,154930,1,8,0:0:0:0:
256,128,155026,1,8,0:0:0:0:
256,128,155122,1,0,0:0:0:0:
288,128,155314,1,8,0:0:0:0:
288,128,155507,1,8,0:0:0:0:
288,128,155603,1,8,0:0:0:0:
288,128,155699,1,8,0:0:0:0:
288,128,155795,1,8,0:0:0:0:
288,128,155891,1,0,0:0:0:0:
288,128,156083,1,8,0:0:0:0:
288,128,156276,1,8,0:0:0:0:
288,128,156372,1,8,0:0:0:0:
288,128,156468,1,8,0:0:0:0:
288,128,156564,1,8,0:0:0:0:
288,128,156660,1,0,0:0:0:0:
288,128,156853,1,8,0:0:0:0:
384,160,157045,1,8,0:0:0:0:
384,160,157141,1,8,0:0:0:0:
384,160,157237,1,8,0:0:0:0:
384,160,157333,1,8,0:0:0:0:
352,160,157430,1,0,0:0:0:0:
192,192,157622,1,0,0:0:0:0:
256,192,157718,1,0,0:0:0:0:
192,192,157814,1,8,0:0:0:0:
288,128,157910,1,8,0:0:0:0:
256,128,158007,1,0,0:0:0:0:
224,128,158199,1,0,0:0:0:0:
224,128,158391,1,0,0:0:0:0:
224,128,158583,1,8,0:0:0:0:
192,160,158680,1,8,0:0:0:0:
224,128,158776,1,0,0:0:0:0:
192,160,158872,1,0,0:0:0:0:
192,160,158968,1,8,0:0:0:0:
288,160,159160,1,0,0:0:0:0:
192,160,159353,1,8,0:0:0:0:
224,160,159449,1,8,0:0:0:0:
224,160,159545,1,0,0:0:0:0:
288,160,159737,1,8,0:0:0:0:
288,160,159930,1,0,0:0:0:0:
352,160,160122,1,8,0:0:0:0:
352,160,160314,1,8,0:0:0:0:
160,192,160507,1,0,0:0:0:0:
192,96,160603,1,0,0:0:0:0:
160,192,160699,1,0,0:0:0:0:
320,128,160891,1,8,0:0:0:0:
352,128,160987,1,8,0:0:0:0:
320,160,161083,1,0,0:0:0:0:
320,160,161180,1,8,0:0:0:0:
256,128,161276,1,0,0:0:0:0:
224,160,161372,1,0,0:0:0:0:
256,128,161468,1,0,0:0:0:0:
224,160,161660,1,8,0:0:0:0:
224,128,161757,1,0,0:0:0:0:
224,128,161853,1,0,0:0:0:0:
320,192,162045,1,8,0:0:0:0:
288,192,162141,1,0,0:0:0:0:
288,192,162237,1,0,0:0:0:0:
352,160,162333,1,8,0:0:0:0:
256,128,162430,1,0,0:0:0:0:
256,128,162526,1,0,0:0:0:0:
256,128,162622,1,8,0:0:0:0:
288,96,162718,1,0,0:0:0:0:
288,96,162814,1,8,0:0:0:0:
288,96,162910,1,0,0:0:0:0:
288,96,163007,1,0,0:0:0:0:
288,96,163103,1,8,0:0:0:0:
288,32,163199,1,0,0:0:0:0:
320,160,163295,1,0,0:0:0:0:
256,192,163391,1,8,0:0:0:0:
288,160,163487,1,0,0:0:0:0:
288,128,163583,1,8,0:0:0:0:
256,192,164353,1,8,0:0:0:0:
256,192,164641,1,8,0:0:0:0:
288,224,164737,1,0,0:0:0:0:
256,192,164930,1,8,0:0:0:0:
288,256,165122,1,0,0:0:0:0:
288,192,165314,1,8,0:0:0:0:
256,160,165507,1,0,0:0:0:0:
224,128,165699,1,8,0:0:0:0:
288,160,165795,1,0,0:0:0:0:
256,160,165891,1,0,0:0:0:0:
256,128,165987,1,0,0:0:0:0:
352,192,166180,1,8,0:0:0:0:
352,192,166276,1,0,0:0:0:0:
343,165,166468,1,8,0:0:0:0:
287,158,166660,1,0,0:0:0:0:
259,153,166757,1,0,0:0:0:0:
179,123,167045,1,8,0:0:0:0:
175,146,167237,1,0,0:0:0:0:
289,180,167622,1,8,0:0:0:0:
228,197,168007,1,0,0:0:0:0:
250,180,168103,1,0,0:0:0:0:
288,160,168199,1,0,0:0:0:0:
138,129,168391,1,8,0:0:0:0:
358,170,168583,1,8,0:0:0:0:
301,174,168776,1,0,0:0:0:0:
273,176,168872,1,0,0:0:0:0:
358,170,169160,1,8,0:0:0:0:
192,192,169737,1,12,0:0:0:0:
64,192,170122,1,0,0:0:0:0:
128,192,170314,1,0,0:0:0:0:
192,192,170507,1,8,0:0:0:0:
224,192,170603,1,8,0:0:0:0:
256,160,170795,1,0,0:0:0:0:
256,160,170891,1,8,0:0:0:0:
256,224,171083,1,0,0:0:0:0:
256,160,171276,1,8,0:0:0:0:
256,128,171372,1,8,0:0:0:0:
256,128,171564,1,0,0:0:0:0:
256,128,171660,1,0,0:0:0:0:
224,160,171853,1,0,0:0:0:0:
160,160,172045,1,0,0:0:0:0:
160,160,172141,1,0,0:0:0:0:
192,160,172237,1,8,0:0:0:0:
224,192,172333,1,8,0:0:0:0:
224,192,172430,1,0,0:0:0:0:
224,192,172526,1,0,0:0:0:0:
224,192,172622,1,8,0:0:0:0:
192,192,172718,1,8,0:0:0:0:
160,192,172814,2,0,L|192:224,6,35
288,160,173776,1,8,0:0:0:0:
288,160,173968,1,0,0:0:0:0:
256,192,174160,1,0,0:0:0:0:
192,192,174353,1,0,0:0:0:0:
224,192,174449,1,0,0:0:0:0:
224,192,174545,1,8,0:0:0:0:
224,192,174641,1,0,0:0:0:0:
256,192,174737,1,8,0:0:0:0:
288,192,174833,1,0,0:0:0:0:
320,160,174930,1,0,0:0:0:0:
320,160,175026,1,8,0:0:0:0:
288,160,175122,1,0,0:0:0:0:
256,128,175218,1,0,0:0:0:0:
256,128,175314,1,0,0:0:0:0:
192,224,175507,1,8,0:0:0:0:
224,192,175699,1,8,0:0:0:0:
160,192,175891,1,0,0:0:0:0:
192,96,175987,1,0,0:0:0:0:
160,192,176083,1,0,0:0:0:0:
320,128,176276,1,8,0:0:0:0:
352,128,176372,1,8,0:0:0:0:
320,160,176468,1,0,0:0:0:0:
320,160,176564,1,8,0:0:0:0:
256,128,176660,1,0,0:0:0:0:
224,160,176757,1,0,0:0:0:0:
256,128,176853,1,0,0:0:0:0:
224,160,177045,1,8,0:0:0:0:
224,128,177141,1,0,0:0:0:0:
224,128,177237,1,0,0:0:0:0:
320,192,177430,1,8,0:0:0:0:
288,192,177526,1,0,0:0:0:0:
288,192,177622,1,0,0:0:0:0:
352,160,177718,1,8,0:0:0:0:
256,128,177814,1,0,0:0:0:0:
256,128,177910,1,0,0:0:0:0:
256,128,178007,1,8,0:0:0:0:
288,96,178103,1,0,0:0:0:0:
288,96,178199,1,8,0:0:0:0:
288,96,178295,1,0,0:0:0:0:
288,96,178391,1,0,0:0:0:0:
288,96,178487,1,8,0:0:0:0:
288,32,178583,1,0,0:0:0:0:
320,160,178680,1,0,0:0:0:0:
256,192,178776,1,8,0:0:0:0:
288,160,178872,1,0,0:0:0:0:
256,160,178968,1,8,0:0:0:0:
256,192,179737,1,8,0:0:0:0:
256,192,179833,1,8,0:0:0:0:
256,192,180026,1,8,0:0:0:0:
288,224,180122,1,0,0:0:0:0:
256,192,180314,1,8,0:0:0:0:
288,256,180507,1,0,0:0:0:0:
288,192,180699,1,8,0:0:0:0:
256,160,180891,1,0,0:0:0:0:
224,128,181083,1,8,0:0:0:0:
288,160,181180,1,0,0:0:0:0:
288,128,181276,1,0,0:0:0:0:
320,160,181372,1,0,0:0:0:0:
288,160,181564,1,8,0:0:0:0:
352,192,181660,1,0,0:0:0:0:
343,165,181853,1,8,0:0:0:0:
289,180,182045,1,0,0:0:0:0:
317,182,182141,1,0,0:0:0:0:
235,198,182237,1,0,0:0:0:0:
235,198,182430,1,8,0:0:0:0:
280,230,182622,1,0,0:0:0:0:
289,180,183007,1,8,0:0:0:0:
317,182,183199,1,0,0:0:0:0:
228,197,183391,1,0,0:0:0:0:
250,180,183487,1,0,0:0:0:0:
288,160,183583,1,0,0:0:0:0:
138,129,183776,1,8,0:0:0:0:
358,170,183968,1,8,0:0:0:0:
301,174,184160,1,0,0:0:0:0:
273,176,184257,1,0,0:0:0:0:
352,96,184737,1,8,0:0:0:0:
320,128,184930,1,8,0:0:0:0:
301,174,185122,1,0,0:0:0:0:
301,174,185218,1,0,0:0:0:0:
301,174,185410,1,8,0:0:0:0:
301,174,185507,1,8,0:0:0:0:
301,174,185699,1,0,0:0:0:0:
256,192,185891,1,0,0:0:0:0:
256,192,185987,1,8,0:0:0:0:
256,192,186180,1,8,0:0:0:0:
256,192,186276,1,0,0:0:0:0:
288,128,186468,1,8,0:0:0:0:
352,128,186660,1,0,0:0:0:0:
320,160,186757,1,0,0:0:0:0:
288,160,186853,1,0,0:0:0:0:
256,160,187045,1,8,0:0:0:0:
192,160,187237,1,0,0:0:0:0:
224,160,187333,1,0,0:0:0:0:
224,96,187622,1,8,0:0:0:0:
288,160,187814,1,8,0:0:0:0:
288,160,188007,1,0,0:0:0:0:
224,160,188199,2,0,L|160:160,6,35
352,192,189160,1,8,0:0:0:0:
416,192,189353,1,8,0:0:0:0:
352,192,189545,1,0,0:0:0:0:
320,128,189737,2,0,L|352:160,8,35
192,224,190891,1,8,0:0:0:0:
224,192,191083,1,8,0:0:0:0:
160,192,191276,1,0,0:0:0:0:
192,96,191372,1,0,0:0:0:0:
160,192,191468,1,0,0:0:0:0:
320,128,191660,1,8,0:0:0:0:
352,128,191757,1,8,0:0:0:0:
320,160,191853,1,0,0:0:0:0:
320,160,191949,1,8,0:0:0:0:
256,128,192045,1,0,0:0:0:0:
224,160,192141,1,0,0:0:0:0:
256,128,192237,1,0,0:0:0:0:
224,160,192430,1,8,0:0:0:0:
224,128,192526,1,0,0:0:0:0:
224,128,192622,1,0,0:0:0:0:
320,192,192814,1,8,0:0:0:0:
288,192,192910,1,0,0:0:0:0:
288,192,193007,1,0,0:0:0:0:
352,160,193103,1,8,0:0:0:0:
256,128,193199,1,0,0:0:0:0:
256,128,193295,1,0,0:0:0:0:
256,128,193391,1,8,0:0:0:0:
288,96,193487,1,0,0:0:0:0:
288,96,193583,1,8,0:0:0:0:
288,96,193680,1,0,0:0:0:0:
288,96,193776,1,0,0:0:0:0:
288,96,193872,1,8,0:0:0:0:
288,32,193968,1,0,0:0:0:0:
320,160,194064,1,0,0:0:0:0:
256,192,194160,1,8,0:0:0:0:
288,160,194257,1,0,0:0:0:0:
256,160,194353,1,8,0:0:0:0:
256,128,195891,1,12,0:0:0:0:
288,224,196468,1,12,0:0:0:0:
256,192,196853,1,12,0:0:0:0:
320,224,197430,1,12,0:0:0:0:
256,192,198968,1,8,0:0:0:0:
256,192,199064,1,8,0:0:0:0:
256,192,199257,1,8,0:0:0:0:
256,192,199353,1,8,0:0:0:0:
320,192,199545,1,8,0:0:0:0:
320,192,199641,1,8,0:0:0:0:
384,192,199833,1,8,0:0:0:0:
448,224,200026,1,8,0:0:0:0:
448,224,200218,1,8,0:0:0:0:
320,256,200507,1,0,0:0:0:0:
320,128,200699,1,0,0:0:0:0:
320,160,200891,1,8,0:0:0:0:
320,128,200987,1,0,0:0:0:0:
416,160,201180,1,0,0:0:0:0:
384,128,201276,1,8,0:0:0:0:
448,192,201372,1,0,0:0:0:0:
384,224,201468,1,0,0:0:0:0:
352,256,201564,1,8,0:0:0:0:
288,256,201660,1,0,0:0:0:0:
224,256,201757,1,0,0:0:0:0:
160,256,201853,1,8,0:0:0:0:
256,96,202045,1,0,0:0:0:0:
288,128,202237,1,0,0:0:0:0:
224,128,202430,1,8,0:0:0:0:
224,128,202526,1,0,0:0:0:0:
288,160,202718,1,0,0:0:0:0:
352,160,202814,1,8,0:0:0:0:
224,224,202910,1,0,0:0:0:0:
192,224,203007,1,0,0:0:0:0:
160,224,203103,1,0,0:0:0:0:
160,160,203199,1,8,0:0:0:0:
160,96,203295,1,0,0:0:0:0:
160,96,203391,1,0,0:0:0:0:
320,128,203487,1,8,0:0:0:0:
320,128,203583,1,0,0:0:0:0:
288,96,203776,1,0,0:0:0:0:
192,128,203968,1,8,0:0:0:0:
192,128,204064,1,0,0:0:0:0:
288,224,204257,1,0,0:0:0:0:
288,224,204353,1,8,0:0:0:0:
288,224,204449,1,0,0:0:0:0:
288,192,204545,1,0,0:0:0:0:
288,192,204641,1,8,0:0:0:0:
288,192,204737,1,0,0:0:0:0:
288,192,204833,1,0,0:0:0:0:
288,192,204930,1,8,0:0:0:0:
160,160,205122,1,8,0:0:0:0:
160,160,205218,1,8,0:0:0:0:
160,160,205314,1,0,0:0:0:0:
192,160,205410,1,8,0:0:0:0:
224,160,205507,1,8,0:0:0:0:
352,128,205699,1,8,0:0:0:0:
352,128,205795,1,0,0:0:0:0:
352,160,205891,1,0,0:0:0:0:
384,160,205987,1,8,0:0:0:0:
384,160,206083,1,0,0:0:0:0:
384,160,206180,1,0,0:0:0:0:
352,160,206276,1,8,0:0:0:0:
256,192,206660,1,12,0:0:0:0:
256,192,209353,1,8,0:0:0:0:
288,192,209545,1,8,0:0:0:0:
288,192,209737,1,0,0:0:0:0:
288,192,209833,1,0,0:0:0:0:
288,192,209930,1,0,0:0:0:0:
288,192,210026,1,0,0:0:0:0:
352,192,210122,1,8,0:0:0:0:
352,192,210218,1,8,0:0:0:0:
352,192,210314,1,8,0:0:0:0:
352,192,210410,1,8,0:0:0:0:
416,192,210507,1,0,0:0:0:0:
416,192,210603,1,0,0:0:0:0:
416,192,210699,1,8,0:0:0:0:
416,192,210795,1,0,0:0:0:0:
480,192,210891,1,8,0:0:0:0:
480,192,210987,1,0,0:0:0:0:
480,192,211083,1,0,0:0:0:0:
256,224,211276,1,8,0:0:0:0:
256,160,211468,1,0,0:0:0:0:
320,192,211660,1,8,0:0:0:0:
320,160,211853,1,0,0:0:0:0:
320,160,211949,1,8,0:0:0:0:
64,128,212430,1,8,0:0:0:0:
224,160,212622,1,8,0:0:0:0:
320,192,212814,1,0,0:0:0:0:
320,192,212910,1,0,0:0:0:0:
320,192,213007,1,0,0:0:0:0:
416,192,213199,1,8,0:0:0:0:
448,192,213295,1,0,0:0:0:0:
384,192,213391,1,0,0:0:0:0:
320,192,213583,1,0,0:0:0:0:
320,192,213680,1,0,0:0:0:0:
320,192,213776,1,0,0:0:0:0:
416,192,213968,1,8,0:0:0:0:
448,192,214064,1,0,0:0:0:0:
384,192,214160,1,0,0:0:0:0:
320,192,214353,1,0,0:0:0:0:
320,192,214449,1,0,0:0:0:0:
320,192,214545,1,0,0:0:0:0:
416,192,214737,1,8,0:0:0:0:
416,224,214833,1,0,0:0:0:0:
384,192,214930,1,0,0:0:0:0:
352,192,215026,1,8,0:0:0:0:
320,192,215122,1,0,0:0:0:0:
320,192,215218,1,0,0:0:0:0:
320,192,215314,1,8,0:0:0:0:
416,192,215507,1,0,0:0:0:0:
416,160,215603,1,0,0:0:0:0:
384,192,215699,1,8,0:0:0:0:
320,160,215891,1,0,0:0:0:0:
352,160,215987,1,0,0:0:0:0:
320,160,216180,1,8,0:0:0:0:
288,160,216276,1,0,0:0:0:0:
320,160,216372,1,0,0:0:0:0:
352,128,216468,1,8,0:0:0:0:
352,128,216660,1,0,0:0:0:0:
256,160,216757,1,0,0:0:0:0:
416,128,216853,1,8,0:0:0:0:
384,128,216949,1,0,0:0:0:0:
352,128,217045,1,8,0:0:0:0:
256,160,217141,1,0,0:0:0:0:
320,96,217237,1,0,0:0:0:0:
224,128,217430,1,8,0:0:0:0:
256,128,217526,1,0,0:0:0:0:
256,128,217622,1,0,0:0:0:0:
224,96,217718,1,8,0:0:0:0:
256,128,217814,1,0,0:0:0:0:
256,128,217910,1,0,0:0:0:0:
224,128,218007,1,8,0:0:0:0:
256,128,218103,1,0,0:0:0:0:
256,192,218199,1,8,0:0:0:0:
256,192,218263,1,8,0:0:0:0:
224,192,218327,1,0,0:0:0:0:
256,128,218391,1,0,0:0:0:0:
256,192,218583,1,8,0:0:0:0:
224,192,218680,1,0,0:0:0:0:
192,192,218776,1,0,0:0:0:0:
160,192,218872,1,8,0:0:0:0:
192,192,218968,1,0,0:0:0:0:
160,96,219064,1,0,0:0:0:0:
192,96,219257,1,0,0:0:0:0:
192,96,219353,1,8,0:0:0:0:
224,96,219449,1,8,0:0:0:0:
224,160,219545,1,0,0:0:0:0:
256,192,219737,1,8,0:0:0:0:
256,192,219833,1,0,0:0:0:0:
320,160,220026,1,0,0:0:0:0:
320,160,220122,1,8,0:0:0:0:
320,160,220314,1,0,0:0:0:0:
96,160,220507,1,8,0:0:0:0:
128,160,220603,1,8,0:0:0:0:
160,160,220699,1,0,0:0:0:0:
192,160,220795,1,0,0:0:0:0:
224,128,220891,1,8,0:0:0:0:
256,128,221083,1,0,0:0:0:0:
320,128,221180,1,8,0:0:0:0:
320,160,221276,1,0,0:0:0:0:
320,160,221372,1,0,0:0:0:0:
288,160,221468,1,8,0:0:0:0:
288,160,221564,1,0,0:0:0:0:
288,128,221660,1,0,0:0:0:0:
224,192,221853,1,8,0:0:0:0:
288,128,221949,1,8,0:0:0:0:
192,128,222045,1,0,0:0:0:0:
224,160,222141,1,8,0:0:0:0:
224,128,222237,1,0,0:0:0:0:
224,160,222333,1,0,0:0:0:0:
224,128,222430,1,8,0:0:0:0:
160,128,222526,1,8,0:0:0:0:
192,128,222622,1,0,0:0:0:0:
96,128,222814,1,8,0:0:0:0:
64,160,222910,1,0,0:0:0:0:
256,128,223103,1,0,0:0:0:0:
256,160,223199,1,8,0:0:0:0:
160,128,223295,1,0,0:0:0:0:
288,128,223391,1,0,0:0:0:0:
352,160,223583,1,8,0:0:0:0:
352,192,223680,1,0,0:0:0:0:
320,160,223776,1,0,0:0:0:0:
288,160,223872,1,0,0:0:0:0:
320,192,223968,1,8,0:0:0:0:
224,128,224160,1,0,0:0:0:0:
224,96,224257,1,8,0:0:0:0:
288,128,224353,1,0,0:0:0:0:
288,96,224449,1,0,0:0:0:0:
288,96,224545,1,8,0:0:0:0:
288,96,224641,1,0,0:0:0:0:
288,96,224737,1,0,0:0:0:0:
320,128,224930,1,8,0:0:0:0:
320,192,225122,1,0,0:0:0:0:
320,192,225218,1,0,0:0:0:0:
352,192,225314,1,8,0:0:0:0:
352,192,225410,1,0,0:0:0:0:
320,192,225507,1,0,0:0:0:0:
320,192,225603,1,0,0:0:0:0:
352,192,225699,1,8,0:0:0:0:
352,192,225795,1,0,0:0:0:0:
160,128,225891,1,8,0:0:0:0:
192,128,225987,1,0,0:0:0:0:
192,128,226083,1,0,0:0:0:0:
192,128,226180,1,8,0:0:0:0:
320,192,226276,1,0,0:0:0:0:
320,192,226372,1,0,0:0:0:0:
352,192,226468,1,8,0:0:0:0:
352,192,226564,1,0,0:0:0:0:
160,128,226660,1,8,0:0:0:0:
192,128,226757,1,0,0:0:0:0:
192,128,226853,1,0,0:0:0:0:
192,128,226949,1,8,0:0:0:0:
320,192,227045,1,0,0:0:0:0:
320,192,227141,1,0,0:0:0:0:
352,192,227237,1,8,0:0:0:0:
352,192,227333,1,0,0:0:0:0:
160,128,227430,1,8,0:0:0:0:
192,128,227526,1,0,0:0:0:0:
192,128,227622,1,8,0:0:0:0:
192,128,227718,1,8,0:0:0:0:
320,192,227814,1,0,0:0:0:0:
320,192,227910,1,0,0:0:0:0:
352,192,228007,1,8,0:0:0:0:
352,192,228103,1,0,0:0:0:0:
160,128,228199,1,8,0:0:0:0:
160,128,228295,1,0,0:0:0:0:
160,128,228391,1,0,0:0:0:0:
160,128,228583,1,8,0:0:0:0:
160,128,228648,1,8,0:0:0:0:
160,128,228712,1,8,0:0:0:0:
160,128,228776,1,0,0:0:0:0:
128,128,228840,1,0,0:0:0:0:
160,128,228904,1,0,0:0:0:0:
160,128,228968,1,0,0:0:0:0:
160,128,229064,1,0,0:0:0:0:
160,128,229160,1,0,0:0:0:0:
160,128,229353,1,8,0:0:0:0:
160,128,229545,1,0,0:0:0:0:
128,160,229609,1,0,0:0:0:0:
128,160,229673,1,0,0:0:0:0:
224,96,229737,1,8,0:0:0:0:
224,96,229930,1,8,0:0:0:0:
288,96,230122,1,0,0:0:0:0:
288,96,230218,1,8,0:0:0:0:
160,128,230314,1,0,0:0:0:0:
288,128,230410,1,0,0:0:0:0:
288,128,230507,1,8,0:0:0:0:
224,128,230603,1,0,0:0:0:0:
224,128,230699,1,0,0:0:0:0:
224,128,230891,1,0,0:0:0:0:
224,128,231083,1,8,0:0:0:0:
160,128,231276,1,8,0:0:0:0:
160,128,231372,1,0,0:0:0:0:
160,128,231468,1,0,0:0:0:0:
160,128,231660,1,8,0:0:0:0:
160,128,231853,1,0,0:0:0:0:
160,128,232045,1,8,0:0:0:0:
160,128,232109,1,0,0:0:0:0:
160,128,232173,1,0,0:0:0:0:
160,128,232237,1,8,0:0:0:0:
185,139,232333,1,0,0:0:0:0:
160,128,232430,1,0,0:0:0:0:
160,128,232526,1,0,0:0:0:0:
160,128,232622,1,8,0:0:0:0:
160,160,232814,1,0,0:0:0:0:
178,156,232910,1,0,0:0:0:0:
320,128,233007,1,8,0:0:0:0:
192,192,233199,1,8,0:0:0:0:
224,128,233391,1,0,0:0:0:0:
224,128,233487,1,8,0:0:0:0:
288,96,233583,1,0,0:0:0:0:
256,96,233680,1,0,0:0:0:0:
352,128,233968,1,8,0:0:0:0:
256,192,234160,1,8,0:0:0:0:
224,192,234353,1,0,0:0:0:0:
288,224,234545,1,8,0:0:0:0:
224,160,234737,1,8,0:0:0:0:
288,192,234930,1,8,0:0:0:0:
320,160,235122,1,0,0:0:0:0:
320,160,235314,1,8,0:0:0:0:
288,160,235507,1,8,0:0:0:0:
288,160,235699,1,8,0:0:0:0:
256,192,235891,1,8,0:0:0:0:
256,192,235987,1,0,0:0:0:0:
256,192,236083,1,0,0:0:0:0:
256,160,236180,1,8,0:0:0:0:
256,192,236276,1,0,0:0:0:0:
256,192,236372,1,0,0:0:0:0:
256,192,236468,1,8,0:0:0:0:
256,192,236564,1,0,0:0:0:0:
256,160,236660,1,0,0:0:0:0:
256,160,236757,1,8,0:0:0:0:
256,160,236853,1,0,0:0:0:0:
288,160,236949,1,0,0:0:0:0:
256,160,237045,1,8,0:0:0:0:
224,160,237141,1,0,0:0:0:0:
192,160,237237,1,8,0:0:0:0:
256,160,237333,1,8,0:0:0:0:
256,192,237430,1,0,0:0:0:0:
192,64,237622,1,0,0:0:0:0:
224,96,237814,1,8,0:0:0:0:
256,96,238007,1,8,0:0:0:0:
256,192,238199,1,0,0:0:0:0:
288,128,238295,1,0,0:0:0:0:
288,160,238391,1,8,0:0:0:0:
288,160,238487,1,0,0:0:0:0:
224,160,238583,1,0,0:0:0:0:
256,192,238680,1,0,0:0:0:0:
224,192,238776,1,8,0:0:0:0:
256,128,238968,1,8,0:0:0:0:
256,128,239160,1,8,0:0:0:0:
256,128,239353,1,8,0:0:0:0:
224,128,239449,1,0,0:0:0:0:
288,160,239545,1,0,0:0:0:0:
256,160,239641,1,8,0:0:0:0:
352,160,239737,1,0,0:0:0:0:
256,160,239833,1,0,0:0:0:0:
352,160,239930,1,8,0:0:0:0:
352,160,240122,1,0,0:0:0:0:
288,160,240218,1,0,0:0:0:0:
256,128,240314,1,8,0:0:0:0:
288,96,240507,1,8,0:0:0:0:
288,96,240699,1,0,0:0:0:0:
288,96,240891,1,8,0:0:0:0:
320,96,240987,1,8,0:0:0:0:
288,96,241083,1,0,0:0:0:0:
320,128,241276,1,8,0:0:0:0:
320,128,241372,1,0,0:0:0:0:
320,128,241468,1,8,0:0:0:0:
320,128,241564,1,8,0:0:0:0:
288,128,241660,1,8,0:0:0:0:
288,128,241757,1,0,0:0:0:0:
288,128,241853,1,8,0:0:0:0:
160,160,242045,1,8,0:0:0:0:
192,160,242141,1,8,0:0:0:0:
288,192,242237,1,0,0:0:0:0:
320,192,242333,1,0,0:0:0:0:
320,192,242430,1,8,0:0:0:0:
256,160,242526,1,8,0:0:0:0:
320,192,242622,1,0,0:0:0:0:
256,160,242718,1,8,0:0:0:0:
288,128,242814,1,0,0:0:0:0:
288,128,242910,1,0,0:0:0:0:
288,128,243007,1,8,0:0:0:0:
288,128,243199,1,0,0:0:0:0:
288,128,243295,1,0,0:0:0:0:
320,128,243391,1,8,0:0:0:0:
256,160,243583,1,0,0:0:0:0:
288,192,243776,1,8,0:0:0:0:
320,224,243968,1,0,0:0:0:0:
288,224,244064,1,0,0:0:0:0:
352,256,244160,1,8,0:0:0:0:
320,128,244353,1,0,0:0:0:0:
352,160,244545,1,8,0:0:0:0:
320,160,244737,1,0,0:0:0:0:
256,160,244833,1,0,0:0:0:0:
416,224,244930,1,8,0:0:0:0:
256,160,245122,1,0,0:0:0:0:
288,192,245314,1,8,0:0:0:0:
256,192,245410,1,0,0:0:0:0:
320,224,245507,1,0,0:0:0:0:
288,224,245603,1,0,0:0:0:0:
352,256,245699,1,8,0:0:0:0:
320,224,245795,1,0,0:0:0:0:
352,160,245987,1,0,0:0:0:0:
352,160,246083,1,8,0:0:0:0:
384,192,246276,1,8,0:0:0:0:
416,224,246468,1,0,0:0:0:0:
320,96,246660,1,0,0:0:0:0:
160,160,247045,1,8,0:0:0:0:
352,128,247237,1,0,0:0:0:0:
196,195,247430,1,0,0:0:0:0:
245,163,247814,1,8,0:0:0:0:
256,192,248199,1,4,0:0:0:0:
256,192,248583,1,12,0:0:0:0:
256,192,248968,1,4,0:0:0:0:
256,192,249353,1,12,0:0:0:0:
320,224,249737,1,0,0:0:0:0:
352,224,249930,1,0,0:0:0:0:
352,224,250122,1,8,0:0:0:0:
192,160,250314,1,0,0:0:0:0:
288,160,250507,1,8,0:0:0:0:
288,160,250699,1,0,0:0:0:0:
352,160,250891,1,0,0:0:0:0:
384,192,251083,1,8,0:0:0:0:
256,192,251276,1,8,0:0:0:0:
256,192,251372,1,0,0:0:0:0:
256,192,251468,1,0,0:0:0:0:
256,192,251564,1,8,0:0:0:0:
256,192,251660,1,0,0:0:0:0:
256,192,251757,1,0,0:0:0:0:
256,192,251853,1,8,0:0:0:0:
256,192,251949,1,0,0:0:0:0:
256,192,252045,1,0,0:0:0:0:
256,192,252141,1,8,0:0:0:0:
256,192,252237,1,0,0:0:0:0:
256,192,252333,1,0,0:0:0:0:
256,192,252430,1,8,0:0:0:0:
256,192,252526,1,0,0:0:0:0:
256,192,252622,1,8,0:0:0:0:
256,192,252718,1,8,0:0:0:0:
224,192,252814,5,0,0:0:0:0:
192,160,253391,1,8,0:0:0:0:
192,160,253487,1,0,0:0:0:0:
224,128,253680,1,0,0:0:0:0:
416,128,253776,1,0,0:0:0:0:
320,192,253968,1,8,0:0:0:0:
320,96,254160,1,0,0:0:0:0:
224,192,254353,1,0,0:0:0:0:
224,160,254545,1,8,0:0:0:0:
96,160,254737,1,0,0:0:0:0:
192,160,254930,1,8,0:0:0:0:
192,160,255026,1,0,0:0:0:0:
256,192,255218,1,0,0:0:0:0:
224,160,255314,1,0,0:0:0:0:
256,160,255410,1,0,0:0:0:0:
320,192,255507,1,8,0:0:0:0:
320,96,255699,1,0,0:0:0:0:
288,160,256083,1,0,0:0:0:0:
192,160,256276,1,8,0:0:0:0:
192,192,256468,1,8,0:0:0:0:
192,96,256564,1,0,0:0:0:0:
320,160,256853,1,8,0:0:0:0:
352,128,257045,1,8,0:0:0:0:
384,96,257237,1,8,0:0:0:0:
288,160,257430,1,0,0:0:0:0:
256,224,257622,1,0,0:0:0:0:
256,288,257814,1,0,0:0:0:0:
224,128,258007,1,0,0:0:0:0:
224,192,258103,1,0,0:0:0:0:
320,128,258583,1,12,0:0:0:0:
