osu file format v14

[General]
AudioFilename: audio.mp3
AudioLeadIn: 0
PreviewTime: 71518
Countdown: 0
SampleSet: Soft
StackLeniency: 0.7
Mode: 0
LetterboxInBreaks: 0
WidescreenStoryboard: 1

[Editor]
Bookmarks: 20035,36306,52577,60713,68848,72916,103424,107492,109526,116192
DistanceSpacing: 0.2
BeatDivisor: 4
GridSize: 32
TimelineZoom: 1

[Metadata]
Title:Hoshi ni Negai o
TitleUnicode:星に願いを
Artist:Haruna Yumi
ArtistUnicode:春奈有美
Creator:Shirahane Suou
Version:tomatas' Insane
Source:秋のうららの~あかね色商店街~
Tags:aki no urara no akaneiro shoutengai japanese video game visual novel opening eroge pop jpop j-pop ブルームハンドル bloom handle mocaotic tomatas95 big sis
BeatmapID:4058578
BeatmapSetID:1958904

[Difficulty]
HPDrainRate:5
CircleSize:4
OverallDifficulty:8
ApproachRate:9
SliderMultiplier:1.8
SliderTickRate:1

[Events]
//Background and Video events
0,0,"negai.jpg",0,0
//Break Periods
//Storyboard Layer 0 (Background)
//Storyboard Layer 1 (Fail)
//Storyboard Layer 2 (Pass)
//Storyboard Layer 3 (Foreground)
//Storyboard Layer 4 (Overlay)
//Storyboard Sound Samples

[TimingPoints]
458,508.474576271186,4,2,1,60,1,0
458,-142.857142857143,4,2,1,60,0,0
1730,508.474576271186,4,2,1,60,1,0
1730,-66.6666666666667,4,2,1,60,0,0
2238,-76.9230769230769,4,2,1,60,0,0
15967,-55.5555555555556,4,2,1,60,0,0
16729,-90.9090909090909,4,2,1,60,0,0
20035,-90.9090909090909,4,2,1,40,0,0
20797,-125,4,2,1,40,0,0
20924,-166.666666666667,4,2,1,40,0,0
21560,-333.333333333333,4,2,1,40,0,0
22068,-100,4,2,1,40,0,0
22323,-125,4,2,1,40,0,0
22831,-166.666666666667,4,2,1,40,0,0
23340,-125,4,2,1,40,0,0
24102,-100,4,2,1,40,0,0
24865,-166.666666666667,4,2,1,40,0,0
25628,-125,4,2,1,40,0,0
26136,-100,4,2,1,40,0,0
26899,-333.333333333333,4,2,1,40,0,0
27662,-125,4,2,1,40,0,0
28552,-125,4,2,1,40,0,0
28933,-100,4,2,1,40,0,0
29696,-333.333333333333,4,2,1,40,0,0
30204,-100,4,2,1,40,0,0
30967,-166.666666666667,4,2,1,40,0,0
32238,-333.333333333333,4,2,1,40,0,0
33001,-100,4,2,1,40,0,0
33763,-333.333333333333,4,2,1,40,0,0
34272,-100,4,2,1,40,0,0
36306,-90.9090909090909,4,2,1,50,0,0
37068,-125,4,2,1,50,0,0
37196,-166.666666666667,4,2,1,50,0,0
37831,-333.333333333333,4,2,1,50,0,0
38340,-100,4,2,1,50,0,0
38595,-125,4,2,1,50,0,0
39102,-166.666666666667,4,2,1,50,0,0
39611,-125,4,2,1,50,0,0
40374,-100,4,2,1,50,0,0
41136,-166.666666666667,4,2,1,50,0,0
41899,-125,4,2,1,50,0,0
42408,-100,4,2,1,50,0,0
43170,-333.333333333333,4,2,1,50,0,0
43933,-125,4,2,1,50,0,0
44823,-125,4,2,1,50,0,0
45204,-100,4,2,1,50,0,0
45967,-333.333333333333,4,2,1,50,0,0
46475,-100,4,2,1,50,0,0
47238,-166.666666666667,4,2,1,50,0,0
48509,-333.333333333333,4,2,1,50,0,0
49272,-100,4,2,1,50,0,0
50034,-333.333333333333,4,2,1,50,0,0
50543,-100,4,2,1,50,0,0
52068,-333.333333333333,4,2,1,50,0,0
52577,-333.333333333333,4,2,1,60,0,0
53848,-125,4,2,1,60,0,0
54102,-333.333333333333,4,2,1,60,0,0
54611,-55.5555555555556,4,2,1,60,0,0
55374,-142.857142857143,4,2,1,60,0,0
56136,-333.333333333333,4,2,1,60,0,0
57916,-125,4,2,1,60,0,0
58170,-333.333333333333,4,2,1,60,0,0
58679,-55.5555555555556,4,2,1,60,0,0
59441,-142.857142857143,4,2,1,60,0,0
60204,-111.111111111111,4,2,1,60,0,0
60713,-83.3333333333333,4,2,1,60,0,0
61221,-100,4,2,1,60,0,0
64272,-333.333333333333,4,2,1,60,0,0
64780,-100,4,2,1,60,0,0
66814,-83.3333333333333,4,2,1,60,0,0
67322,-100,4,2,1,60,0,0
68848,-125,4,2,1,60,0,0
70374,-333.333333333333,4,2,1,60,0,0
72153,-125,4,2,1,60,0,0
72407,-333.333333333333,4,2,1,60,0,0
72916,-62.5,4,2,1,70,0,1
88170,-62.5,4,2,1,70,0,0
89187,-55.5555555555556,4,2,1,70,0,1
89441,-62.5,4,2,1,70,0,1
101391,-62.5,4,2,1,70,0,1
101645,-62.5,4,2,1,70,0,1
102916,-333.333333333333,4,2,1,70,0,1
103424,-125,4,2,1,60,0,0
105458,-166.666666666667,4,2,1,60,0,0
109526,555.555555555556,4,2,1,60,1,0
109526,-166.666666666667,4,2,1,60,0,0
111748,-200,4,2,1,60,0,0
116053,-200,4,2,1,5,0,0

[Colours]
Combo1 : 155,207,210
Combo2 : 227,149,167
Combo3 : 210,159,209
Combo4 : 232,173,142

[HitObjects]
23,33,458,6,0,P|27:48|31:63,2,31.4999990386963,2|2|0,0:2|0:0|0:0,0:0:0:0:
106,22,966,2,0,P|110:37|114:52,1,31.4999990386963,0|2,3:2|0:0,0:0:0:0:
80,131,1220,5,10,0:2:0:0:
87,156,1347,1,2,0:2:0:0:
78,181,1474,1,2,0:2:0:0:
58,198,1601,1,2,0:2:0:0:
5,146,1730,6,0,P|106:171|205:199,1,202.500007724762,6|2,3:2|0:2,0:0:0:0:
269,240,2238,2,0,P|278:212|266:166,1,58.4999973220826,8|0,0:2|0:0,0:0:0:0:
180,86,2492,2,0,P|196:108|241:125,1,58.4999973220826,2|0,0:2|0:0,0:0:0:0:
386,106,2746,6,0,P|344:38|250:41,1,175.499991966248,2|2,3:2|0:2,0:0:0:0:
301,110,3255,1,8,0:2:0:0:
443,3,3509,1,2,0:2:0:0:
464,179,3763,6,0,P|449:237|437:297,1,116.999994644165,2|0,3:2|0:0,0:0:0:0:
359,322,4145,1,2,0:2:0:0:
355,304,4272,2,0,P|349:275|342:246,1,58.4999973220826,8|0,0:2|0:0,0:0:0:0:
186,277,4526,2,0,P|192:305|198:334,1,58.4999973220826,2|0,0:2|0:0,0:0:0:0:
289,374,4780,1,2,3:2:0:0:
285,356,4907,6,0,L|255:205,1,116.999994644165,8|0,0:2|0:0,0:0:0:0:
193,197,5289,2,0,P|158:200|123:233,1,58.4999973220826,8|0,0:2|0:0,0:0:0:0:
334,108,5543,2,0,P|359:121|388:122,1,58.4999973220826,0|0,3:2|0:0,0:0:0:0:
262,241,5797,6,0,B|289:199|262:156|262:156|234:112|256:76,1,175.499991966248,2|2,3:2|0:2,0:0:0:0:
308,10,6306,2,0,P|335:26|374:30,1,58.4999973220826,8|0,0:2|0:0,0:0:0:0:
204,10,6560,2,0,P|177:26|138:30,1,58.4999973220826,2|0,0:2|0:0,0:0:0:0:
0,91,6814,6,0,P|66:82|122:177,1,175.499991966248,2|2,3:2|0:2,0:0:0:0:
40,166,7323,1,8,0:2:0:0:
150,30,7577,1,2,0:2:0:0:
204,194,7831,6,0,L|337:215,1,116.999994644165,2|0,3:2|0:0,0:0:0:0:
290,297,8213,1,2,0:2:0:0:
272,295,8340,2,0,L|214:285,1,58.4999973220826,8|0,0:2|0:0,0:0:0:0:
65,291,8594,2,0,L|7:281,1,58.4999973220826,2|0,0:2|0:0,0:0:0:0:
151,373,8848,5,0,3:2:0:0:
151,355,8975,2,0,P|141:280|129:207,1,116.999994644165,8|0,0:2|0:0,0:0:0:0:
46,158,9357,5,10,0:2:0:0:
43,146,9484,1,10,0:2:0:0:
65,68,9611,5,10,0:2:0:0:
62,56,9738,1,10,0:2:0:0:
121,124,9865,6,0,P|194:110|306:88,1,175.499991966248,6|0,3:2|0:0,0:0:0:0:
386,72,10374,1,8,0:2:0:0:
270,286,10628,5,2,0:2:0:0:
356,162,10882,1,0,3:2:0:0:
420,298,11136,1,2,0:2:0:0:
293,90,11391,5,10,0:2:0:0:
351,244,11645,1,2,0:2:0:0:
63,164,11899,5,2,3:2:0:0:
154,296,12153,1,0,3:2:0:0:
223,151,12407,1,8,0:2:0:0:
148,207,12662,1,2,0:2:0:0:
55,32,12916,5,0,3:2:0:0:
58,49,13043,2,0,P|116:39|196:24,1,116.999994644165,8|0,0:2|0:0,0:0:0:0:
253,34,13424,1,10,0:2:0:0:
401,129,13679,1,0,3:2:0:0:
332,5,13933,6,0,B|354:41|326:85|326:85|299:128|326:170,1,175.499991966248,2|0,3:2|0:0,0:0:0:0:
400,216,14441,1,8,0:2:0:0:
238,194,14696,5,2,0:2:0:0:
401,128,14950,1,0,3:2:0:0:
376,302,15204,1,2,0:2:0:0:
304,78,15458,2,0,P|246:86|180:95,1,116.999994644165,10|0,0:2|0:0,0:0:0:0:
1,224,15967,6,0,B|-28:199|-7:149|-7:149|45:145|58:183,1,161.999995056153,14|0,0:2|0:0,0:0:0:0:
180,169,16348,2,0,B|209:144|188:94|188:94|135:90|122:128,1,161.999995056153,14|0,0:2|0:0,0:0:0:0:
125,365,16729,6,0,B|208:328|195:237|140:204|90:224|70:269|90:292,1,247.500007553101,14|0,0:2|0:0,0:0:0:0:
47,350,17492,1,12,0:2:0:0:
180,169,17746,5,0,3:0:0:0:
180,178,17874,1,0,3:0:0:0:
165,256,18001,1,12,0:0:0:0:
165,256,19272,5,0,3:2:0:0:
38,160,19526,1,8,0:2:0:0:
21,165,19653,1,8,0:2:0:0:
4,170,19780,1,10,0:3:0:0:
100,305,20035,6,0,B|70:258|100:209|100:209|132:159|107:118,1,198.000006042481,6|0,3:2|0:0,0:0:0:0:
85,27,20797,1,2,3:2:0:0:
86,36,20924,2,0,P|46:45|6:50,1,80.9999975280763,2|0,0:2|3:2,0:0:0:0:
107,118,21560,6,0,P|126:113|146:110,1,40.4999987640381,8|0,0:2|0:0,0:0:0:0:
167,32,22068,5,2,3:2:0:0:
239,170,22323,1,0,0:0:0:0:
239,161,22450,2,0,L|227:89,1,72,2|0,0:2|0:0,0:0:0:0:
280,19,22831,6,0,P|313:40|376:36,1,80.9999975280763,2|0,3:2|0:0,0:0:0:0:
347,125,23340,2,0,P|328:134|309:166,1,36,2|0,3:2|0:0,0:0:0:0:
428,129,23594,2,0,P|428:107|410:75,1,36,10|0,0:2|0:0,0:0:0:0:
384,197,23848,2,0,P|401:208|439:208,1,36,2|0,3:2|0:0,0:0:0:0:
500,359,24102,6,0,B|523:303|486:255|486:255|460:296|408:286,1,180,2|2,3:2|0:2,0:0:0:0:
308,345,24865,6,0,P|361:357|413:372,1,107.999996704102,2|2,3:2|3:2,0:0:0:0:
319,250,25628,2,0,P|284:259|249:266,1,72,8|2,0:2|0:2,0:0:0:0:
24,241,26136,5,2,3:2:0:0:
128,372,26391,1,2,0:2:0:0:
175,221,26645,1,2,0:2:0:0:
112,291,26899,6,0,L|101:238,1,53.9999983520508,2|0,3:2|3:2,0:0:0:0:
77,123,27662,5,10,0:2:0:0:
0,173,27916,1,2,3:2:0:0:
76,37,28170,5,2,3:2:0:0:
155,170,28424,1,2,0:2:0:0:
165,170,28552,2,0,P|201:163|256:155,1,72,2|0,0:2|0:0,0:0:0:0:
299,218,28933,6,0,P|279:155|303:63,1,135,2|0,3:2|0:0,0:0:0:0:
290,87,29441,1,2,3:2:0:0:
365,169,29696,6,0,P|360:141|366:119,1,40.4999987640381,8|0,0:2|0:0,0:0:0:0:
362,50,30204,6,0,B|413:47|438:94|438:94|463:142|507:141,1,180,2|2,3:2|0:2,0:0:0:0:
493,269,30967,6,0,P|447:256|411:307,1,107.999996704102,2|2,3:2|3:2,0:0:0:0:
427,180,31729,1,8,0:2:0:0:
475,345,31984,1,2,3:2:0:0:
333,265,32238,6,0,L|277:255,1,53.9999983520508,2|2,3:2|0:2,0:0:0:0:
202,384,33001,6,0,B|233:343|209:296|209:296|184:248|210:213,1,180,2|2,3:2|3:2,0:0:0:0:
195,61,33763,6,0,P|176:65|148:72,1,40.4999987640381,10|0,0:2|0:0,0:0:0:0:
105,160,34272,6,0,P|192:140|281:125,1,180,0|0,3:2|0:0,0:0:0:0:
466,30,35035,2,0,P|406:-1|359:96,1,180,0|0,3:2|3:2,0:0:0:0:
435,107,35797,1,8,0:2:0:0:
365,282,36052,1,10,0:3:0:0:
365,273,36179,1,8,0:3:0:0:
364,263,36306,6,0,B|334:206|369:153|369:153|406:202|453:178,1,198.000006042481,6|0,3:2|0:0,0:0:0:0:
460,357,37068,1,2,3:2:0:0:
459,346,37196,2,0,L|442:251,1,80.9999975280763,2|0,0:2|3:2,0:0:0:0:
432,143,37831,6,0,L|439:185,1,40.4999987640381,8|0,0:2|0:0,0:0:0:0:
512,226,38340,5,2,3:2:0:0:
367,234,38594,1,2,0:2:0:0:
356,236,38721,2,0,L|267:256,1,72,2|0,0:2|0:0,0:0:0:0:
227,300,39102,6,0,P|211:268|226:207,1,80.9999975280763,2|0,3:2|0:0,0:0:0:0:
284,180,39611,2,0,P|281:160|268:127,1,36,2|0,3:2|0:0,0:0:0:0:
354,118,39865,2,0,P|357:98|370:65,1,36,10|0,0:2|0:0,0:0:0:0:
284,56,40119,2,0,P|281:36|268:3,1,36,2|0,3:2|0:0,0:0:0:0:
205,95,40374,6,0,B|156:111|120:72|120:72|83:32|41:44,1,180,2|0,3:2|0:0,0:0:0:0:
39,228,41136,6,0,P|44:182|60:102,1,107.999996704102,2|2,3:2|3:2,0:0:0:0:
215,206,41899,2,0,P|207:245|202:286,1,72,8|2,0:2|0:2,0:0:0:0:
149,156,42407,5,2,3:2:0:0:
116,304,42662,1,2,0:2:0:0:
264,337,42916,1,2,0:2:0:0:
297,189,43170,2,0,L|304:131,1,53.9999983520508,2|0,3:2|3:2,0:0:0:0:
409,36,43933,5,10,0:2:0:0:
444,129,44187,1,2,3:2:0:0:
268,42,44441,5,2,3:2:0:0:
303,135,44696,1,2,0:2:0:0:
303,142,44823,2,0,L|294:213,1,72,2|0,0:2|0:0,0:0:0:0:
229,256,45204,6,0,P|283:239|337:300,1,135,2|0,3:2|0:0,0:0:0:0:
335,288,45713,1,2,3:2:0:0:
247,339,45967,6,0,P|266:335|285:351,1,40.4999987640381,8|0,0:2|0:0,0:0:0:0:
379,364,46475,6,0,B|428:406|485:368|491:320|461:293|424:293|421:307,1,180,0|2,3:2|0:2,0:0:0:0:
319,184,47238,6,0,P|330:237|339:291,1,107.999996704102,2|2,3:2|3:2,0:0:0:0:
407,165,48001,5,8,0:2:0:0:
240,182,48255,1,2,3:2:0:0:
382,48,48509,6,0,L|439:36,1,53.9999983520508,2|2,3:2|0:2,0:0:0:0:
319,184,49272,6,0,B|346:140|318:95|318:95|289:50|312:12,1,180,2|2,3:2|3:2,0:0:0:0:
255,140,50035,6,0,L|204:131,1,40.4999987640381,10|0,0:2|0:0,0:0:0:0:
162,195,50543,6,0,P|184:107|200:19,1,180,0|0,3:2|0:0,0:0:0:0:
101,0,51306,2,0,P|84:88|62:175,1,180,0|0,3:2|3:2,0:0:0:0:
66,363,52068,6,0,L|73:315,1,40.4999987640381,12|0,0:2|0:0,0:0:0:0:
97,247,52577,5,12,0:2:0:0:
261,49,52831,1,8,0:2:0:0:
296,305,53085,1,10,0:2:0:0:
296,305,53848,6,0,L|287:259,1,36,2|2,3:2|0:2,0:0:0:0:
259,178,54102,6,0,P|279:184|282:165,1,40.4999987640381,8|0,0:2|0:0,0:0:0:0:
161,149,54611,6,0,B|132:124|153:74|153:74|205:70|218:108,1,161.999995056153,10|2,0:2|0:2,0:0:0:0:
383,143,54992,2,0,B|412:118|391:68|391:68|339:64|326:102,1,161.999995056153,10|2,0:2|0:2,0:0:0:0:
289,269,55374,6,0,P|240:275|150:293,1,125.999996154785,10|0,0:2|3:2,0:0:0:0:
29,137,56136,6,0,P|49:134|68:130,1,40.4999987640381,12|0,0:2|0:0,0:0:0:0:
36,54,56645,5,12,0:2:0:0:
164,289,56899,1,8,0:2:0:0:
222,42,57153,1,10,0:2:0:0:
222,42,57916,6,0,L|269:51,1,36,2|2,3:2|0:2,0:0:0:0:
371,65,58170,6,0,P|363:85|361:105,1,40.4999987640381,8|0,0:2|0:0,0:0:0:0:
251,203,58679,6,0,B|222:178|243:128|243:128|295:124|308:162,1,161.999995056153,10|0,0:2|0:0,0:0:0:0:
447,227,59060,2,0,B|476:202|455:152|455:152|403:148|390:186,1,161.999995056153,10|0,0:2|0:0,0:0:0:0:
305,362,59441,6,0,P|311:308|328:231,1,125.999996154785,10|2,0:2|3:2,0:0:0:0:
473,56,60204,5,8,0:0:0:0:
421,118,60331,1,8,0:0:0:0:
476,175,60458,1,4,3:0:0:0:
476,183,60585,1,4,3:0:0:0:
467,273,60713,6,0,B|421:257|388:293|388:293|354:330|315:319,1,161.999995056153,4|0,3:2|0:0,0:0:0:0:
326,237,61221,1,10,0:2:0:0:
190,359,61475,1,2,0:2:0:0:
152,180,61729,1,2,3:2:0:0:
235,226,61984,5,2,0:2:0:0:
231,239,62111,2,0,P|224:274|215:309,1,45,2|8,0:2|0:2,0:0:0:0:
152,180,62492,1,2,0:2:0:0:
152,167,62619,1,2,0:2:0:0:
155,154,62746,6,0,B|165:110|174:66,1,90,2|2,3:2|0:2,0:0:0:0:
95,77,63128,2,0,B|90:99|85:120,1,45,2|8,0:2|0:2,0:0:0:0:
2,134,63382,1,2,0:2:0:0:
5,121,63509,2,0,B|15:77|24:33,1,90,2|0,0:2|3:2,0:0:0:0:
132,3,64018,1,0,0:0:0:0:
33,233,64272,5,8,0:2:0:0:
33,233,64780,6,0,P|43:276|49:321,1,90,6|2,3:2|0:2,0:0:0:0:
134,357,65162,1,2,0:2:0:0:
138,344,65289,6,0,P|141:321|146:299,1,45,8|2,0:2|0:2,0:0:0:0:
117,227,65543,2,0,B|166:209|202:248|202:248|238:288|281:276,1,180,2|0,0:2|0:0,0:0:0:0:
446,212,66306,1,8,0:2:0:0:
365,254,66560,5,2,0:2:0:0:
362,240,66687,1,2,0:2:0:0:
356,224,66814,2,0,P|348:181|326:104,1,107.999996704102,6|2,3:2|0:2,0:0:0:0:
361,46,67196,5,2,0:2:0:0:
359,32,67323,2,0,P|390:37|435:44,1,45,8|2,0:2|0:2,0:0:0:0:
274,59,67577,2,0,P|207:71|131:81,1,135,2|0,0:2|0:0,0:0:0:0:
81,25,68085,5,2,0:2:0:0:
218,166,68340,1,10,0:2:0:0:
44,275,68594,5,10,0:2:0:0:
32,280,68721,1,10,0:2:0:0:
103,337,68848,6,0,P|87:276|67:171,1,144,4|0,3:2|0:0,0:0:0:0:
193,357,69611,2,0,P|177:296|157:191,1,144,4|0,3:2|0:0,0:0:0:0:
115,21,70374,6,0,L|124:72,1,40.4999987640381,12|0,0:2|0:0,0:0:0:0:
126,141,70882,5,8,0:2:0:0:
379,2,71136,1,8,0:2:0:0:
322,265,71391,1,8,0:2:0:0:
322,265,72153,6,0,P|325:243|331:222,1,36,0|0,3:2|0:0,0:0:0:0:
341,143,72407,6,0,P|357:151|366:135,1,40.4999987640381,12|0,0:2|0:0,0:0:0:0:
394,49,72916,6,0,P|331:62|250:78,1,144,6|0,3:2|0:0,0:0:0:0:
100,86,73297,1,2,0:2:0:0:
173,109,73424,2,0,P|176:77|148:25,1,72,8|0,0:2|0:0,0:0:0:0:
30,51,73679,2,0,P|22:85|31:120,1,72,2|0,0:2|0:0,0:0:0:0:
171,202,73933,6,0,P|117:175|42:218,1,144,2|0,3:2|0:0,0:0:0:0:
113,365,74314,1,2,0:2:0:0:
156,297,74441,2,0,L|242:316,1,72,8|0,0:2|0:0,0:0:0:0:
76,294,74696,2,0,L|-10:313,1,72,2|0,0:2|0:0,0:0:0:0:
171,202,74950,6,0,P|242:219|326:232,1,144,2|0,3:2|0:0,0:0:0:0:
464,188,75331,1,2,0:2:0:0:
379,176,75458,6,0,P|388:210|397:245,1,72,8|0,0:2|0:0,0:0:0:0:
498,342,75713,2,0,P|488:307|479:272,1,72,2|0,0:2|0:0,0:0:0:0:
432,113,75967,5,2,3:2:0:0:
432,99,76094,1,8,0:2:0:0:
494,52,76221,1,2,3:2:0:0:
494,37,76348,1,2,3:2:0:0:
414,21,76475,6,0,P|341:35|260:53,1,144,8|0,0:2|3:2,0:0:0:0:
124,90,76857,1,2,0:0:0:0:
146,13,76984,6,0,P|197:60|192:130,1,144,2|0,3:2|0:0,0:0:0:0:
43,193,77365,1,2,0:2:0:0:
116,239,77492,2,0,L|125:148,1,72,8|0,0:2|0:0,0:0:0:0:
54,38,77746,2,0,L|46:109,1,72,2|0,0:2|0:0,0:0:0:0:
39,275,78001,6,0,P|109:283|208:300,1,144,2|0,3:2|0:0,0:0:0:0:
340,239,78382,1,2,0:2:0:0:
267,302,78509,2,0,P|263:267|253:232,1,72,8|0,0:2|0:0,0:0:0:0:
431,234,78763,2,0,P|421:268|416:304,1,72,2|0,0:2|0:0,0:0:0:0:
347,383,79018,6,0,L|340:226,1,144,2|0,3:2|0:0,0:0:0:0:
324,83,79399,1,2,0:2:0:0:
298,158,79526,6,0,P|333:160|367:148,1,72,8|0,0:2|0:0,0:0:0:0:
471,88,79780,2,0,P|435:90|401:78,1,72,2|0,0:2|0:0,0:0:0:0:
259,12,80035,5,2,3:2:0:0:
266,25,80162,1,8,0:2:0:0:
226,93,80289,5,0,3:2:0:0:
233,106,80416,1,0,3:0:0:0:
193,174,80543,6,0,L|106:160,1,72,8|0,0:2|0:0,0:0:0:0:
23,40,80797,5,8,0:2:0:0:
79,95,80924,1,8,0:2:0:0:
43,166,81052,6,0,B|70:210|35:265|35:265|2:318|35:369,1,216,6|0,3:2|0:0,0:0:0:0:
107,316,81560,2,0,P|142:308|177:302,1,72,8|0,0:2|0:0,0:0:0:0:
305,219,81814,2,0,P|236:226|192:173,1,144,2|0,0:2|3:2,0:0:0:0:
192,173,82323,6,0,P|190:135|156:83,1,72,2|0,0:2|0:0,0:0:0:0:
320,150,82577,2,0,P|306:183|305:219,1,72,10|0,0:2|0:0,0:0:0:0:
262,353,82831,1,2,0:2:0:0:
260,368,82958,1,2,0:2:0:0:
177,302,83085,6,0,L|401:348,1,216,0|0,3:2|0:0,0:0:0:0:
455,307,83594,2,0,P|465:340|461:376,1,72,8|0,0:2|0:0,0:0:0:0:
407,238,83848,5,2,3:2:0:0:
404,223,83975,1,10,0:2:0:0:
473,188,84102,5,2,3:2:0:0:
470,173,84229,1,10,0:2:0:0:
398,144,84357,1,2,3:2:0:0:
398,144,84611,6,0,P|357:134|308:122,1,72,8|0,0:2|0:0,0:0:0:0:
237,241,84865,2,0,P|277:231|327:219,1,72,0|0,3:2|0:0,0:0:0:0:
252,68,85119,5,2,3:2:0:0:
188,125,85246,2,0,P|170:95|168:59,1,72,2|0,0:2|0:0,0:0:0:0:
265,62,85501,5,2,0:2:0:0:
175,131,85628,2,0,P|156:100|154:64,1,72,10|0,0:2|0:0,0:0:0:0:
278,56,85882,5,2,0:2:0:0:
162,136,86009,2,0,P|143:105|141:69,1,72,2|0,0:2|3:2,0:0:0:0:
291,50,86263,5,2,0:2:0:0:
149,141,86391,2,0,P|130:110|128:74,1,72,2|0,0:2|0:0,0:0:0:0:
304,44,86645,6,0,P|316:77|313:112,1,72,10|0,0:2|0:0,0:0:0:0:
206,240,86899,5,10,0:2:0:0:
258,173,87026,1,10,0:2:0:0:
238,318,87153,6,0,P|198:323|153:330,1,72,4|0,3:2|0:0,0:0:0:0:
290,251,87407,2,0,P|330:256|375:263,1,72,8|0,0:2|0:0,0:0:0:0:
443,128,87662,5,0,3:2:0:0:
449,115,87789,1,8,0:2:0:0:
445,211,87916,5,2,3:2:0:0:
453,223,88043,1,8,0:0:0:0:
367,167,88170,5,2,3:0:0:0:
348,154,88297,1,4,3:0:0:0:
327,152,88424,1,6,3:0:0:0:
309,162,88552,1,2,3:0:0:0:
229,202,88679,5,8,0:2:0:0:
196,215,88806,1,8,0:0:0:0:
161,209,88933,1,10,0:2:0:0:
133,187,89060,1,8,0:2:0:0:
251,92,89187,6,0,L|279:279,1,161.999995056153,6|0,3:2|0:0,0:0:0:0:
277,373,89568,1,2,0:2:0:0:
336,310,89696,2,0,P|371:306|407:301,1,72,8|0,0:2|0:0,0:0:0:0:
215,314,89950,2,0,P|179:318|143:323,1,72,2|0,0:2|0:0,0:0:0:0:
17,230,90204,6,0,P|80:240|135:161,1,144,2|0,3:2|0:0,0:0:0:0:
96,39,90585,1,2,0:2:0:0:
36,91,90713,2,0,P|45:117|60:181,1,72,8|0,0:2|0:0,0:0:0:0:
197,134,90967,2,0,P|187:107|173:44,1,72,2|0,0:2|0:0,0:0:0:0:
132,186,91221,6,0,L|302:157,1,144,2|0,3:2|0:0,0:0:0:0:
430,150,91602,1,2,0:2:0:0:
356,122,91729,2,0,P|351:153|364:193,1,72,8|0,0:2|0:0,0:0:0:0:
507,184,91984,2,0,P|511:148|501:114,1,72,2|0,0:2|0:0,0:0:0:0:
397,29,92238,5,2,3:2:0:0:
401,42,92365,1,8,0:2:0:0:
349,101,92492,5,0,3:0:0:0:
353,114,92619,1,0,3:0:0:0:
310,23,92746,6,0,P|241:31|147:42,1,144,8|0,0:2|3:2,0:0:0:0:
18,74,93128,1,2,0:0:0:0:
56,4,93255,6,0,P|95:71|56:147,1,144,2|0,3:2|0:0,0:0:0:0:
53,287,93636,1,2,0:2:0:0:
26,212,93763,2,0,P|60:206|99:224,1,72,8|0,0:2|0:0,0:0:0:0:
79,362,94018,2,0,P|45:368|6:350,1,72,2|0,0:2|0:0,0:0:0:0:
137,296,94272,6,0,P|210:307|302:319,1,144,2|0,3:2|0:0,0:0:0:0:
432,315,94653,1,2,0:2:0:0:
370,359,94780,2,0,P|356:320|368:272,1,72,8|0,0:2|0:0,0:0:0:0:
471,195,95035,2,0,P|444:226|396:240,1,72,2|0,0:2|0:0,0:0:0:0:
236,153,95289,6,0,P|306:157|344:228,1,144,2|0,3:2|0:0,0:0:0:0:
423,46,95670,1,2,0:2:0:0:
434,124,95797,2,0,P|398:120|368:101,1,72,8|0,0:2|0:0,0:0:0:0:
236,153,96052,2,0,P|271:147|305:157,1,72,2|0,0:2|0:0,0:0:0:0:
365,301,96306,5,2,3:2:0:0:
359,314,96433,1,8,0:2:0:0:
283,320,96560,5,0,3:0:0:0:
277,333,96687,1,0,3:0:0:0:
205,361,96814,6,0,P|167:367|126:353,1,72,8|0,0:2|0:0,0:0:0:0:
0,256,97068,5,8,0:2:0:0:
79,224,97196,1,8,0:2:0:0:
151,266,97323,6,0,B|178:222|143:167|143:167|110:114|143:63,1,216,6|0,3:2|0:0,0:0:0:0:
71,28,97831,6,0,P|34:41|-17:48,1,72,8|0,0:2|0:0,0:0:0:0:
207,117,98085,2,0,P|269:94|356:83,1,144,2|0,0:2|3:2,0:0:0:0:
346,83,98594,6,0,P|341:42|328:0,1,72,2|0,0:2|0:0,0:0:0:0:
461,64,98848,2,0,P|451:98|447:134,1,72,10|0,0:2|0:0,0:0:0:0:
417,247,99102,1,2,0:2:0:0:
413,260,99229,1,2,0:2:0:0:
509,226,99357,6,0,P|415:211|276:188,1,216,0|0,3:2|0:0,0:0:0:0:
224,225,99865,2,0,P|214:188|234:143,1,72,8|0,0:2|0:0,0:0:0:0:
156,52,100119,5,2,0:2:0:0:
161,65,100246,1,2,0:2:0:0:
130,143,100374,5,0,3:2:0:0:
136,157,100501,1,8,0:2:0:0:
153,240,100628,1,0,3:0:0:0:
153,240,100882,6,0,L|246:220,1,72,8|0,0:2|0:0,0:0:0:0:
72,100,101136,2,0,L|-21:120,1,72,2|0,3:2|0:0,0:0:0:0:
53,379,101391,6,0,B|98:338|79:278|79:278|60:216|97:180,1,216,6|0,3:2|0:0,0:0:0:0:
159,100,101899,2,0,L|229:115,1,72,8|0,0:2|0:0,0:0:0:0:
361,84,102153,5,2,0:2:0:0:
374,89,102280,1,2,0:2:0:0:
335,5,102407,2,0,P|323:112|302:218,1,216,0|0,3:2|0:0,0:0:0:0:
285,348,102916,6,0,L|331:358,1,40.4999987640381,10|0,0:2|0:0,0:0:0:0:
411,364,103424,6,0,B|481:332|470:254|423:226|381:243|364:282|381:301,1,216,6|0,3:2|0:0,0:0:0:0:
324,356,104441,5,2,3:2:0:0:
310,349,104568,1,2,3:2:0:0:
295,348,104696,1,2,3:2:0:0:
281,353,104823,1,2,3:2:0:0:
220,305,104950,5,10,0:2:0:0:
196,312,105077,1,10,0:2:0:0:
173,310,105205,1,10,0:2:0:0:
149,299,105332,1,10,0:2:0:0:
189,234,105458,6,0,B|159:194|172:143|186:174|225:108|230:71|218:17|159:-1|159:-1|117:14|104:55|122:83,1,377.999988464356,6|0,3:2|0:0,0:0:0:0:
96,159,107492,5,2,3:2:0:0:
96,159,108001,5,2,3:2:0:0:
61,277,108509,5,8,0:2:0:0:
59,266,108636,1,8,0:2:0:0:
57,255,108763,1,8,0:3:0:0:
188,299,109018,5,8,0:2:0:0:
186,288,109145,1,8,0:2:0:0:
184,277,109272,1,8,0:3:0:0:
315,321,109526,6,0,B|339:334|403:340|471:288|464:194|464:194|409:190|363:207|346:269,1,377.999988464356,6|0,3:2|0:2,0:0:0:0:
241,288,111748,6,0,B|251:320|218:386|153:407|83:379|29:297|44:212|174:169|166:110|121:12|121:12|31:43|27:138,1,697.5,6|0,3:2|0:0,0:0:0:0:
