osu file format v14

[General]
AudioFilename: audio.mp3
AudioLeadIn: 0
PreviewTime: 71518
Countdown: 0
SampleSet: Soft
StackLeniency: 0.7
Mode: 0
LetterboxInBreaks: 0
WidescreenStoryboard: 0

[Editor]
Bookmarks: 20035,36306,52577,60713,68848,72916,103424,107492,109526,116192
DistanceSpacing: 1.5
BeatDivisor: 8
GridSize: 32
TimelineZoom: 1

[Metadata]
Title:Hoshi ni Negai o
TitleUnicode:星に願いを
Artist:Haruna Yumi
ArtistUnicode:春奈有美
Creator:Shirahane Suou
Version:Wish upon a Star
Source:秋のうららの~あかね色商店街~
Tags:aki no urara no akaneiro shoutengai japanese video game visual novel opening eroge pop jpop j-pop ブルームハンドル bloom handle mocaotic tomatas95 big sis
BeatmapID:4058579
BeatmapSetID:1958904

[Difficulty]
HPDrainRate:6
CircleSize:4.2
OverallDifficulty:8.7
ApproachRate:9.3
SliderMultiplier:2
SliderTickRate:1

[Events]
//Background and Video events
0,0,"negai.jpg",0,0
//Break Periods
//Storyboard Layer 0 (Background)
//Storyboard Layer 1 (Fail)
//Storyboard Layer 2 (Pass)
//Storyboard Layer 3 (Foreground)
//Storyboard Layer 4 (Overlay)
//Storyboard Sound Samples

[TimingPoints]
458,508.474576271186,4,2,1,60,1,0
1730,508.474576271186,4,2,1,60,1,0
1730,-83.3333333333333,4,2,1,60,0,0
9865,-100,4,2,1,60,0,0
15967,-83.3333333333333,4,2,1,60,0,0
16729,-66.6666666666667,4,2,1,60,0,0
17238,-100,4,2,1,60,0,0
20035,-142.857142857143,4,2,1,40,0,0
36306,-125,4,2,1,50,0,0
52577,-100,4,2,1,60,0,0
54102,-142.857142857143,4,2,1,60,0,0
54611,-100,4,2,1,60,0,0
56136,-142.857142857143,4,2,1,60,0,0
56645,-100,4,2,1,60,0,0
58170,-142.857142857143,4,2,1,60,0,0
58679,-100,4,2,1,60,0,0
59568,-83.3333333333333,4,2,1,60,0,0
59950,-100,4,2,1,60,0,0
60713,-100,4,2,1,60,0,0
68848,-90.9090909090909,4,2,1,60,0,0
72153,-100,4,2,1,60,0,0
72407,-133.333333333333,4,2,1,60,0,0
72916,-66.6666666666667,4,2,1,70,0,1
83085,-55.5555555555556,4,2,1,70,0,1
83848,-66.6666666666667,4,2,1,70,0,1
84611,-83.3333333333333,4,2,1,70,0,1
85119,-50,4,2,1,70,0,1
87153,-66.6666666666667,4,2,1,70,0,1
99357,-55.5555555555556,4,2,1,70,0,1
100374,-66.6666666666667,4,2,1,70,0,1
102598,-66.6666666666667,4,2,1,5,0,1
102662,-66.6666666666667,4,2,1,70,0,1
102852,-66.6666666666667,4,2,1,5,0,1
102916,-55.5555555555556,4,2,1,70,0,1
103424,-142.857142857143,4,2,1,60,0,0
105458,-250,4,2,1,60,0,0
108509,-100,4,2,1,60,0,0
109526,555.555555555556,4,2,1,60,1,0
109526,-142.857142857143,4,2,1,60,0,0
111748,-250,4,2,1,60,0,0
116192,-250,4,2,1,5,0,0

[Colours]
Combo1 : 155,207,210
Combo2 : 227,149,167
Combo3 : 210,159,209
Combo4 : 232,173,142

[HitObjects]
302,295,458,6,0,P|348:275|396:261,1,100,2|0,0:2|0:0,0:0:0:0:
233,140,966,2,0,P|209:150|185:157,1,50,0|0,3:2|0:0,0:0:0:0:
24,222,1220,5,10,0:2:0:0:
9,213,1348,1,2,0:2:0:0:
5,195,1475,1,2,0:2:0:0:
14,176,1602,1,2,0:2:0:0:
86,117,1730,6,0,L|116:244,1,119.999996337891,6|0,3:2|0:0,0:0:0:0:
178,318,2111,1,2,0:2:0:0:
183,294,2238,1,8,0:2:0:0:
300,198,2492,2,0,L|288:256,1,59.9999981689454,2|0,0:2|0:0,0:0:0:0:
231,140,2746,6,0,P|274:101|332:110,1,119.999996337891,2|0,3:2|0:0,0:0:0:0:
408,193,3128,1,2,0:2:0:0:
384,188,3255,1,8,0:2:0:0:
233,330,3509,1,2,0:2:0:0:
208,326,3636,1,0,0:0:0:0:
170,234,3763,6,0,L|300:259,1,119.999996337891,2|0,3:2|0:0,0:0:0:0:
338,357,4145,1,2,0:2:0:0:
343,333,4272,1,8,0:2:0:0:
256,161,4526,2,0,L|267:102,1,59.9999981689454,2|0,0:2|0:0,0:0:0:0:
392,33,4780,5,2,3:2:0:0:
459,81,4907,2,0,B|416:123|416:123|359:105,1,119.999996337891,8|0,0:2|0:0,0:0:0:0:
202,50,5289,2,0,P|247:13|303:26,1,119.999996337891,8|0,0:2|3:2,0:0:0:0:
483,185,5797,6,0,L|455:324,1,119.999996337891,2|0,3:2|0:0,0:0:0:0:
399,384,6178,1,2,0:2:0:0:
394,360,6305,1,8,0:2:0:0:
249,248,6559,2,0,L|263:180,1,59.9999981689454,2|0,0:2|0:0,0:0:0:0:
314,311,6814,6,0,P|263:341|185:313,1,119.999996337891,2|0,3:2|0:0,0:0:0:0:
117,270,7195,1,2,0:2:0:0:
141,265,7322,1,8,0:2:0:0:
206,102,7577,1,2,0:2:0:0:
230,107,7704,1,0,0:0:0:0:
260,199,7830,6,0,L|142:174,1,119.999996337891,2|0,3:2|0:0,0:0:0:0:
61,104,8213,1,2,0:2:0:0:
85,99,8340,1,8,0:2:0:0:
219,271,8593,2,0,L|205:329,1,59.9999981689454,2|0,0:2|0:0,0:0:0:0:
38,263,8847,5,0,3:2:0:0:
64,187,8975,1,8,0:2:0:0:
114,249,9103,1,0,3:2:0:0:
311,101,9357,6,0,L|298:22,1,59.9999981689454,10|2,0:2|0:2,0:0:0:0:
282,209,9610,1,10,0:2:0:0:
288,231,9738,1,10,0:2:0:0:
403,156,9865,6,0,P|306:130|207:116,1,200,6|8,3:2|0:2,0:0:0:0:
59,0,10628,2,0,P|107:12|156:19,1,100,2|0,0:2|3:2,0:0:0:0:
311,101,11136,1,2,0:2:0:0:
144,204,11391,2,0,P|84:170|120:80,1,150,10|0,0:2|0:0,0:0:0:0:
208,117,11899,6,0,P|177:212|158:310,1,200,2|8,3:2|0:2,0:0:0:0:
329,384,12662,1,2,0:2:0:0:
371,236,12916,1,0,3:2:0:0:
297,208,13043,1,8,0:2:0:0:
250,271,13170,2,0,P|252:297|288:337,1,50,2|0,0:2|0:0,0:0:0:0:
448,264,13424,2,0,P|457:215|432:174,1,100,10|0,0:2|3:2,0:0:0:0:
158,6,13933,6,0,P|221:77|316:63,1,200,2|8,3:2|0:2,0:0:0:0:
511,0,14696,2,0,P|492:46|480:94,1,100,2|0,0:2|3:2,0:0:0:0:
344,195,15204,1,2,0:2:0:0:
512,371,15458,2,0,P|476:326|373:345,1,150,10|0,0:2|0:0,0:0:0:0:
279,265,15967,6,0,B|233:229|233:229|256:151,1,119.999996337891,14|0,0:2|0:0,0:0:0:0:
407,113,16348,6,0,B|453:149|453:149|430:227,1,119.999996337891,14|0,0:2|0:0,0:0:0:0:
359,250,16729,6,0,P|327:142|286:37,1,225.000008583069,14|0,0:2|0:0,0:0:0:0:
197,8,17238,6,0,P|173:16|149:21,1,50,0|0,3:2|0:0,0:0:0:0:
0,101,17492,2,0,P|71:96|113:188,1,175,12|0,0:2|0:0,0:0:0:0:
101,191,18001,5,6,3:2:0:0:
101,191,19272,5,0,3:2:0:0:
0,58,19526,1,8,0:2:0:0:
9,49,19653,1,8,0:2:0:0:
18,41,19780,2,0,L|79:60,1,50,10|0,0:3|0:0,0:0:0:0:
224,182,20035,6,0,P|269:150|262:58,1,139.999995727539,6|0,3:2|0:0,0:0:0:0:
151,0,20797,1,2,3:2:0:0:
151,0,20924,2,0,P|165:50|175:101,1,104.999996795654,2|0,0:2|3:2,0:0:0:0:
343,200,21560,1,8,0:2:0:0:
343,200,22068,6,0,P|357:149|367:98,1,104.999996795654,2|2,3:2|0:2,0:0:0:0:
262,248,22831,2,0,P|310:295|377:290,1,139.999995727539,2|2,3:2|3:2,0:0:0:0:
512,212,23594,1,10,0:2:0:0:
413,196,23848,1,2,3:2:0:0:
512,346,24102,6,0,P|443:357|378:384,1,139.999995727539,2|2,3:2|0:2,0:0:0:0:
262,248,24865,2,0,P|235:312|223:381,1,139.999995727539,2|2,3:2|3:2,0:0:0:0:
359,249,25628,2,0,P|355:204|330:177,1,69.9999978637696,8|2,0:2|0:2,0:0:0:0:
131,279,26136,6,0,P|171:298|207:289,1,69.9999978637696,2|2,3:2|0:2,0:0:0:0:
262,248,26645,1,2,0:2:0:0:
87,198,26899,2,0,P|42:235|42:322,1,139.999995727539,2|0,3:2|3:2,0:0:0:0:
190,201,27662,1,10,0:2:0:0:
145,121,27916,1,2,3:2:0:0:
330,17,28170,5,2,3:2:0:0:
301,102,28424,1,2,0:2:0:0:
301,102,28552,2,0,P|270:124|216:117,1,69.9999978637696,2|0,0:2|0:0,0:0:0:0:
104,1,28933,2,0,P|170:21|239:36,1,139.999995727539,2|2,3:2|3:2,0:0:0:0:
169,183,29696,2,0,P|146:152|153:98,1,69.9999978637696,8|2,0:2|0:2,0:0:0:0:
344,152,30204,6,0,P|323:218|311:287,1,139.999995727539,2|2,3:2|0:2,0:0:0:0:
239,126,30967,2,0,P|226:194|206:261,1,139.999995727539,2|2,3:2|3:2,0:0:0:0:
149,384,31729,1,8,0:2:0:0:
107,291,31984,1,2,3:2:0:0:
268,362,32238,6,0,P|319:317|386:329,1,139.999995727539,2|2,3:2|0:2,0:0:0:0:
425,152,33001,2,0,P|488:174|512:238,1,139.999995727539,2|2,3:2|3:2,0:0:0:0:
449,384,33763,1,10,0:2:0:0:
449,384,34272,6,0,L|419:231,1,139.999995727539,0|0,3:2|0:0,0:0:0:0:
267,117,35035,1,0,3:2:0:0:
267,117,35543,2,0,L|273:151,1,34.9999989318848,0|0,3:2|0:0,0:0:0:0:
307,271,35797,1,8,0:2:0:0:
460,132,36052,1,10,0:3:0:0:
464,114,36179,1,8,0:3:0:0:
510,210,36306,6,0,P|432:219|371:170,1,160,6|0,3:2|0:0,0:0:0:0:
200,84,37068,1,2,3:2:0:0:
200,84,37196,2,0,P|235:53|323:69,1,120,2|0,0:2|3:2,0:0:0:0:
290,229,37831,2,0,P|285:187|273:150,1,80,8|0,0:2|0:0,0:0:0:0:
108,52,38340,5,2,3:2:0:0:
8,194,38594,1,2,0:2:0:0:
8,194,38721,2,0,P|55:224|108:201,1,80,2|0,0:2|0:0,0:0:0:0:
200,84,39102,2,0,P|146:72|70:151,1,160,2|2,3:2|3:2,0:0:0:0:
155,269,39865,1,10,0:2:0:0:
159,168,40119,1,2,3:2:0:0:
0,330,40374,6,0,P|78:345|155:365,1,160,2|0,3:2|0:0,0:0:0:0:
315,203,41136,2,0,P|237:188|160:168,1,160,2|2,3:2|3:2,0:0:0:0:
302,301,41899,1,8,0:2:0:0:
388,126,42153,1,2,0:2:0:0:
388,126,42280,1,2,0:2:0:0:
388,126,42407,5,2,3:2:0:0:
414,229,42662,1,2,0:2:0:0:
464,52,42916,1,2,0:2:0:0:
286,98,43170,2,0,P|204:88|114:65,1,160,2|0,3:2|3:2,0:0:0:0:
324,17,43933,1,10,0:2:0:0:
192,169,44187,1,2,3:2:0:0:
414,229,44441,5,2,3:2:0:0:
337,293,44696,1,2,0:2:0:0:
337,293,44823,2,0,P|310:258|327:200,1,80,2|0,0:2|0:0,0:0:0:0:
432,341,45204,2,0,P|355:330|298:383,1,160,2|2,3:2|3:2,0:0:0:0:
155,289,45967,1,8,0:2:0:0:
201,384,46221,1,2,0:2:0:0:
311,224,46475,6,0,P|283:149|265:70,1,160,0|2,3:2|0:2,0:0:0:0:
80,116,47238,2,0,P|131:54|190:0,1,160,2|2,3:2|3:2,0:0:0:0:
363,92,48001,1,8,0:2:0:0:
253,155,48255,1,2,3:2:0:0:
422,309,48509,6,0,P|424:246|332:199,1,160,2|2,3:2|0:2,0:0:0:0:
170,323,49272,2,0,P|247:303|326:289,1,160,2|2,3:2|3:2,0:0:0:0:
363,92,50035,2,0,P|290:109|216:123,1,120,10|0,0:2|0:0,0:0:0:0:
158,71,50543,6,0,P|212:125|203:202,1,160,0|0,3:2|0:0,0:0:0:0:
79,317,51306,2,0,P|98:239|112:160,1,160,0|0,3:2|3:2,0:0:0:0:
188,358,52068,1,12,0:2:0:0:
188,358,52577,5,12,0:2:0:0:
0,200,52831,1,8,0:2:0:0:
231,117,53085,1,10,0:2:0:0:
231,117,53848,6,0,L|249:41,1,50,2|2,3:2|0:2,0:0:0:0:
113,158,54102,2,0,L|142:284,1,122.499996261597,8|0,0:2|0:0,0:0:0:0:
140,292,54611,6,0,P|159:303|193:305,1,50,10|0,0:2|0:0,0:0:0:0:
279,195,54865,1,2,0:2:0:0:
271,192,54992,2,0,P|251:202|233:231,1,50,10|0,0:2|0:0,0:0:0:0:
392,370,55246,1,2,0:2:0:0:
399,374,55374,6,0,P|405:308|320:270,1,150,10|0,0:2|0:0,0:0:0:0:
263,302,55882,6,0,P|279:327|314:338,1,50,0|0,3:2|0:0,0:0:0:0:
389,192,56136,2,0,L|361:67,1,122.499996261597,12|0,0:2|0:0,0:0:0:0:
349,65,56645,5,12,0:2:0:0:
512,257,56899,1,8,0:2:0:0:
263,302,57153,1,10,0:2:0:0:
263,302,57916,6,0,L|242:217,1,50,2|2,3:2|0:2,0:0:0:0:
124,74,58170,2,0,L|93:198,1,122.499996261597,8|0,0:2|0:0,0:0:0:0:
81,203,58679,6,0,B|115:240|115:240|182:224,1,100,10|0,0:2|0:0,0:0:0:0:
318,188,59060,2,0,B|284:151|284:151|217:167,1,100,10|0,0:2|0:0,0:0:0:0:
215,353,59441,1,10,0:2:0:0:
227,356,59568,2,0,B|266:315|266:315|250:248,1,119.999996337891,2|0,0:2|0:0,0:0:0:0:
169,93,59950,6,0,L|155:141,1,50,2|0,3:2|0:0,0:0:0:0:
119,344,60204,1,10,0:2:0:0:
96,367,60331,1,8,0:2:0:0:
64,373,60458,1,10,0:3:0:0:
34,359,60585,1,8,0:3:0:0:
0,287,60713,6,0,P|36:241|145:249,1,150,4|0,3:2|0:0,0:0:0:0:
181,290,61221,1,10,0:2:0:0:
343,185,61475,1,2,0:2:0:0:
377,384,61729,1,2,3:2:0:0:
288,331,61984,1,2,0:2:0:0:
279,323,62111,2,0,L|296:266,1,50,2|8,0:2|0:2,0:0:0:0:
410,118,62492,1,2,0:2:0:0:
415,131,62619,1,2,0:2:0:0:
343,185,62746,6,0,P|294:189|258:156,1,100,2|2,3:2|0:2,0:0:0:0:
309,57,63128,2,0,L|319:105,1,50,2|8,0:2|0:2,0:0:0:0:
203,242,63382,1,2,0:2:0:0:
192,235,63509,2,0,L|169:134,2,100,2|0|0,0:2|3:2|0:0,0:0:0:0:
359,384,64272,2,0,P|397:354|401:306,1,100,8|0,0:2|0:0,0:0:0:0:
450,110,64780,6,0,P|401:120|353:136,1,100,6|2,3:2|0:2,0:0:0:0:
291,80,65162,2,0,P|298:56|302:31,1,50,2|8,0:2|0:2,0:0:0:0:
418,202,65416,1,2,0:2:0:0:
424,208,65543,2,0,P|409:255|400:304,2,100,2|0|0,0:2|3:2|0:0,0:0:0:0:
475,355,66306,1,8,0:2:0:0:
302,260,66560,1,2,0:2:0:0:
313,254,66687,1,2,0:2:0:0:
317,359,66814,6,0,P|271:339|222:325,1,100,6|2,3:2|0:2,0:0:0:0:
169,226,67196,2,0,P|156:246|156:284,1,50,2|8,0:2|0:2,0:0:0:0:
7,373,67450,1,2,0:2:0:0:
0,365,67577,2,0,P|44:342|93:346,1,100,2|0,0:2|3:2,0:0:0:0:
263,240,68085,1,2,0:2:0:0:
105,152,68340,1,10,0:2:0:0:
294,67,68594,1,10,0:2:0:0:
299,54,68721,1,10,0:2:0:0:
196,134,68848,6,0,B|192:102|162:74|162:74|272:81|350:144,1,275.000008392334,4|0,3:2|0:0,0:0:0:0:
417,231,69611,2,0,B|421:198|451:170|451:170|341:177|263:240,1,275.000008392334,4|0,3:2|0:0,0:0:0:0:
221,308,70374,1,12,0:2:0:0:
221,308,70882,5,8,0:2:0:0:
512,238,71136,1,8,0:2:0:0:
306,21,71390,1,8,0:2:0:0:
306,21,72153,6,0,L|326:105,1,50,0|0,3:2|0:0,0:0:0:0:
397,200,72407,2,0,P|333:183|268:171,1,131.25000500679,12|0,0:2|0:0,0:0:0:0:
258,159,72916,6,0,P|181:146|125:223,1,150.000005722046,6|0,3:2|0:0,0:0:0:0:
10,314,73297,1,2,0:2:0:0:
83,337,73425,2,0,P|102:312|96:260,1,75.0000028610231,8|0,0:2|0:0,0:0:0:0:
1,155,73679,2,0,P|12:184|60:205,1,75.0000028610231,2|0,0:2|0:0,0:0:0:0:
245,374,73933,6,0,P|229:300|207:229,1,150.000005722046,2|0,3:2|0:0,0:0:0:0:
292,99,74314,1,2,0:2:0:0:
348,169,74441,2,0,P|313:191|258:175,1,75.0000028610231,8|0,0:2|0:0,0:0:0:0:
324,8,74696,2,0,P|361:27|374:82,1,75.0000028610231,2|0,0:2|0:0,0:0:0:0:
512,229,74950,6,0,P|438:243|367:267,1,150.000005722046,2|0,3:2|0:0,0:0:0:0:
211,329,75331,1,2,0:2:0:0:
279,381,75458,2,0,P|298:356|292:304,1,75.0000028610231,8|0,0:2|0:0,0:0:0:0:
115,221,75713,2,0,P|129:255|139:291,1,75.0000028610231,2|0,0:2|0:0,0:0:0:0:
307,178,75967,5,2,3:2:0:0:
243,130,76094,1,8,0:2:0:0:
296,70,76221,2,0,P|310:35|320:0,1,75.0000028610231,0|0,0:0|0:0,0:0:0:0:
417,126,76475,2,0,P|387:199|365:275,1,150.000005722046,8|0,0:2|3:2,0:0:0:0:
94,97,76984,6,0,P|144:44|216:52,1,150.000005722046,2|0,3:2|0:0,0:0:0:0:
95,187,77365,1,2,0:2:0:0:
194,198,77492,2,0,P|183:163|177:126,1,75.0000028610231,8|0,0:2|0:0,0:0:0:0:
1,79,77746,2,0,P|13:115|19:152,1,75.0000028610231,2|0,0:2|0:0,0:0:0:0:
147,303,78001,6,0,P|218:280|292:266,1,150.000005722046,2|0,3:2|0:0,0:0:0:0:
420,153,78382,1,2,0:2:0:0:
433,241,78509,2,0,P|390:242|358:213,1,75.0000028610231,8|0,0:2|0:0,0:0:0:0:
264,114,78763,2,0,P|286:150|277:192,1,75.0000028610231,2|0,0:2|0:0,0:0:0:0:
371,336,79018,6,0,P|297:349|226:372,1,150.000005722046,2|0,3:2|0:0,0:0:0:0:
74,265,79399,1,2,0:2:0:0:
129,375,79526,2,0,P|134:337|146:302,1,75.0000028610231,8|0,0:2|0:0,0:0:0:0:
66,142,79780,2,0,P|91:169|120:193,1,75.0000028610231,2|0,0:2|0:0,0:0:0:0:
237,89,80035,5,2,3:2:0:0:
233,0,80162,2,0,P|167:37|163:124,1,150.000005722046,8|0,0:2|0:0,0:0:0:0:
234,243,80543,2,0,P|226:206|213:171,1,75.0000028610231,8|0,0:2|0:0,0:0:0:0:
124,347,80797,1,8,0:2:0:0:
129,375,80924,1,8,0:2:0:0:
44,303,81052,6,0,P|155:321|265:344,1,225.000008583069,6|0,3:2|0:0,0:0:0:0:
333,384,81560,2,0,P|348:350|340:314,1,75.0000028610231,8|0,0:2|0:0,0:0:0:0:
273,122,81814,2,0,P|218:190|241:251,1,150.000005722046,2|0,0:2|3:2,0:0:0:0:
440,340,82323,6,0,P|475:327|512:320,1,75.0000028610231,2|0,0:2|0:0,0:0:0:0:
487,238,82577,2,0,P|451:250|414:257,1,75.0000028610231,10|0,0:2|0:0,0:0:0:0:
280,145,82831,1,2,0:2:0:0:
273,122,82958,1,2,0:2:0:0:
370,172,83085,6,0,P|290:168|234:261,2,179.999994506836,0|0|8,3:2|0:0|0:2,0:0:0:0:
497,39,83848,1,2,0:2:0:0:
512,62,83975,2,0,P|500:97|494:134,1,75.0000028610231,2|0,0:2|3:2,0:0:0:0:
368,268,84229,1,8,0:2:0:0:
353,245,84356,2,0,P|364:209|370:172,1,75.0000028610231,0|0,0:0|0:0,0:0:0:0:
511,336,84611,6,0,P|422:333|350:384,1,179.999994506836,8|0,0:2|0:0,0:0:0:0:
256,342,85119,5,2,3:2:0:0:
221,270,85246,2,0,B|209:222|209:222|252:171,1,100,2|0,0:2|0:0,0:0:0:0:
355,13,85501,5,2,0:2:0:0:
390,85,85628,2,0,B|402:133|402:133|359:184,1,100,10|0,0:2|0:0,0:0:0:0:
143,127,85882,5,2,0:2:0:0:
215,92,86009,2,0,B|263:80|263:80|314:123,1,100,2|0,0:2|3:2,0:0:0:0:
465,236,86263,5,2,0:2:0:0:
393,271,86390,2,0,B|345:283|345:283|294:240,1,100,2|0,0:2|0:0,0:0:0:0:
128,19,86645,6,0,P|113:117|86:213,1,200,10|2,0:2|0:2,0:0:0:0:
22,272,87026,1,2,0:2:0:0:
216,384,87153,6,0,P|222:347|234:311,1,75.0000028610231,4|0,3:2|0:0,0:0:0:0:
152,285,87407,2,0,P|140:320|133:357,1,75.0000028610231,8|0,0:2|0:0,0:0:0:0:
306,358,87662,1,0,3:2:0:0:
356,274,87789,1,8,0:2:0:0:
287,208,87916,2,0,P|253:209|213:242,1,75.0000028610231,2|0,3:2|0:0,0:0:0:0:
37,154,88170,5,2,3:2:0:0:
0,83,88297,1,8,0:2:0:0:
87,65,88424,1,10,0:3:0:0:
78,83,88552,1,10,0:3:0:0:
14,248,88679,6,0,P|49:236|86:229,1,75.0000028610231,8|0,0:2|0:0,0:0:0:0:
199,147,88933,1,10,0:2:0:0:
181,139,89060,1,8,0:2:0:0:
220,231,89187,6,0,P|232:157|256:86,1,150.000005722046,6|0,3:2|0:0,0:0:0:0:
399,10,89568,1,2,0:2:0:0:
396,90,89696,2,0,P|366:117|311:118,1,75.0000028610231,8|0,0:2|0:0,0:0:0:0:
264,0,89950,2,0,P|302:11|330:58,1,75.0000028610231,2|0,0:2|0:0,0:0:0:0:
460,155,90204,6,0,P|436:226|422:299,1,150.000005722046,2|0,3:2|0:0,0:0:0:0:
250,337,90585,1,2,0:2:0:0:
271,254,90713,2,0,P|307:246|343:234,1,75.0000028610231,8|0,0:2|0:0,0:0:0:0:
384,384,90967,2,0,P|358:356|330:331,1,75.0000028610231,2|0,0:2|0:0,0:0:0:0:
256,169,91221,6,0,P|196:210|192:284,1,150.000005722046,2|0,3:2|0:0,0:0:0:0:
28,328,91602,1,2,0:2:0:0:
101,384,91729,2,0,P|107:347|118:311,1,75.0000028610231,8|0,0:2|0:0,0:0:0:0:
80,176,91984,2,0,P|73:212|62:248,1,75.0000028610231,2|0,0:2|0:0,0:0:0:0:
229,384,92238,5,2,3:2:0:0:
288,329,92365,1,8,0:2:0:0:
364,356,92492,2,0,P|400:347|437:343,1,75.0000028610231,0|0,0:0|0:0,0:0:0:0:
326,237,92746,2,0,P|251:255|175:261,1,150.000005722046,8|0,0:2|3:2,0:0:0:0:
90,52,93255,6,0,P|108:127|114:203,1,150.000005722046,2|0,3:2|0:0,0:0:0:0:
119,374,93636,1,2,0:2:0:0:
191,335,93763,2,0,P|182:297|179:259,1,75.0000028610231,8|0,0:2|0:0,0:0:0:0:
27,263,94018,2,0,P|63:273|98:290,1,75.0000028610231,2|0,0:2|0:0,0:0:0:0:
288,367,94272,6,0,P|270:294|264:219,1,150.000005722046,2|0,3:2|0:0,0:0:0:0:
399,111,94653,1,2,0:2:0:0:
469,157,94780,2,0,P|456:177|389:187,1,75.0000028610231,8|0,0:2|0:0,0:0:0:0:
270,128,95035,2,0,P|293:129|335:182,1,75.0000028610231,2|0,0:2|0:0,0:0:0:0:
228,296,95289,6,0,P|179:242|192:170,1,150.000005722046,2|0,3:2|0:0,0:0:0:0:
266,36,95670,1,2,0:2:0:0:
172,20,95797,2,0,P|183:55|192:91,1,75.0000028610231,8|0,0:2|0:0,0:0:0:0:
336,241,96052,2,0,P|300:229|264:220,1,75.0000028610231,2|0,0:2|0:0,0:0:0:0:
115,120,96306,5,2,3:2:0:0:
70,195,96433,2,0,B|107:196|141:221|141:221|163:179|200:168,1,150.000005722046,8|0,0:2|0:0,0:0:0:0:
341,156,96814,2,0,P|304:147|269:135,1,75.0000028610231,8|0,0:2|0:0,0:0:0:0:
148,27,97068,1,8,0:2:0:0:
172,20,97196,1,8,0:2:0:0:
261,50,97323,6,0,P|149:64|40:92,1,225.000008583069,6|0,3:2|0:0,0:0:0:0:
0,162,97831,2,0,P|34:174|70:165,1,75.0000028610231,8|0,0:2|0:0,0:0:0:0:
210,262,98085,2,0,P|212:179|145:155,1,150.000005722046,2|0,0:2|3:2,0:0:0:0:
15,340,98594,6,0,P|51:348|87:361,1,75.0000028610231,2|0,0:2|0:0,0:0:0:0:
43,259,98848,2,0,P|79:267|115:280,1,75.0000028610231,10|0,0:2|0:0,0:0:0:0:
274,217,99102,1,2,0:2:0:0:
297,223,99229,1,2,0:2:0:0:
207,327,99357,6,0,P|190:238|160:153,2,179.999994506836,0|0|8,3:2|0:0|0:2,0:0:0:0:
367,384,100119,1,2,0:2:0:0:
373,362,100246,1,2,0:2:0:0:
308,259,100374,5,0,3:2:0:0:
297,345,100501,2,0,P|367:320|441:306,1,150.000005722046,8|0,0:2|0:0,0:0:0:0:
499,250,100882,2,0,P|488:214|484:176,1,75.0000028610231,8|0,0:2|0:0,0:0:0:0:
346,89,101136,2,0,P|356:124|360:162,1,75.0000028610231,2|0,3:2|0:0,0:0:0:0:
512,57,101391,6,0,B|440:89|407:37|412:18|368:-26|293:15,1,225.000008583069,6|0,3:2|0:0,0:0:0:0:
196,57,101899,2,0,P|232:64|267:78,1,75.0000028610231,8|0,0:2|0:0,0:0:0:0:
326,266,102153,1,2,0:2:0:0:
319,288,102280,1,2,0:2:0:0:
257,202,102407,6,0,L|387:168,1,112.500004291535,0|0,3:2|0:0,0:0:0:0:
363,163,102662,2,0,L|255:191,1,112.500004291535,0|0,0:0|0:0,0:0:0:0:
180,147,102916,6,0,L|459:224,1,269.999991760254,10|0,0:2|0:0,0:0:0:0:
499,165,103424,6,0,B|535:93|495:38|450:20|408:40|397:88|422:115,1,244.999992523194,6|0,3:2|0:0,0:0:0:0:
440,219,104441,5,2,0:2:0:0:
436,235,104568,1,2,0:2:0:0:
382,295,104696,1,2,3:2:0:0:
386,311,104823,1,2,0:2:0:0:
454,355,104950,5,10,0:2:0:0:
484,350,105077,1,2,0:2:0:0:
354,209,105204,5,2,0:2:0:0:
324,204,105331,1,2,0:2:0:0:
272,287,105458,6,0,B|186:335|135:265|141:246|88:174|-6:233,1,300,6|0,3:2|0:0,0:0:0:0:
0,242,107492,5,2,3:2:0:0:
58,307,108001,1,0,3:2:0:0:
220,215,108509,5,8,0:2:0:0:
226,204,108636,1,8,0:2:0:0:
231,193,108763,2,0,L|211:106,1,50,8|0,0:3|0:0,0:0:0:0:
73,78,109018,5,8,0:2:0:0:
67,89,109145,1,8,0:2:0:0:
62,100,109272,2,0,L|82:187,1,50,8|0,0:3|0:0,0:0:0:0:
147,281,109526,6,0,B|254:201|408:234|462:358|462:358|425:296|340:281,1,489.999985046387,6|2,3:2|0:2,0:0:0:0:
180,132,111748,6,0,B|192:79|162:33|162:33|193:79|269:103|356:87|356:87|212:186|246:371,1,640,6|0,3:2|0:0,0:0:0:0:
