osu file format v14

[General]
AudioFilename: audio.mp3
AudioLeadIn: 0
PreviewTime: 71518
Countdown: 0
SampleSet: Soft
StackLeniency: 0.3
Mode: 0
LetterboxInBreaks: 0
WidescreenStoryboard: 1

[Editor]
Bookmarks: 20035,36306,52577,60713,68848,72916,103424,107492,109526,116192
DistanceSpacing: 1
BeatDivisor: 4
GridSize: 32
TimelineZoom: 0.9

[Metadata]
Title:Hoshi ni Negai o
TitleUnicode:星に願いを
Artist:Haruna Yumi
ArtistUnicode:春奈有美
Creator:Shirahane Suou
Version:Easy
Source:秋のうららの~あかね色商店街~
Tags:aki no urara no akaneiro shoutengai japanese video game visual novel opening eroge pop jpop j-pop ブルームハンドル bloom handle mocaotic tomatas95 big sis
BeatmapID:4058574
BeatmapSetID:1958904

[Difficulty]
HPDrainRate:2
CircleSize:2.8
OverallDifficulty:2
ApproachRate:3.5
SliderMultiplier:0.9
SliderTickRate:1

[Events]
//Background and Video events
0,0,"negai.jpg",0,0
//Break Periods
//Storyboard Layer 0 (Background)
//Storyboard Layer 1 (Fail)
//Storyboard Layer 2 (Pass)
//Storyboard Layer 3 (Foreground)
//Storyboard Layer 4 (Overlay)
//Storyboard Sound Samples

[TimingPoints]
458,508.474576271186,4,2,1,60,1,0
1730,508.474576271186,4,2,1,60,1,0
20035,-100,4,2,1,40,0,0
36306,-100,4,2,1,50,0,0
52577,-100,4,2,1,60,0,0
72916,-100,4,2,1,70,0,1
103424,-100,4,2,1,60,0,0
109526,555.555555555556,4,2,1,60,1,0
116192,-100,4,2,1,5,0,0

[Colours]
Combo1 : 155,207,210
Combo2 : 227,149,167
Combo3 : 210,159,209
Combo4 : 232,173,142

[HitObjects]
251,101,458,6,0,L|232:204,1,90,2|0,0:2|3:2,0:0:0:0:
204,223,1220,1,10,0:2:0:0:
267,287,1730,6,0,P|331:302|386:267,1,135,6|2,3:2|0:2,0:0:0:0:
484,173,3255,1,8,0:2:0:0:
402,133,3763,2,0,P|343:144|263:164,1,135,2|2,3:2|0:2,0:0:0:0:
228,178,4780,2,0,P|204:144|214:86,1,90,2|8,3:2|0:2,0:0:0:0:
241,13,5797,6,0,P|306:35|388:38,1,135,2|2,3:2|0:2,0:0:0:0:
505,18,7323,1,8,0:2:0:0:
464,98,7831,2,0,P|450:164|439:230,1,135,2|2,3:2|0:2,0:0:0:0:
455,272,8848,1,0,3:2:0:0:
389,333,9357,1,10,0:2:0:0:
304,302,9865,6,0,P|234:308|213:377,2,135,6|2|10,3:2|0:2|0:2,0:0:0:0:
387,267,11899,2,0,P|416:203|367:150,2,135,2|2|10,3:2|0:2|0:2,0:0:0:0:
326,333,13933,6,0,P|270:328|225:313,1,90,2|8,3:2|0:2,0:0:0:0:
211,281,14696,2,0,L|236:135,1,135,2|10,0:2|0:2,0:0:0:0:
291,79,15967,2,0,L|275:-1,2,67.5,14|14|14,0:2|0:2|0:2,0:0:0:0:
405,150,17492,1,12,0:2:0:0:
447,70,18001,5,6,3:2:0:0:
91,10,20035,6,0,P|66:85|59:156,1,135,6|2,3:2|3:2,0:0:0:0:
149,346,22068,1,2,3:2:0:0:
50,253,22831,2,0,P|114:233|180:219,1,135,2|10,3:2|0:2,0:0:0:0:
238,149,24102,2,0,P|280:139|333:213,1,135,2|2,3:2|3:2,0:0:0:0:
271,370,25882,2,0,P|184:346|95:329,1,180,2|2,0:2|3:2,0:0:0:0:
3,230,27662,1,10,0:2:0:0:
74,175,28170,6,0,P|131:168|174:231,1,135,2|2,3:2|3:2,0:0:0:0:
319,331,29950,2,0,P|403:339|462:267,1,180,2|2,0:2|3:2,0:0:0:0:
507,145,31729,1,8,0:2:0:0:
423,111,32238,2,0,P|357:126|294:151,2,135,2|2|10,3:2|3:2|0:2,0:0:0:0:
400,23,34272,2,0,P|334:38|271:63,1,135,0|0,3:2|3:2,0:0:0:0:
102,211,36306,6,0,P|148:257|214:256,1,135,6|2,3:2|3:2,0:0:0:0:
337,201,37831,1,8,0:2:0:0:
290,123,38340,2,0,P|225:102|158:98,1,135,2|2,3:2|3:2,0:0:0:0:
55,11,39865,1,10,0:2:0:0:
15,91,40374,2,0,P|35:156|45:223,1,135,2|2,3:2|3:2,0:0:0:0:
109,286,41645,1,2,3:2:0:0:
184,236,42153,2,0,P|270:231|338:291,1,180,2|2,0:2|3:2,0:0:0:0:
443,373,43933,1,10,0:2:0:0:
493,298,44441,6,0,P|473:233|460:167,1,135,2|2,3:2|3:2,0:0:0:0:
384,118,45713,1,2,3:2:0:0:
329,189,46221,2,0,P|262:207|165:150,1,180,2|2,0:2|3:2,0:0:0:0:
95,43,48001,1,8,0:2:0:0:
176,4,48509,2,0,P|242:14|308:29,1,135,2|2,3:2|3:2,0:0:0:0:
426,95,50035,1,10,0:2:0:0:
359,155,50543,2,0,P|339:202|336:305,2,135,0|0|12,3:2|3:2|0:2,0:0:0:0:
295,90,52577,6,0,L|280:35,2,45,12|8|10,0:2|0:2|0:2,0:0:0:0:
230,257,54102,1,8,0:2:0:0:
176,184,54611,2,0,L|104:169,2,67.5,10|10|10,0:2|0:2|0:2,0:0:0:0:
308,209,56136,1,12,0:2:0:0:
250,278,56645,6,0,L|239:339,2,45,12|8|10,0:2|0:2|0:2,0:0:0:0:
293,103,58170,1,8,0:2:0:0:
372,145,58679,2,0,P|392:190|388:210,2,67.5,10|10|10,0:2|0:2|0:2,0:0:0:0:
252,207,60204,1,10,0:2:0:0:
296,285,60713,6,0,P|339:290|399:315,1,90,4|10,3:2|0:2,0:0:0:0:
449,245,61729,2,0,P|433:202|427:158,1,90,2|8,3:2|0:2,0:0:0:0:
361,97,62746,1,2,3:2:0:0:
255,181,63509,2,0,P|189:190|136:130,1,135,2|8,0:2|0:2,0:0:0:0:
75,84,64780,5,6,3:2:0:0:
181,1,65543,2,0,P|245:20|312:30,1,135,2|8,0:2|0:2,0:0:0:0:
366,102,66814,2,0,P|346:166|336:233,1,135,6|2,3:2|0:2,0:0:0:0:
246,334,68340,1,10,0:2:0:0:
165,293,68848,6,0,B|97:279|97:279|44:329,2,135,4|4|12,3:2|3:2|0:2,0:0:0:0:
239,241,70882,2,0,L|249:185,2,45,8|8|8,0:2|0:2|0:2,0:0:0:0:
362,371,72407,1,12,0:2:0:0:
406,292,72916,6,0,P|399:248|385:205,1,90,6|8,3:2|0:2,0:0:0:0:
307,160,73933,2,0,P|262:167|219:181,1,90,2|8,3:2|0:2,0:0:0:0:
156,245,74950,2,0,P|111:237|68:223,1,90,2|8,3:2|0:2,0:0:0:0:
46,191,75713,1,2,0:2:0:0:
46,191,75967,2,0,L|65:87,1,90,2|8,3:2|0:2,0:0:0:0:
126,39,76984,6,0,P|170:32|214:21,1,90,2|8,3:2|0:2,0:0:0:0:
276,86,78001,2,0,P|320:92|364:103,1,90,2|8,3:2|0:2,0:0:0:0:
439,54,79018,2,0,P|473:80|471:129,1,90,2|8,3:2|0:2,0:0:0:0:
499,167,79780,1,2,0:2:0:0:
499,167,80035,2,0,P|493:209|450:232,1,90,2|8,3:2|0:2,0:3:0:0:
387,290,81052,6,0,P|336:245|219:252,1,180,6|0,3:2|3:2,0:0:0:0:
178,321,82577,1,10,0:2:0:0:
99,276,83085,2,0,P|91:231|79:188,1,90,0|8,3:2|0:2,0:0:0:0:
59,147,83848,2,0,P|125:148|179:110,1,135,2|8,0:2|0:2,0:0:0:0:
257,65,85119,6,0,P|301:73|343:87,1,90,2|10,3:2|0:2,0:0:0:0:
366,126,85882,2,0,L|349:228,1,90,2|2,0:2|0:2,0:0:0:0:
316,244,86645,1,10,0:2:0:0:
377,309,87153,2,0,P|420:311|470:270,1,90,4|0,3:2|3:2,0:0:0:0:
502,208,88170,2,0,L|514:146,1,45,2|10,3:2|0:3,0:0:0:0:
492,122,88679,1,8,0:2:0:0:
404,144,89187,6,0,P|359:146|317:131,1,90,6|8,3:2|0:2,0:0:0:0:
243,80,90204,2,0,P|198:77|156:92,1,90,2|8,3:2|0:2,0:0:0:0:
145,181,91221,2,0,L|164:282,1,90,2|8,3:2|0:2,0:0:0:0:
178,317,91984,1,2,0:2:0:0:
178,317,92238,2,0,P|149:342|85:334,1,90,2|8,3:2|0:2,0:0:0:0:
9,330,93255,6,0,L|28:239,1,90,2|8,3:2|0:2,0:0:0:0:
108,200,94272,2,0,L|88:109,1,90,2|8,3:2|0:2,0:0:0:0:
37,37,95289,2,0,P|75:15|119:22,1,90,2|8,3:2|0:2,0:0:0:0:
163,47,96052,1,2,0:2:0:0:
163,47,96306,2,0,L|259:25,1,90,2|8,3:2|0:2,0:0:0:0:
304,99,97323,6,0,P|254:186|244:274,1,180,6|0,3:2|3:2,0:0:0:0:
275,348,98848,1,10,0:2:0:0:
358,313,99357,2,0,P|402:316|446:328,1,90,0|8,3:2|0:2,0:0:0:0:
486,347,100119,2,0,P|513:301|485:218,1,135,2|8,0:2|0:2,0:0:0:0:
413,183,101391,2,0,P|369:193|327:209,1,90,6|8,3:2|0:2,0:0:0:0:
299,244,102153,2,0,P|245:258|184:200,1,135,2|10,0:2|0:2,0:0:0:0:
128,143,103424,5,6,3:2:0:0:
273,36,104441,2,0,P|317:41|359:57,1,90,2|10,0:2|0:2,0:0:0:0:
449,48,105458,6,0,B|508:139|442:193|435:184|354:252|431:344,1,315,6|0,3:2|0:0,0:0:0:0:
460,361,107492,1,2,3:2:0:0:
498,279,108001,1,0,3:2:0:0:
426,226,108509,2,0,P|381:226|339:242,1,90,8|8,0:2|0:2,0:0:0:0:
275,308,109526,6,0,B|144:374|88:238|88:238|171:201,1,315,6|2,3:2|0:2,0:0:0:0:
202,185,111748,1,6,3:2:0:0:
256,192,112026,12,0,116192,0:0:0:0:
