osu file format v14

[General]
AudioFilename: audio.mp3
AudioLeadIn: 0
PreviewTime: 71450
Countdown: 0
SampleSet: Soft
StackLeniency: 0.7
Mode: 0
LetterboxInBreaks: 0
WidescreenStoryboard: 1

[Editor]
Bookmarks: 20020,36292,52563,60698,72902,103410,109512,125783,142054,158326,166461,178665,211207,215275,241715,274258,278326,284992
DistanceSpacing: 1.5
BeatDivisor: 4
GridSize: 32
TimelineZoom: 1

[Metadata]
Title:Hoshi ni Negai o
TitleUnicode:星に願いを
Artist:Haruna Yumi
ArtistUnicode:春奈有美
Creator:Shirahane Suou
Version:Autumn
Source:秋のうららの~あかね色商店街~
Tags:aki no urara no akaneiro shoutengai japanese video game visual novel opening eroge pop ブルームハンドル bloom handle
BeatmapID:2635193
BeatmapSetID:1268004

[Difficulty]
HPDrainRate:4.5
CircleSize:4
OverallDifficulty:7
ApproachRate:8
SliderMultiplier:1.7
SliderTickRate:1

[Events]
//Background and Video events
0,0,"bg.jpg",0,0
//Break Periods
//Storyboard Layer 0 (Background)
//Storyboard Layer 1 (Fail)
//Storyboard Layer 2 (Pass)
//Storyboard Layer 3 (Foreground)
//Storyboard Layer 4 (Overlay)
//Storyboard Sound Samples

[TimingPoints]
-318,508.474576271186,4,2,1,60,1,0
444,-166.666666666667,4,2,1,50,0,0
1715,-111.111111111111,4,2,1,50,0,0
15953,-83.3333333333333,4,2,1,50,0,0
16715,-111.111111111111,4,2,1,50,0,0
20020,-133.333333333333,4,2,1,40,0,0
52563,-111.111111111111,4,2,1,50,0,0
54597,-83.3333333333333,4,2,1,50,0,0
55868,-111.111111111111,4,2,1,50,0,0
58665,-83.3333333333333,4,2,1,50,0,0
59936,-111.111111111111,4,2,1,50,0,0
72393,-90.9090909090908,4,2,1,50,0,0
72902,-90.9090909090908,4,2,1,70,0,1
85105,-66.6666666666667,4,2,1,70,0,1
87139,-90.9090909090908,4,2,1,70,0,1
103410,-200,4,2,1,50,0,0
104427,-90.9090909090908,4,2,1,50,0,0
105444,-1000,4,2,1,50,0,0
107478,-90.9090909090908,4,2,1,50,0,0
109512,-111.111111111111,4,2,1,50,0,0
123749,-83.3333333333333,4,2,1,50,0,0
124512,-111.111111111111,4,2,1,50,0,0
125783,-111.111111111111,4,2,1,40,0,0
158326,-111.111111111111,4,2,1,50,0,0
160359,-83.3333333333333,4,2,1,50,0,0
161631,-111.111111111111,4,2,1,50,0,0
164427,-83.3333333333333,4,2,1,50,0,0
165698,-111.111111111111,4,2,1,50,0,0
178156,-90.9090909090908,4,2,1,50,0,0
178665,-90.9090909090908,4,2,1,70,0,1
190868,-66.6666666666667,4,2,1,70,0,1
191631,-90.9090909090908,4,2,1,70,0,1
211207,-100,4,2,1,50,0,0
215275,-100,4,2,1,60,0,0
217309,-76.9230769230769,4,2,1,60,0,0
218071,-100,4,2,1,60,0,0
237648,-400,4,2,1,60,0,0
240444,-111.111111111111,4,2,1,60,0,0
241207,-90.9090909090909,4,2,1,60,0,0
241715,-90.9090909090909,4,2,1,70,0,1
253919,-66.6666666666667,4,2,1,70,0,1
255953,-90.9090909090909,4,2,1,70,0,1
272224,-200,4,2,1,50,0,0
273241,-90.9090909090909,4,2,1,50,0,0
274258,-1000,4,2,1,50,0,0
278326,555.555555555556,4,2,1,50,1,0
278326,-1000,4,2,1,50,0,0
280826,-1000,4,2,1,30,0,0
284992,-1000,4,2,1,5,0,0

[Colours]
Combo1 : 249,156,99
Combo2 : 225,117,115
Combo3 : 243,211,186
Combo4 : 225,172,200

[HitObjects]
40,224,444,6,0,L|47:161,1,50.9999984436036,2|0,0:2|0:2,0:0:0:0:
194,249,953,2,0,L|191:274,1,25.4999992218018,2|2,3:2|0:2,0:0:0:0:
124,207,1207,1,10,0:2:0:0:
142,181,1334,1,2,0:2:0:0:
169,165,1461,1,2,0:2:0:0:
201,161,1588,1,2,0:2:0:0:
231,171,1715,6,0,P|283:184|330:156,1,76.4999976654054,6|0,3:2|0:0,0:0:0:0:
323,170,2096,2,0,L|327:124,1,38.2499988327027,2|8,0:2|0:2,0:0:0:0:
482,55,2478,1,2,0:2:0:0:
399,1,2732,2,0,L|392:77,1,76.4999976654054,2|0,3:2|0:0,0:0:0:0:
402,97,3114,2,0,L|412:142,1,38.2499988327027,2|8,0:2|0:2,0:0:0:0:
482,55,3495,1,2,0:2:0:0:
305,36,3749,6,0,L|224:42,1,76.4999976654054,2|0,3:2|0:0,0:0:0:0:
215,36,4131,2,0,L|209:85,1,38.2499988327027,2|8,0:2|0:2,0:0:0:0:
87,0,4512,2,0,L|97:82,1,76.4999976654054,2|2,0:2|3:2,0:0:0:0:
102,117,4893,1,8,0:2:0:0:
102,117,5020,1,0,3:2:0:0:
0,233,5275,2,0,P|32:213|70:215,1,76.4999976654054,8|0,0:2|3:2,0:0:0:0:
247,210,5783,6,0,P|209:211|176:192,1,76.4999976654054,2|0,3:2|0:0,0:0:0:0:
173,177,6165,2,0,L|215:170,1,38.2499988327027,2|8,0:2|0:2,0:0:0:0:
364,140,6546,1,2,0:2:0:0:
258,27,6800,2,0,L|272:111,1,76.4999976654054,2|0,3:2|0:0,0:0:0:0:
272,111,7181,2,0,L|286:58,1,38.2499988327027,2|8,0:2|0:2,0:0:0:0:
173,72,7563,1,2,0:2:0:0:
364,140,7817,6,0,L|350:224,1,76.4999976654054,2|0,3:2|0:0,0:0:0:0:
346,231,8198,2,0,L|389:235,1,38.2499988327027,2|8,0:2|0:2,0:0:0:0:
505,312,8580,2,0,L|428:319,1,76.4999976654054,2|2,0:2|3:2,0:0:0:0:
393,335,8961,1,8,0:2:0:0:
393,335,9088,1,0,3:2:0:0:
240,380,9343,1,10,0:2:0:0:
266,362,9470,1,2,0:2:0:0:
282,335,9597,1,10,0:2:0:0:
286,303,9724,1,10,0:2:0:0:
276,273,9851,6,0,P|244:232|144:239,1,152.999995330811,6|8,3:2|0:2,0:0:0:0:
25,129,10614,2,0,L|190:110,1,152.999995330811,0|0,3:2|3:2,0:0:0:0:
326,56,11376,1,8,0:2:0:0:
314,42,11885,6,0,B|267:73|267:73|281:185,1,152.999995330811,2|8,3:2|0:2,0:0:0:0:
382,298,12648,2,0,L|391:218,1,76.4999976654054,0|0,3:2|3:2,0:0:0:0:
401,187,13029,1,8,0:2:0:0:
401,187,13156,1,0,3:2:0:0:
214,258,13410,2,0,L|293:267,1,76.4999976654054,8|0,0:2|3:2,0:0:0:0:
469,134,13919,6,0,L|303:153,1,152.999995330811,2|8,3:2|0:2,0:0:0:0:
157,181,14681,2,0,P|210:131|194:60,1,152.999995330811,2|0,3:2|3:2,0:0:0:0:
42,14,15444,1,8,0:2:0:0:
35,20,15953,6,0,L|45:75,1,50.9999984436036,6|0,3:2|0:0,0:0:0:0:
194,60,16334,2,0,L|140:41,1,50.9999984436036,6|0,3:2|0:0,0:0:0:0:
50,202,16715,2,0,L|125:136,1,76.4999976654054,6|0,3:2|0:0,0:0:0:0:
112,143,17224,1,0,3:2:0:0:
165,340,17478,2,0,P|130:322|83:334,1,76.4999976654053,12|0,0:2|0:0,0:0:0:0:
264,206,17987,5,6,0:2:0:0:
264,206,19258,1,0,3:2:0:0:
428,302,19512,2,0,L|434:243,2,38.2499988327027,8|8|2,0:2|0:2|3:2,0:0:0:0:
351,196,20020,6,0,L|335:352,1,127.500004863739,6|0,3:2|0:0,0:0:0:0:
227,378,20783,1,2,3:2:0:0:
227,378,20910,2,0,P|201:351|206:286,1,95.6250036478044,2|0,0:2|0:0,0:0:0:0:
148,180,21546,1,8,0:2:0:0:
158,189,22054,6,0,L|18:205,1,127.500004863739,2|0,3:2|0:0,0:0:0:0:
0,70,22817,2,0,P|42:91|114:50,1,127.500004863739,2|2,3:2|0:2,0:0:0:0:
245,119,23580,1,10,0:2:0:0:
207,20,23834,1,2,3:2:0:0:
148,180,24088,6,0,L|165:314,1,127.500004863739,2|2,3:2|0:2,0:0:0:0:
272,384,24851,2,0,L|288:257,1,127.500004863739,2|2,3:2|0:2,0:0:0:0:
389,147,25614,2,0,P|365:162|329:164,1,63.7500024318696,8|0,0:2|0:2,0:0:0:0:
160,78,26122,6,0,P|200:88|216:180,1,127.500004863739,2|2,3:2|0:2,0:0:0:0:
149,292,26885,2,0,L|133:165,1,127.500004863739,2|0,3:2|0:0,0:0:0:0:
39,76,27648,1,10,0:2:0:0:
32,177,27902,1,2,3:2:0:0:
135,59,28156,6,0,P|186:22|247:31,1,127.500004863739,2|0,3:2|0:0,0:0:0:0:
341,143,28919,2,0,L|214:127,1,127.500004863739,2|2,3:2|0:2,0:0:0:0:
355,47,29681,2,0,L|418:39,1,63.7500024318696,8|0,0:2|0:2,0:0:0:0:
512,207,30190,6,0,P|450:197|400:234,1,127.500004863739,2|2,3:2|0:2,0:0:0:0:
274,178,30953,2,0,L|290:305,1,127.500004863739,2|2,3:2|0:2,0:3:0:0:
181,384,31715,1,8,0:2:0:0:
198,290,31970,1,2,3:2:0:0:
345,384,32224,6,0,P|376:349|465:353,1,127.500004863739,2|2,3:2|0:2,0:0:0:0:
512,230,32987,2,0,P|450:233|404:191,1,127.500004863739,2|2,3:2|0:2,0:0:0:0:
427,61,33749,1,10,0:2:0:0:
437,72,34258,6,0,L|290:89,1,127.500004863739,0|0,3:2|0:0,0:0:0:0:
163,68,35020,2,0,P|197:91|194:188,1,127.500004863739,0|0,3:2|0:0,0:0:0:0:
265,274,35783,1,8,0:2:0:0:
118,307,36037,1,2,3:2:0:0:
118,307,36165,1,0,3:2:0:0:
118,307,36292,6,0,L|106:175,1,127.500004863739,6|0,3:2|0:0,0:0:0:0:
28,52,37054,1,2,3:2:0:0:
28,52,37181,2,0,P|63:81|110:78,1,95.6250036478044,2|0,0:2|0:0,0:0:0:0:
266,37,37817,1,8,0:2:0:0:
248,32,38326,6,0,L|259:120,1,63.7500024318696,2|2,3:2|0:2,0:0:0:0:
266,127,38707,1,2,0:2:0:0:
403,0,39088,2,0,L|387:137,1,127.500004863739,2|2,3:2|0:2,0:0:0:0:
462,271,39851,1,10,0:2:0:0:
490,172,40105,1,2,3:2:0:0:
351,256,40359,6,0,P|316:226|230:239,1,127.500004863739,2|0,3:2|0:0,0:0:0:0:
139,153,41122,2,0,L|127:296,1,127.500004863739,2|2,3:2|0:2,0:0:0:0:
35,377,41885,2,0,L|29:313,1,63.7500024318696,8|0,0:2|0:2,0:0:0:0:
0,176,42393,6,0,P|36:195|67:191,1,63.7500024318696,2|2,3:2|0:2,0:0:0:0:
139,153,42902,1,2,0:2:0:0:
223,261,43156,2,0,L|239:134,1,127.500004863739,2|0,3:2|0:0,0:0:0:0:
206,7,43919,1,10,0:2:0:0:
309,56,44173,1,2,3:2:0:0:
144,96,44427,6,0,L|58:82,1,63.7500024318696,2|2,3:2|0:2,0:0:0:0:
49,79,44809,1,2,0:2:0:0:
0,240,45190,2,0,P|45:197|107:201,1,127.500004863739,2|2,3:2|0:2,0:0:0:0:
208,286,45953,2,0,L|214:210,1,63.7500024318696,8|0,0:2|0:2,0:0:0:0:
346,93,46461,6,0,P|300:135|238:131,1,127.500004863739,2|2,3:2|0:2,0:0:0:0:
141,49,47224,2,0,L|276:39,1,127.500004863739,2|2,3:2|0:2,0:0:0:0:
429,87,47987,1,8,0:2:0:0:
363,0,48241,1,2,3:2:0:0:
318,150,48495,6,0,L|335:291,1,127.500004863739,2|2,3:2|0:2,0:0:0:0:
226,369,49258,2,0,L|233:305,1,63.7500024318696,2|0,3:2|0:0,0:0:0:0:
178,186,49766,1,2,3:2:0:0:
75,279,50020,2,0,L|138:271,1,63.7500024318696,10|0,0:2|0:0,0:0:0:0:
371,264,50529,6,0,P|344:222|250:229,1,127.500004863739,0|0,3:2|0:0,0:0:0:0:
163,96,51292,2,0,L|290:87,1,127.500004863739,0|0,3:2|0:0,0:0:0:0:
411,44,52054,1,12,0:2:0:0:
403,32,52563,5,14,0:2:0:0:
308,231,52817,1,10,0:2:0:0:
512,170,53071,1,10,0:2:0:0:
502,166,53834,1,0,3:2:0:0:
438,384,54088,2,0,L|423:262,1,114.749996498108,8|0,0:2|0:0,0:0:0:0:
423,259,54597,6,0,L|480:270,1,50.9999984436036,10|0,0:2|0:0,0:0:0:0:
304,122,54978,2,0,L|265:165,1,50.9999984436036,10|0,0:2|0:0,0:0:0:0:
481,87,55359,2,0,L|462:32,1,50.9999984436036,10|0,0:2|0:0,0:0:0:0:
460,31,55868,2,0,L|418:24,1,38.2499988327027,0|0,3:2|0:0,0:0:0:0:
341,9,56122,2,0,P|383:53|379:115,1,114.749996498108,12|0,0:2|0:0,0:0:0:0:
374,130,56631,5,14,0:2:0:0:
192,1,56885,1,10,0:2:0:0:
174,230,57139,1,10,0:2:0:0:
180,227,57902,1,0,3:2:0:0:
279,119,58156,2,0,P|222:112|164:111,1,114.749996498108,8|0,0:2|0:0,0:0:0:0:
150,119,58665,6,0,L|137:65,1,50.9999984436036,10|0,0:2|0:0,0:0:0:0:
298,212,59046,2,0,L|351:227,1,50.9999984436036,10|0,0:2|0:0,0:0:0:0:
143,293,59427,2,0,L|102:331,1,50.9999984436036,10|0,0:2|0:0,0:0:0:0:
94,332,59936,1,2,3:2:0:0:
28,144,60190,1,10,0:2:0:0:
48,113,60317,1,8,0:2:0:0:
83,96,60444,1,2,3:2:0:0:
121,99,60571,1,0,3:2:0:0:
150,119,60698,6,0,L|168:290,1,152.999995330811,4|10,3:2|0:2,0:0:0:0:
277,199,61461,1,2,0:2:0:0:
283,333,61715,1,2,3:2:0:0:
404,259,61970,1,2,0:2:0:0:
404,259,62097,2,0,P|409:199|377:135,1,114.749996498108,2|2,0:2|0:2,0:0:0:0:
370,114,62605,1,2,0:2:0:0:
370,114,62732,6,0,P|409:129|457:121,1,76.4999976654053,2|0,3:2|0:0,0:0:0:0:
458,118,63114,2,0,L|445:22,1,76.4999976654053,2|0,0:2|0:0,0:0:0:0:
450,29,63495,1,2,0:2:0:0:
327,34,63749,2,0,P|290:28|252:26,1,76.4999976654053,0|0,3:2|0:0,0:0:0:0:
159,163,64258,2,0,P|196:156|234:154,1,76.4999976654053,8|0,0:2|0:0,0:0:0:0:
370,114,64766,6,0,P|349:145|352:183,1,76.4999976654053,6|0,3:2|0:0,0:0:0:0:
363,195,65148,2,0,P|357:232|355:271,1,76.4999976654053,2|0,0:2|0:0,0:0:0:0:
350,281,65529,1,2,0:2:0:0:
224,360,65783,2,0,P|221:321|216:283,1,76.4999976654053,0|0,3:2|0:0,0:0:0:0:
134,153,66292,2,0,P|171:170|225:161,1,76.4999976654053,8|2,0:2|0:2,0:0:0:0:
238,159,66673,1,2,0:2:0:0:
238,159,66800,6,0,P|240:120|245:82,1,76.4999976654053,6|0,3:2|0:0,0:0:0:0:
255,72,67181,2,0,P|218:55|164:64,1,76.4999976654053,2|0,0:2|0:0,0:0:0:0:
172,61,67563,1,2,0:2:0:0:
37,0,67817,2,0,P|42:37|44:76,1,76.4999976654053,0|2,3:2|0:2,0:0:0:0:
74,239,68326,1,10,0:2:0:0:
233,154,68580,1,10,0:2:0:0:
233,154,68707,1,10,0:2:0:0:
233,154,68834,6,0,B|176:144|176:144|147:165|147:165|83:153,1,152.999995330811,4|0,3:2|0:0,0:0:0:0:
201,278,69597,2,0,P|276:263|351:252,1,152.999995330811,0|0,3:2|0:0,0:0:0:0:
477,147,70359,1,12,0:2:0:0:
469,142,70868,5,2,3:2:0:0:
390,340,71122,1,2,3:2:0:0:
276,132,71376,1,2,3:2:0:0:
276,132,71631,2,0,L|269:191,1,38.2499988327027,2|0,0:2|0:0,0:0:0:0:
269,195,71885,2,0,P|231:173|171:187,1,76.4999976654053,2|2,0:2|3:2,0:0:0:0:
110,191,72266,1,2,0:2:0:0:
110,191,72393,6,0,P|168:158|172:91,1,140.25000428009,14|0,0:2|0:0,0:0:0:0:
163,77,72902,6,0,L|266:66,1,93.5000028533936,6|0,3:2|0:0,0:0:0:0:
286,63,73283,2,0,L|281:123,1,46.7500014266968,2|8,0:2|0:2,0:0:0:0:
266,308,73665,1,2,0:2:0:0:
438,225,73919,2,0,L|335:214,1,93.5000028533936,2|0,3:2|0:0,0:0:0:0:
327,198,74300,2,0,L|373:194,1,46.7500014266968,2|8,0:2|0:2,0:0:0:0:
508,102,74681,1,2,0:2:0:0:
377,0,74936,6,0,L|388:103,1,93.5000028533936,2|0,3:2|0:0,0:0:0:0:
410,115,75317,2,0,L|413:68,1,46.7500014266968,2|8,0:2|0:2,0:0:0:0:
259,125,75698,1,2,0:2:0:0:
420,251,75953,1,2,3:2:0:0:
420,251,76080,1,8,0:2:0:0:
420,251,76207,1,0,3:2:0:0:
237,384,76461,1,8,0:2:0:0:
307,216,76715,1,0,3:2:0:0:
471,361,76970,6,0,L|378:351,1,93.5000028533936,2|0,3:2|0:0,0:0:0:0:
348,365,77351,2,0,L|339:298,1,46.7500014266968,2|8,0:2|0:2,0:0:0:0:
179,241,77732,1,2,0:2:0:0:
317,123,77987,2,0,L|307:216,1,93.5000028533936,2|0,3:2|0:0,0:0:0:0:
289,236,78368,2,0,L|335:231,1,46.7500014266968,2|8,0:2|0:2,0:0:0:0:
198,136,78749,1,2,0:2:0:0:
91,315,79004,6,0,L|81:222,1,93.5000028533936,2|0,3:2|0:0,0:0:0:0:
56,205,79385,2,0,L|51:251,1,46.7500014266968,2|8,0:2|0:2,0:0:0:0:
198,136,79766,1,2,0:2:0:0:
43,71,80020,1,2,3:2:0:0:
43,71,80148,1,8,0:2:0:0:
43,71,80275,1,0,3:2:0:0:
174,254,80529,1,8,0:2:0:0:
248,33,80783,1,8,0:2:0:0:
248,33,80910,1,8,0:2:0:0:
248,33,81037,6,0,P|305:74|295:192,1,187.000005706787,6|8,3:2|0:2,0:0:0:0:
408,384,81800,2,0,B|423:316|423:316|394:278|394:278|409:205,1,187.000005706787,0|2,3:2|3:2,0:0:0:0:
322,354,82563,1,10,0:2:0:0:
499,260,82817,1,2,0:2:0:0:
499,260,82944,1,2,0:2:0:0:
499,260,83071,6,0,L|475:69,1,187.000005706787,2|8,3:2|0:2,0:0:0:0:
302,0,83834,2,0,L|290:76,1,46.7500014266968,2|2,3:2|0:2,0:0:0:0:
228,161,84088,2,0,L|220:114,1,46.7500014266968,0|8,3:2|0:2,0:0:0:0:
201,27,84343,1,0,3:2:0:0:
348,157,84597,1,8,0:2:0:0:
148,245,84851,1,0,3:2:0:0:
264,384,85105,5,2,3:2:0:0:
264,384,85232,2,0,P|270:353|264:322,1,63.7500024318696,2|0,0:2|0:3,0:3:0:0:
371,247,85487,1,2,0:2:0:0:
371,247,85614,2,0,P|340:240|309:246,1,63.7500024318696,10|0,0:2|0:3,0:3:0:0:
228,161,85868,1,2,0:2:0:0:
228,161,85995,2,0,P|221:191|227:222,1,63.7500024318696,2|0,0:2|3:2,0:3:0:0:
114,296,86249,1,2,0:2:0:0:
114,296,86376,2,0,P|144:302|175:296,1,63.7500024318696,2|0,0:2|0:3,0:3:0:0:
143,219,86631,1,10,0:2:0:0:
3,360,86885,1,2,0:2:0:0:
3,360,87012,1,2,0:2:0:0:
3,360,87139,5,4,3:2:0:0:
68,170,87393,1,8,0:2:0:0:
178,297,87648,1,0,3:2:0:0:
178,297,87775,1,8,0:2:0:0:
178,297,87902,1,2,3:2:0:0:
270,107,88156,1,2,3:2:0:0:
270,107,88283,1,8,0:2:0:0:
270,107,88410,2,0,L|198:117,1,46.7500014266968,2|2,3:2|0:2,0:0:0:0:
136,121,88665,1,8,0:2:0:0:
317,271,88919,1,10,0:2:0:0:
317,271,89046,1,8,0:2:0:0:
317,271,89173,6,0,L|409:258,1,93.5000028533936,6|0,3:2|0:0,0:0:0:0:
441,251,89554,2,0,L|432:314,1,46.7500014266968,2|8,0:2|0:2,0:0:0:0:
352,159,89936,1,2,0:2:0:0:
242,358,90190,2,0,L|149:345,1,93.5000028533936,2|0,3:2|0:0,0:0:0:0:
122,330,90571,2,0,L|113:266,1,46.7500014266968,2|8,0:2|0:2,0:0:0:0:
256,206,90953,1,2,0:2:0:0:
130,73,91207,6,0,L|142:165,1,93.5000028533936,2|0,3:2|0:0,0:0:0:0:
159,192,91588,2,0,L|112:185,1,46.7500014266968,2|8,0:2|0:2,0:0:0:0:
253,94,91970,1,2,0:2:0:0:
44,22,92224,1,2,3:2:0:0:
44,22,92351,1,8,0:2:0:0:
44,22,92478,1,0,3:2:0:0:
159,192,92732,1,8,0:2:0:0:
184,0,92987,1,0,3:2:0:0:
32,151,93241,6,0,L|46:259,1,93.5000028533936,2|0,3:2|0:0,0:0:0:0:
63,279,93622,2,0,L|16:286,1,46.7500014266968,2|8,0:2|0:2,0:0:0:0:
159,192,94004,1,2,0:2:0:0:
96,379,94258,2,0,L|188:366,1,93.5000028533936,2|0,3:2|0:0,0:0:0:0:
225,384,94639,2,0,L|232:337,1,46.7500014266968,2|8,0:2|0:2,0:0:0:0:
266,146,95020,1,2,0:2:0:0:
437,269,95275,6,0,L|344:256,1,93.5000028533936,2|0,3:2|0:0,0:0:0:0:
316,240,95656,2,0,L|269:247,1,46.7500014266968,2|8,0:2|0:2,0:0:0:0:
419,140,96037,1,2,0:2:0:0:
278,0,96292,1,2,3:2:0:0:
278,0,96419,1,8,0:2:0:0:
278,0,96546,1,0,3:2:0:0:
266,146,96800,1,8,0:2:0:0:
447,49,97054,1,8,0:2:0:0:
447,49,97181,1,8,0:2:0:0:
447,49,97309,6,0,P|497:84|487:210,1,187.000005706787,6|8,3:2|0:2,0:0:0:0:
326,338,98071,2,0,B|375:330|407:287|407:287|439:316|488:319,1,187.000005706787,0|2,3:2|3:2,0:0:0:0:
379,161,98834,1,10,0:2:0:0:
224,341,99088,1,2,0:2:0:0:
224,341,99215,1,2,0:2:0:0:
224,341,99343,6,0,B|236:232|236:232|272:218|322:236,1,187.000005706787,0|8,3:2|0:2,0:0:0:0:
390,60,100105,2,0,L|324:70,1,46.7500014266968,2|2,3:2|0:2,0:0:0:0:
240,133,100359,2,0,L|286:140,1,46.7500014266968,0|8,3:2|0:2,0:0:0:0:
379,161,100614,1,0,3:2:0:0:
240,22,100868,1,8,0:2:0:0:
181,237,101122,1,2,3:2:0:0:
67,45,101376,6,0,L|48:257,1,187.000005706787,4|8,3:2|0:2,0:0:0:0:
212,358,102139,2,0,L|156:369,1,46.7500014266968,2|2,0:2|0:2,0:0:0:0:
130,384,102393,2,0,P|111:342|125:298,1,93.5000028533936,0|0,3:2|0:0,0:0:0:0:
195,125,102902,2,0,P|220:167|204:217,1,93.5000028533936,8|0,0:2|0:0,0:0:0:0:
212,358,103410,6,0,B|276:339|271:398|347:358,1,127.5,4|0,3:2|0:0,0:0:0:0:
457,353,104427,6,0,L|449:287,1,46.7500014266968,2|2,0:2|0:2,0:0:0:0:
365,218,104681,2,0,L|431:226,1,46.7500014266968,2|2,3:2|0:2,0:0:0:0:
512,148,104936,1,10,0:2:0:0:
493,119,105063,1,2,0:2:0:0:
464,101,105190,1,2,0:2:0:0:
429,98,105317,1,2,0:2:0:0:
398,112,105444,6,0,P|362:107|339:107,1,59.5,6|2,3:2|0:2,0:0:0:0:
329,96,107478,5,2,3:2:0:0:
334,101,107987,1,0,3:2:0:0:
339,107,108495,2,0,L|334:166,1,46.7500014266968,8|8,0:2|0:2,0:0:0:0:
323,260,108749,1,0,3:2:0:0:
131,240,109004,1,10,0:2:0:0:
148,210,109131,1,10,0:2:0:0:
178,191,109258,1,2,3:2:0:0:
212,187,109385,1,2,3:2:0:0:
245,198,109512,6,0,L|237:119,1,76.4999976654053,6|0,3:2|0:0,0:0:0:0:
227,105,109893,2,0,L|184:97,1,38.2499988327027,2|8,0:2|0:2,0:0:0:0:
16,154,110275,1,2,0:2:0:0:
90,21,110529,2,0,L|97:97,1,76.4999976654053,2|0,3:2|0:0,0:0:0:0:
109,117,110910,2,0,L|103:170,1,38.2499988327027,2|8,0:2|0:2,0:0:0:0:
76,327,111292,1,2,0:2:0:0:
218,257,111546,6,0,L|142:250,1,76.4999976654053,2|0,3:2|0:0,0:0:0:0:
122,240,111927,2,0,L|84:243,1,38.2499988327027,2|8,0:2|0:2,0:0:0:0:
178,371,112309,2,0,P|211:353|248:356,1,76.4999976654053,2|2,0:2|3:2,0:0:0:0:
286,371,112690,1,8,0:2:0:0:
286,371,112817,1,0,3:2:0:0:
378,254,113071,2,0,P|360:287|363:324,1,76.4999976654053,8|0,0:2|3:2,0:0:0:0:
504,372,113580,6,0,L|515:278,1,76.4999976654053,2|0,3:2|0:0,0:0:0:0:
502,276,113961,2,0,L|498:231,1,38.2499988327027,2|8,0:2|0:2,0:0:0:0:
383,171,114343,1,2,0:2:0:0:
455,43,114597,2,0,L|461:119,1,76.4999976654053,2|0,3:2|0:0,0:0:0:0:
472,138,114978,2,0,L|510:134,1,38.2499988327027,2|8,0:2|0:2,0:0:0:0:
352,81,115359,1,2,0:2:0:0:
411,268,115614,6,0,L|334:261,1,76.4999976654053,2|0,3:2|0:0,0:0:0:0:
321,249,115995,2,0,L|282:252,1,38.2499988327027,2|8,0:2|0:2,0:0:0:0:
155,158,116376,2,0,P|180:196|177:232,1,76.4999976654053,2|2,0:2|3:2,0:0:0:0:
168,257,116758,1,8,0:2:0:0:
168,257,116885,1,0,3:2:0:0:
68,116,117139,1,10,0:2:0:0:
88,84,117266,1,2,0:2:0:0:
120,63,117393,1,10,0:2:0:0:
158,58,117520,1,10,0:2:0:0:
195,69,117648,6,0,L|356:55,1,152.999995330811,6|8,3:2|0:2,0:0:0:0:
492,140,118410,2,0,P|419:139|388:204,1,152.999995330811,0|0,3:2|3:2,0:0:0:0:
437,355,119173,1,8,0:2:0:0:
449,343,119681,6,0,L|296:329,1,152.999995330811,2|8,3:2|0:2,0:0:0:0:
195,251,120444,2,0,L|271:244,1,76.4999976654053,0|0,3:2|3:2,0:0:0:0:
296,224,120826,1,8,0:2:0:0:
296,224,120953,1,0,3:2:0:0:
223,88,121207,2,0,L|216:164,1,76.4999976654053,8|0,0:2|3:2,0:0:0:0:
381,298,121715,6,0,L|394:145,1,152.999995330811,2|8,3:2|0:2,0:0:0:0:
471,0,122478,2,0,P|420:53|348:38,1,152.999995330811,2|0,3:2|3:2,0:0:0:0:
223,12,123241,1,8,0:2:0:0:
231,20,123749,6,0,L|225:71,1,50.9999984436036,6|0,3:2|0:0,0:0:0:0:
110,194,124131,2,0,L|157:173,1,50.9999984436036,6|0,3:2|0:0,0:0:0:0:
353,234,124512,2,0,L|285:184,1,76.4999976654053,6|0,3:2|0:0,0:0:0:0:
286,182,125020,1,0,3:2:0:0:
156,277,125275,2,0,L|111:283,2,38.2499988327027,8|8|2,0:2|0:2|3:2,0:0:0:0:
81,184,125783,6,0,L|156:174,1,76.4999976654053,6|0,3:2|0:0,0:0:0:0:
322,207,126292,1,8,0:2:0:0:
251,108,126546,1,2,3:2:0:0:
251,107,126673,2,0,P|241:163|236:220,1,114.749996498108,2|0,0:2|3:2,0:0:0:0:
390,266,127309,2,0,P|404:230|403:192,1,76.4999976654053,8|0,0:2|0:0,0:0:0:0:
438,36,127817,6,0,P|417:55|342:43,1,76.4999976654053,2|2,3:2|0:2,0:0:0:0:
340,46,128198,1,2,0:2:0:0:
340,46,128326,1,8,0:2:0:0:
257,148,128580,2,0,B|263:94|263:94|245:61|245:61|255:1,1,152.999995330811,2|2,3:2|3:2,0:0:0:0:
177,122,129343,1,10,0:2:0:0:
340,46,129597,1,2,3:2:0:0:
273,223,129851,6,0,L|257:147,1,76.4999976654053,2|0,3:2|0:0,0:0:0:0:
168,25,130359,1,8,0:2:0:0:
48,158,130614,2,0,P|81:120|181:124,1,152.999995330811,2|2,3:2|3:2,0:0:0:0:
273,223,131376,2,0,L|195:213,1,76.4999976654053,8|0,0:2|0:2,0:0:0:0:
0,331,131885,6,0,L|75:321,1,76.4999976654053,2|2,3:2|0:2,0:0:0:0:
248,298,132393,1,10,0:2:0:0:
197,214,132648,2,0,B|149:243|149:243|162:341,1,152.999995330811,2|0,3:2|3:2,0:0:0:0:
303,384,133410,1,10,0:2:0:0:
248,298,133665,1,2,3:2:0:0:
360,201,133919,6,0,P|339:225|343:282,1,76.4999976654053,2|2,3:2|0:2,0:0:0:0:
351,305,134300,1,2,0:2:0:0:
351,305,134427,1,8,0:2:0:0:
479,226,134681,2,0,L|467:55,1,152.999995330811,2|2,3:2|3:2,0:0:0:0:
358,0,135444,2,0,L|352:85,1,76.4999976654053,8|0,0:2|0:2,0:0:0:0:
205,169,135953,6,0,L|290:163,1,76.4999976654053,2|0,3:2|0:0,0:0:0:0:
448,170,136461,1,10,0:2:0:0:
353,76,136715,2,0,P|362:146|369:237,1,152.999995330811,2|2,3:2|3:2,0:0:0:0:
427,384,137478,1,8,0:2:0:0:
472,270,137732,1,2,3:2:0:0:
319,339,137987,6,0,L|225:331,1,76.4999976654053,2|0,3:2|0:0,0:0:0:0:
179,164,138495,1,10,0:2:0:0:
107,257,138749,2,0,L|259:244,1,152.999995330811,2|2,3:2|3:2,0:0:0:0:
348,156,139512,2,0,L|340:61,1,76.4999976654053,10|0,0:2|0:0,0:0:0:0:
194,0,140020,6,0,L|187:76,1,76.4999976654053,0|0,3:2|0:0,0:0:0:0:
170,235,140529,1,8,0:2:0:0:
0,193,140783,2,0,P|53:143|127:151,1,152.999995330811,0|0,3:2|3:2,0:0:0:0:
254,294,141546,1,8,0:2:0:0:
84,232,141800,1,2,3:2:0:0:
229,113,142054,6,0,L|246:203,1,76.4999976654053,6|0,3:2|0:0,0:0:0:0:
333,111,142563,1,8,0:2:0:0:
435,243,142817,1,2,3:2:0:0:
435,243,142944,2,0,P|399:212|321:224,1,114.749996498108,2|0,0:2|3:2,0:0:0:0:
179,280,143580,2,0,L|269:297,1,76.4999976654053,8|0,0:2|0:3,0:3:0:0:
91,343,144088,6,0,P|82:291|71:241,1,76.4999976654053,2|2,3:2|0:2,0:3:0:0:
58,236,144470,1,2,0:2:0:0:
58,236,144597,1,8,0:2:0:0:
196,143,144851,2,0,P|123:150|79:92,1,152.999995330811,2|2,3:2|3:2,0:0:0:0:
207,33,145614,2,0,L|282:41,1,76.4999976654053,10|2,0:2|3:2,0:0:0:0:
406,162,146122,6,0,L|397:86,1,76.4999976654053,2|0,3:2|0:0,0:0:0:0:
301,162,146631,1,10,0:2:0:0:
481,218,146885,2,0,P|410:197|355:244,1,152.999995330811,2|2,3:2|3:2,0:0:0:0:
246,348,147648,2,0,L|253:271,1,76.4999976654053,8|0,0:2|0:2,0:0:0:0:
151,118,148156,6,0,L|158:194,1,76.4999976654053,2|2,3:2|0:2,0:0:0:0:
163,365,148665,1,10,0:2:0:0:
3,326,148919,2,0,P|53:272|125:282,1,152.999995330811,2|0,3:2|3:2,0:0:0:0:
292,253,149681,1,10,0:2:0:0:
182,198,149936,1,2,3:2:0:0:
187,369,150190,6,0,P|242:378|287:358,1,76.4999976654053,6|2,3:2|0:2,0:0:0:0:
296,357,150571,1,2,0:2:0:0:
296,357,150698,1,8,0:2:0:0:
346,184,150953,2,0,B|306:152|306:152|295:197|291:268,1,152.999995330811,2|2,3:2|0:2,0:0:0:0:
439,360,151715,2,0,P|435:321|429:284,1,76.4999976654053,8|0,0:2|0:2,0:0:0:0:
512,79,152224,6,0,P|488:119|382:113,1,152.999995330811,2|10,3:2|0:2,0:0:0:0:
251,33,152987,2,0,L|413:18,1,152.999995330811,2|2,3:2|3:2,0:0:0:0:
499,176,153749,1,8,0:2:0:0:
390,121,154004,1,2,3:2:0:0:
275,271,154258,6,0,P|331:223|402:240,1,152.999995330811,6|10,3:2|0:2,0:0:0:0:
272,138,155020,2,0,P|204:143|94:155,1,152.999995330811,2|2,3:2|3:2,0:0:0:0:
0,43,155783,2,0,P|42:50|78:54,1,76.4999976654053,10|0,0:2|0:0,0:0:0:0:
301,45,156292,5,4,3:2:0:0:
208,200,156546,2,0,B|217:149|235:129|235:129|272:138,1,114.749996498108,8|8,0:2|0:2,0:0:0:0:
302,153,157054,1,0,3:0:0:0:
435,66,157309,1,8,0:2:0:0:
435,66,157436,1,8,0:2:0:0:
435,66,157563,1,0,3:0:0:0:
498,238,157817,2,0,P|460:230|422:228,1,76.4999976654053,12|0,0:2|0:0,0:0:0:0:
301,45,158326,5,14,0:2:0:0:
317,257,158580,1,10,0:2:0:0:
512,137,158834,1,10,0:2:0:0:
509,143,159597,1,0,3:2:0:0:
342,91,159851,2,0,P|364:55|440:66,1,114.749996498108,8|0,0:2|0:0,0:0:0:0:
435,66,160359,6,0,L|423:122,1,50.9999984436036,10|0,0:2|0:0,0:0:0:0:
317,257,160741,2,0,L|274:218,1,50.9999984436036,10|0,0:2|0:0,0:0:0:0:
210,59,161122,2,0,L|264:41,1,50.9999984436036,10|0,0:2|0:0,0:0:0:0:
266,40,161631,2,0,L|256:97,1,38.2499988327027,0|0,3:2|0:0,0:0:0:0:
218,167,161886,2,0,P|176:129|120:131,1,114.749996498108,12|0,0:2|0:0,0:0:0:0:
92,155,162393,5,14,0:2:0:0:
226,330,162648,1,10,0:2:0:0:
0,368,162902,1,10,0:2:0:0:
9,374,163665,1,0,3:2:0:0:
128,256,163919,2,0,P|89:282|16:262,1,114.749996498108,8|0,0:2|0:0,0:0:0:0:
17,260,164427,6,0,L|12:210,1,50.9999984436036,10|0,0:2|0:0,0:0:0:0:
0,37,164809,2,0,L|45:57,1,50.9999984436036,10|0,0:2|0:0,0:0:0:0:
201,133,165190,2,0,L|160:162,1,50.9999984436036,10|0,0:2|0:3,0:3:0:0:
147,168,165698,1,2,3:2:0:0:
242,289,165953,1,10,0:2:0:0:
276,304,166080,1,8,0:2:0:0:
314,301,166207,1,2,3:2:0:0:
346,280,166334,1,0,3:2:0:0:
364,247,166461,6,0,L|347:92,1,152.999995330811,4|10,3:2|0:2,0:0:0:0:
237,0,167224,1,2,0:2:0:0:
201,133,167478,1,2,3:2:0:0:
71,109,167732,1,2,0:2:0:0:
71,109,167859,2,0,P|34:176|43:212,1,114.749996498108,2|2,0:2|0:2,0:0:0:0:
40,248,168368,1,2,0:2:0:0:
40,248,168495,6,0,P|74:231|111:234,1,76.4999976654053,2|0,3:2|0:0,0:0:0:0:
131,261,168876,2,0,L|223:270,1,76.4999976654053,2|0,0:2|0:0,0:0:0:0:
218,264,169258,1,2,0:2:0:0:
344,161,169512,2,0,P|327:195|330:232,1,76.4999976654053,0|0,3:2|0:0,0:0:0:0:
368,384,170020,2,0,P|347:352|313:336,1,76.4999976654053,8|0,0:2|0:0,0:0:0:0:
150,288,170529,6,0,P|187:285|218:264,1,76.4999976654053,6|0,3:2|0:0,0:0:0:0:
224,255,170910,2,0,P|222:216|217:178,1,76.4999976654053,2|0,0:2|0:0,0:0:0:0:
211,171,171292,1,2,0:2:0:0:
104,60,171546,2,0,P|99:97|97:136,1,76.4999976654053,0|0,3:2|0:0,0:0:0:0:
0,266,172054,2,0,P|35:245|90:251,1,76.4999976654053,8|2,0:2|0:2,0:0:0:0:
97,267,172436,1,2,0:2:0:0:
97,267,172563,6,0,P|132:288|187:282,1,76.4999976654053,6|0,3:2|0:0,0:0:0:0:
179,292,172944,2,0,P|182:253|187:215,1,76.4999976654053,2|0,0:2|0:0,0:0:0:0:
191,207,173326,1,2,0:2:0:0:
348,254,173580,2,0,P|310:248|275:263,1,76.4999976654053,0|2,3:2|0:2,0:0:0:0:
122,132,174088,1,10,0:2:0:0:
246,21,174343,1,10,0:2:0:0:
246,21,174470,1,10,0:2:0:0:
246,21,174597,6,0,P|233:96|222:172,1,152.999995330811,4|0,3:2|0:0,0:0:0:0:
290,355,175359,2,0,P|244:297|172:309,1,152.999995330811,0|0,3:2|0:0,0:0:0:0:
34,238,176122,1,12,0:2:0:0:
45,249,176631,5,2,3:2:0:0:
0,38,176885,1,2,3:2:0:0:
207,105,177139,1,2,3:2:0:0:
207,105,177393,2,0,L|196:162,1,38.2499988327027,2|0,0:2|0:0,0:0:0:0:
184,158,177648,2,0,L|195:242,1,76.4999976654053,2|2,0:2|3:2,0:0:0:0:
274,267,178029,1,2,0:2:0:0:
274,267,178156,6,0,P|205:264|159:314,1,140.25000428009,14|0,0:2|0:0,0:0:0:0:
166,342,178665,6,0,L|264:355,1,93.5000028533936,6|0,3:2|0:0,0:0:0:0:
285,376,179046,2,0,L|334:369,1,46.7500014266968,2|8,0:2|0:2,0:0:0:0:
484,249,179427,1,2,0:2:0:0:
345,122,179681,2,0,L|358:220,1,93.5000028533936,2|0,3:2|0:0,0:0:0:0:
344,243,180063,2,0,L|295:236,1,46.7500014266968,2|8,0:2|0:2,0:0:0:0:
121,155,180444,1,2,0:2:0:0:
190,300,180698,6,0,L|202:207,1,93.5000028533936,2|0,3:2|0:0,0:0:0:0:
221,183,181080,2,0,L|214:134,1,46.7500014266968,2|8,0:2|0:2,0:0:0:0:
63,12,181461,1,2,0:2:0:0:
43,222,181715,1,2,3:2:0:0:
43,222,181843,1,8,0:2:0:0:
43,222,181970,1,0,3:2:0:0:
174,36,182224,1,8,0:2:0:0:
0,110,182478,1,0,3:2:0:0:
203,207,182732,6,0,L|307:197,1,93.5000028533936,2|0,3:2|0:0,0:0:0:0:
331,185,183114,2,0,L|338:136,1,46.7500014266968,2|8,0:2|0:2,0:0:0:0:
512,207,183495,1,2,0:2:0:0:
442,4,183749,2,0,L|428:96,1,93.5000028533936,2|0,3:2|0:0,0:0:0:0:
426,123,184131,2,0,L|472:116,1,46.7500014266968,2|8,0:2|0:2,0:0:0:0:
325,38,184512,1,2,0:2:0:0:
401,253,184766,6,0,L|308:239,1,93.5000028533936,2|0,3:2|0:0,0:0:0:0:
276,221,185148,2,0,L|229:227,1,46.7500014266968,2|8,0:2|0:2,0:0:0:0:
58,324,185529,1,2,0:2:0:0:
123,148,185783,1,2,3:2:0:0:
123,148,185910,1,8,0:2:0:0:
123,148,186037,1,0,3:2:0:0:
208,339,186292,1,8,0:2:0:0:
7,233,186546,1,8,0:2:0:0:
7,233,186673,1,8,0:2:0:0:
7,233,186800,6,0,B|69:221|69:221|111:247|111:247|213:229,1,187.000005706787,6|8,3:2|0:2,0:0:0:0:
382,128,187563,2,0,P|317:65|228:81,1,187.000005706787,0|2,3:2|3:2,0:0:0:0:
25,128,188326,1,10,0:2:0:0:
138,0,188580,1,2,0:2:0:0:
138,0,188707,1,2,0:2:0:0:
138,0,188834,6,0,P|128:93|122:186,1,187.000005706787,0|8,3:2|0:2,0:0:0:0:
253,331,189597,2,0,L|319:320,1,46.7500014266968,2|2,3:2|0:2,0:0:0:0:
394,258,189851,2,0,L|347:250,1,46.7500014266968,0|8,3:2|0:2,0:0:0:0:
259,232,190105,1,0,3:2:0:0:
402,367,190359,1,8,0:2:0:0:
351,141,190614,1,0,3:2:0:0:
457,257,190868,5,2,3:2:0:0:
457,257,190995,2,0,P|425:251|394:257,1,63.7500024318696,2|0,0:2|0:0,0:0:0:0:
288,142,191249,1,2,0:2:0:0:
288,142,191376,2,0,P|319:147|350:141,1,63.7500024318696,8|0,0:2|0:0,0:0:0:0:
480,46,191631,1,2,0:2:0:0:
480,46,191758,2,0,P|436:106|457:164,1,140.25000428009,0|2,3:2|3:2,0:0:0:0:
402,367,192393,1,10,0:2:0:0:
263,233,192648,1,2,0:2:0:0:
263,233,192775,1,2,0:2:0:0:
263,233,192902,5,4,3:2:0:0:
455,264,193156,1,8,0:2:0:0:
300,363,193410,1,8,0:2:0:0:
300,363,193537,1,8,0:2:0:0:
300,363,193665,2,0,L|308:308,1,46.7500014266968,2|2,3:2|0:2,0:0:0:0:
350,232,193919,1,10,0:2:0:0:
165,299,194173,1,2,3:2:0:0:
402,367,194427,1,8,0:2:0:0:
251,215,194681,1,10,0:2:0:0:
251,215,194809,1,8,0:2:0:0:
251,215,194936,6,0,L|140:203,1,93.5000028533936,6|0,3:2|0:0,0:0:0:0:
126,225,195317,2,0,L|70:231,1,46.7500014266968,2|8,0:2|0:2,0:0:0:0:
237,120,195698,1,2,0:2:0:0:
93,0,195953,2,0,L|105:111,1,93.5000028533936,2|0,3:2|0:0,0:0:0:0:
116,125,196334,2,0,L|122:69,1,46.7500014266968,2|8,0:2|0:2,0:0:0:0:
1,191,196715,1,2,0:2:0:0:
142,328,196970,6,0,L|152:235,1,93.5000028533936,2|0,3:2|0:0,0:0:0:0:
158,205,197351,2,0,L|214:211,1,46.7500014266968,2|8,0:2|0:2,0:0:0:0:
387,283,197732,1,2,0:2:0:0:
295,117,197987,1,2,3:2:0:0:
295,117,198114,1,8,0:2:0:0:
295,117,198241,1,0,3:2:0:0:
260,338,198495,1,8,0:2:0:0:
416,171,198749,1,0,3:2:0:0:
504,369,199004,6,0,L|411:357,1,93.5000028533936,2|0,3:2|0:0,0:0:0:0:
392,329,199385,2,0,L|386:273,1,46.7500014266968,2|8,0:2|0:2,0:0:0:0:
372,75,199766,1,2,0:2:0:0:
180,156,200020,2,0,P|232:148|279:188,1,93.5000028533936,2|0,3:2|0:0,0:0:0:0:
288,193,200402,2,0,L|224:207,1,46.7500014266968,2|8,0:2|0:2,0:0:0:0:
32,248,200783,1,2,0:2:0:0:
148,384,201037,6,0,L|159:291,1,93.5000028533936,2|0,3:2|0:0,0:0:0:0:
175,262,201419,2,0,L|111:248,1,46.7500014266968,2|8,0:2|0:2,0:0:0:0:
5,112,201800,1,2,0:2:0:0:
197,119,202054,1,2,3:2:0:0:
197,119,202181,1,8,0:2:0:0:
197,119,202309,1,0,3:2:0:0:
32,248,202563,1,8,0:2:0:0:
142,35,202817,1,8,0:2:0:0:
142,35,202944,1,8,0:2:0:0:
142,35,203071,6,0,P|175:81|303:60,1,187.000005706787,6|8,3:2|0:2,0:0:0:0:
479,210,203834,2,0,P|385:216|292:225,1,187.000005706787,0|2,3:2|3:2,0:0:0:0:
93,181,204597,1,10,0:2:0:0:
166,384,204851,1,2,0:2:0:0:
166,384,204978,1,2,0:2:0:0:
166,384,205105,6,0,P|177:291|193:199,1,187.000005706787,0|10,3:2|0:2,0:0:0:0:
309,5,205868,2,0,L|318:65,1,46.7500014266968,2|2,3:2|0:2,0:0:0:0:
390,133,206122,2,0,L|396:86,1,46.7500014266968,0|8,3:2|0:2,0:0:0:0:
418,0,206376,1,0,3:2:0:0:
289,145,206631,1,8,0:2:0:0:
505,107,206885,1,2,3:2:0:0:
399,308,207139,6,0,B|381:244|381:244|407:202|407:202|386:116,1,187.000005706787,6|8,3:2|0:2,0:0:0:0:
198,214,207902,2,0,L|257:223,1,46.7500014266968,2|2,0:2|0:2,0:0:0:0:
277,237,208156,2,0,L|291:133,1,93.5000028533936,0|0,3:2|0:0,0:0:0:0:
128,0,208665,2,0,L|140:92,1,93.5000028533936,8|0,0:2|0:0,0:0:0:0:
133,308,209173,5,4,3:2:0:0:
133,308,209300,1,8,0:2:0:0:
133,308,209427,1,0,3:2:0:0:
0,178,209681,2,0,L|95:190,1,93.5000028533936,8|0,0:2|0:0,0:0:0:0:
277,237,210190,1,8,0:2:0:0:
277,237,210317,1,8,0:2:0:0:
277,237,210444,1,0,3:2:0:0:
141,92,210698,1,10,0:2:0:0:
133,308,210953,1,10,0:2:0:0:
133,308,211080,1,8,0:2:0:0:
133,308,211207,5,6,3:2:0:0:
134,288,211715,1,0,3:2:0:0:
135,268,212224,1,0,3:2:0:0:
93,190,212478,1,8,0:2:0:0:
47,266,212732,1,0,3:2:0:0:
181,192,212987,1,10,0:2:0:0:
51,112,213241,5,6,3:2:0:0:
79,99,213749,1,0,3:2:0:0:
93,190,214258,1,8,0:2:0:0:
93,190,214385,1,8,0:2:0:0:
93,190,214512,1,0,3:2:0:0:
152,44,214766,1,8,0:2:0:0:
152,44,214893,1,8,0:2:0:0:
152,44,215020,1,0,3:2:0:0:
6,86,215275,5,14,0:2:0:0:
225,170,215529,1,8,0:2:0:0:
62,321,215783,1,8,0:2:0:0:
59,312,216546,1,0,3:2:0:0:
208,384,216800,2,0,B|229:343|229:343|220:297,1,85,8|2,0:2|0:2,0:0:0:0:
69,137,217309,6,0,P|45:145|7:147,1,55.2499974708558,14|0,0:2|0:0,0:0:0:0:
238,214,217690,2,0,P|265:216|291:224,1,55.2499974708558,10|0,0:2|0:0,0:0:0:0:
151,91,218071,2,0,B|150:120|165:157|165:157|151:169|138:189|138:189|149:216|150:258,1,170,10|2,0:2|3:2,0:0:0:0:
322,313,218834,1,8,0:2:0:0:
249,110,219088,1,2,0:2:0:0:
221,304,219343,5,14,0:2:0:0:
390,143,219597,1,8,0:2:0:0:
505,337,219851,1,8,0:2:0:0:
505,337,220105,2,0,B|538:259|456:257|525:147,1,170,2|0,0:2|3:2,0:0:0:0:
373,26,220868,2,0,L|383:110,1,85,8|2,0:2|0:2,0:0:0:0:
221,224,221376,6,0,L|169:215,1,42.5,14|2,0:2|0:2,0:0:0:0:
141,135,221631,1,2,0:2:0:0:
141,135,221758,2,0,L|182:128,1,42.5,8|0,0:2|0:0,0:0:0:0:
346,31,222139,2,0,B|295:46|295:46|281:101|310:168,1,170,10|0,0:2|3:2,0:0:0:0:
398,344,222902,1,8,0:2:0:0:
398,344,223029,1,8,0:2:0:0:
398,344,223156,1,2,3:2:0:0:
512,236,223410,6,0,B|445:226|445:226|420:251|420:251|347:239,1,170,4|8,3:2|0:2,0:0:0:0:
164,299,224173,2,0,P|216:283|298:369,1,170,2|0,3:2|3:2,0:0:0:0:
224,181,224936,1,8,0:2:0:0:
62,343,225190,1,2,0:2:0:0:
62,343,225317,1,2,0:2:0:0:
62,343,225444,6,0,P|56:300|49:258,1,85,2|2,3:2|0:2,0:0:0:0:
68,71,225953,1,10,0:2:0:0:
224,181,226207,2,0,B|262:178|308:195|308:195|327:159|364:129,1,170,2|0,3:2|3:2,0:0:0:0:
258,0,226970,2,0,L|268:89,1,85,8|2,0:2|0:2,0:0:0:0:
463,192,227478,6,0,L|472:107,1,85,4|2,3:2|0:2,0:0:0:0:
486,77,227859,1,2,0:2:0:0:
486,77,227987,1,10,0:2:0:0:
351,221,228241,2,0,L|360:305,1,85,2|0,3:2|0:0,0:0:0:0:
463,192,228749,1,2,3:2:0:0:
255,288,229004,1,10,0:2:0:0:
470,332,229258,1,2,0:2:0:0:
383,122,229512,6,0,B|338:114|338:114|302:131,1,85,4|2,3:2|0:2,0:0:0:0:
255,288,230020,1,10,0:2:0:0:
105,165,230275,2,0,B|144:145|144:145|200:161,1,85,2|0,3:2|0:0,0:0:0:0:
368,229,230783,1,2,3:2:0:0:
221,55,231037,1,10,0:2:0:0:
159,262,231292,1,10,0:2:0:0:
159,262,231419,1,8,0:2:0:0:
159,262,231546,6,0,L|101:271,1,42.5,6|0,3:2|0:0,0:0:0:0:
19,223,231800,2,0,B|79:233|79:233|93:291|68:339,1,170,2|2,0:2|3:2,0:0:0:0:
150,384,232436,1,2,0:2:0:0:
150,384,232563,2,0,L|164:328,1,42.5,2|0,0:2|0:0,0:0:0:0:
242,232,232817,2,0,L|252:273,1,42.5,2|0,0:2|0:0,0:0:0:0:
278,384,233071,1,10,0:2:0:0:
293,356,233198,1,2,0:2:0:0:
320,338,233325,1,2,0:2:0:0:
351,333,233452,1,2,0:2:0:0:
381,342,233579,5,14,0:2:0:0:
159,262,233834,1,10,0:2:0:0:
338,121,234088,1,10,0:2:0:0:
344,129,234851,1,0,3:2:0:0:
219,20,235105,2,0,P|182:51|198:137,1,127.5,12|0,0:2|0:0,0:0:0:0:
203,156,235614,5,14,0:2:0:0:
369,2,235868,1,8,0:2:0:0:
437,213,236122,1,8,0:2:0:0:
442,208,236885,1,0,3:2:0:0:
334,347,237139,2,0,P|297:319|300:232,1,127.5,12|0,0:2|0:0,0:0:0:0:
313,216,237648,6,0,B|209:174|219:280|107:215,1,212.5,6|0,3:2|0:0,0:0:0:0:
106,128,240444,6,0,L|170:137,1,38.2499988327027,2|0,0:2|0:0,0:0:0:0:
170,151,240698,2,0,P|209:126|255:127,1,76.4999976654053,2|2,0:2|3:2,0:0:0:0:
311,79,241080,1,2,0:2:0:0:
311,79,241207,6,0,P|272:135|287:201,1,140.25000428009,14|0,0:2|0:0,0:0:0:0:
298,219,241715,6,0,L|205:229,1,93.5000028533936,6|0,3:2|0:0,0:0:0:0:
171,250,242097,2,0,L|176:203,1,46.7500014266968,2|8,0:2|0:2,0:0:0:0:
30,147,242478,1,2,0:2:0:0:
145,0,242732,2,0,L|135:92,1,93.5000028533936,2|0,3:2|0:0,0:0:0:0:
113,123,243114,2,0,L|159:118,1,46.7500014266968,2|8,0:2|0:2,0:0:0:0:
9,44,243495,1,2,0:2:0:0:
102,233,243749,6,0,L|92:325,1,93.5000028533936,2|0,3:2|0:0,0:0:0:0:
77,357,244131,2,0,L|30:362,1,46.7500014266968,2|8,0:2|0:2,0:0:0:0:
218,296,244512,1,2,0:2:0:0:
113,123,244766,1,2,3:2:0:0:
113,123,244893,1,8,0:2:0:0:
113,123,245020,1,0,3:2:0:0:
12,269,245275,1,8,0:2:0:0:
216,189,245529,1,0,3:2:0:0:
47,50,245783,6,0,P|94:26|146:37,1,93.5000028533936,2|0,3:2|0:0,0:0:0:0:
168,48,246165,2,0,L|175:-3,1,46.7500014266968,2|8,0:2|0:2,0:0:0:0:
113,123,246546,1,2,0:2:0:0:
294,55,246800,2,0,L|396:69,1,93.5000028533936,2|0,3:2|0:0,0:0:0:0:
417,86,247181,2,0,L|366:93,1,46.7500014266968,2|8,0:2|0:2,0:0:0:0:
216,189,247563,1,2,0:2:0:0:
370,359,247817,6,0,L|379:266,1,93.5000028533936,2|0,3:2|0:0,0:0:0:0:
356,238,248198,2,0,L|363:289,1,46.7500014266968,2|8,0:2|0:2,0:0:0:0:
504,371,248580,1,2,0:2:0:0:
444,177,248834,1,2,3:2:0:0:
444,177,248961,1,8,0:2:0:0:
444,177,249088,1,0,3:2:0:0:
272,324,249343,1,8,0:2:0:0:
195,91,249597,1,8,0:2:0:0:
195,91,249724,1,8,0:2:0:0:
195,91,249851,6,0,P|224:142|348:131,1,187.000005706787,6|8,3:2|0:2,0:0:0:0:
272,324,250614,2,0,L|85:312,1,187.000005706787,0|2,3:2|3:2,0:0:0:0:
195,91,251376,1,10,0:2:0:0:
10,193,251631,1,2,0:2:0:0:
10,193,251758,1,2,0:2:0:0:
10,193,251885,6,0,L|197:205,1,187.000005706787,0|8,3:2|0:2,0:0:0:0:
339,42,252648,2,0,L|345:88,1,46.7500014266968,2|2,3:2|0:2,0:0:0:0:
425,163,252902,2,0,L|431:116,1,46.7500014266968,0|8,3:2|0:2,0:0:0:0:
454,33,253156,1,0,3:2:0:0:
315,187,253410,1,8,0:2:0:0:
512,261,253665,1,0,3:2:0:0:
396,350,253919,5,2,3:2:0:0:
396,350,254046,2,0,P|389:320|397:281,1,63.7500024318696,2|0,0:2|0:0,0:0:0:0:
315,187,254300,1,2,0:2:0:0:
315,187,254427,2,0,P|320:218|313:249,1,63.7500024318696,10|0,0:2|0:0,0:0:0:0:
237,353,254681,1,2,0:2:0:0:
237,353,254808,2,0,P|230:323|238:284,1,63.7500024318696,2|0,0:2|3:2,0:0:0:0:
156,190,255062,1,2,0:2:0:0:
156,190,255189,2,0,P|161:221|154:252,1,63.7500024318696,2|0,0:2|0:0,0:0:0:0:
106,331,255444,1,10,0:2:0:0:
87,100,255698,1,2,0:2:0:0:
87,100,255826,1,2,0:2:0:0:
87,100,255953,5,4,3:2:0:0:
315,187,256207,1,8,0:2:0:0:
154,252,256461,1,8,0:2:0:0:
154,252,256588,1,8,0:2:0:0:
154,252,256715,1,2,3:2:0:0:
247,47,256970,1,10,0:2:0:0:
247,47,257097,1,8,0:2:0:0:
247,47,257224,2,0,L|313:55,1,46.7500014266968,2|2,3:2|0:2,0:0:0:0:
387,63,257478,1,8,0:2:0:0:
326,279,257732,1,10,0:2:0:0:
326,279,257859,1,8,0:2:0:0:
326,279,257987,6,0,L|314:185,1,93.5000028533936,6|0,3:2|0:0,0:0:0:0:
301,149,258368,2,0,L|347:154,1,46.7500014266968,2|8,0:2|0:2,0:0:0:0:
173,224,258749,1,2,0:2:0:0:
293,52,259004,2,0,L|200:40,1,93.5000028533936,2|0,3:2|0:0,0:0:0:0:
165,27,259385,2,0,L|170:73,1,46.7500014266968,2|8,0:2|0:2,0:0:0:0:
43,199,259766,1,2,0:2:0:0:
185,317,260020,6,0,L|173:223,1,93.5000028533936,2|0,3:2|0:0,0:0:0:0:
164,187,260402,2,0,L|210:192,1,46.7500014266968,2|8,0:2|0:2,0:0:0:0:
76,84,260783,1,2,0:2:0:0:
68,312,261038,1,2,3:2:0:0:
68,312,261165,1,8,0:2:0:0:
68,312,261292,1,0,3:2:0:0:
211,193,261546,1,8,0:2:0:0:
43,199,261800,1,0,3:2:0:0:
217,336,262054,6,0,L|311:324,1,93.5000028533936,2|0,3:2|0:0,0:0:0:0:
339,306,262436,2,0,L|385:311,1,46.7500014266968,2|8,0:2|0:2,0:0:0:0:
224,198,262817,1,2,0:2:0:0:
379,44,263071,2,0,L|367:138,1,93.5000028533936,2|0,3:2|0:0,0:0:0:0:
356,165,263453,2,0,L|402:159,1,46.7500014266968,2|8,0:2|0:2,0:0:0:0:
211,80,263834,1,2,0:2:0:0:
281,285,264088,6,0,L|187:297,1,93.5000028533936,2|0,3:2|0:0,0:0:0:0:
154,295,264470,2,0,L|148:341,1,46.7500014266968,2|8,0:2|0:2,0:0:0:0:
246,184,264851,1,2,0:2:0:0:
48,285,265105,1,2,3:2:0:0:
48,285,265232,1,8,0:2:0:0:
48,285,265359,1,0,3:2:0:0:
237,384,265614,1,8,0:2:0:0:
111,175,265868,1,8,0:2:0:0:
111,175,265995,1,8,0:2:0:0:
111,175,266122,6,0,P|144:116|273:134,1,187.000005706787,6|8,3:2|0:2,0:0:0:0:
371,266,266885,2,0,L|387:70,1,187.000005706787,0|2,3:2|3:2,0:0:0:0:
254,261,267648,1,10,0:2:0:0:
472,365,267902,1,2,0:2:0:0:
472,365,268029,1,2,0:2:0:0:
472,365,268156,6,0,L|488:169,1,187.000005706787,0|8,3:2|0:2,0:0:0:0:
382,33,268919,2,0,L|385:79,1,46.7500014266968,2|2,3:2|0:2,0:0:0:0:
310,182,269173,2,0,L|313:135,1,46.7500014266968,0|8,3:2|0:2,0:0:0:0:
391,170,269427,1,0,3:2:0:0:
286,51,269681,1,8,0:2:0:0:
254,261,269936,1,2,3:2:0:0:
113,74,270190,6,0,B|101:142|101:142|126:181|126:181|112:263,1,187.000005706787,6|8,3:2|0:2,0:0:0:0:
268,345,270953,2,0,L|264:298,1,46.7500014266968,2|2,0:2|0:2,0:0:0:0:
254,261,271207,2,0,P|301:277|356:254,1,93.5000028533936,0|0,3:2|0:0,0:0:0:0:
348,79,271715,2,0,P|310:111|303:170,1,93.5000028533936,8|0,0:2|0:0,0:0:0:0:
460,303,272224,6,0,P|472:242|436:191,1,127.5,4|0,3:2|0:0,0:0:0:0:
419,40,273241,6,0,L|426:93,1,46.7500014266968,2|2,0:2|0:2,0:0:0:0:
331,193,273495,2,0,L|337:147,1,46.7500014266968,2|2,3:2|0:2,0:0:0:0:
288,37,273749,1,10,0:2:0:0:
267,65,273876,1,2,0:2:0:0:
236,82,274003,1,2,0:2:0:0:
201,84,274130,1,2,0:2:0:0:
169,72,274258,6,0,P|143:63|111:66,1,59.5,6|2,3:2|0:2,0:0:0:0:
102,73,276292,5,2,3:2:0:0:
97,81,276800,1,0,3:2:0:0:
32,20,277309,1,8,0:2:0:0:
32,20,277436,1,8,0:2:0:0:
32,20,277563,1,0,3:2:0:0:
144,161,277817,1,8,0:2:0:0:
144,161,277944,1,8,0:2:0:0:
144,161,278071,1,0,3:2:0:0:
24,194,278326,6,0,P|27:164|34:135,1,59.5,4|0,3:2|0:0,0:0:0:0:
112,66,280548,5,4,3:2:0:0:
256,192,280826,12,0,284992,0:0:0:0:
