osu file format v14

[General]
AudioFilename: audio.mp3
AudioLeadIn: 0
PreviewTime: 225466
Countdown: 0
SampleSet: Soft
StackLeniency: 0.3
Mode: 0
LetterboxInBreaks: 0
WidescreenStoryboard: 0

[Editor]
Bookmarks: 73325,139753,182610,225466
DistanceSpacing: 1.1
BeatDivisor: 6
GridSize: 32
TimelineZoom: 1

[Metadata]
Title:Amai Hanazono ~Complete MIX~
TitleUnicode:甘い花園~コンプリートMIX~
Artist:Haruna Yumi
ArtistUnicode:春奈有美
Creator:Iceluin
Version:Harmony
Source:その花びらにくちづけを
Tags:shirahane suou japanese pop video game vn visual novel a kiss for the petals sono hanabira ni kuchizuke wo o jpop j-pop yuri hentai
BeatmapID:3438599
BeatmapSetID:1682976

[Difficulty]
HPDrainRate:6
CircleSize:4
OverallDifficulty:7.5
ApproachRate:8.2
SliderMultiplier:1.8
SliderTickRate:1

[Events]
//Background and Video events
0,0,"yuri is pog.jpg",0,0
//Break Periods
//Storyboard Layer 0 (Background)
//Storyboard Layer 1 (Fail)
//Storyboard Layer 2 (Pass)
//Storyboard Layer 3 (Foreground)
//Storyboard Layer 4 (Overlay)
//Storyboard Sound Samples

[TimingPoints]
468,535.714285714286,4,2,1,50,1,0
468,-117.647058823529,4,2,1,50,0,0
9039,-100,4,2,1,65,0,0
17610,-142.857142857143,4,2,1,30,0,0
23503,-200,4,2,1,30,0,0
24039,-142.857142857143,4,2,1,30,0,0
34753,-117.647058823529,4,2,1,50,0,0
50825,-117.647058823529,4,2,1,65,0,0
51896,-80,4,2,2,75,0,0
59664,-57.1428571428571,4,2,2,75,0,0
60468,-80,4,2,2,75,0,0
66896,-57.1428571428571,4,2,2,75,0,0
69039,-80,4,2,2,75,0,0
73325,535.714285714286,4,2,1,65,1,0
73325,-105.263157894737,4,2,1,65,0,0
81896,-142.857142857143,4,2,1,40,0,0
87789,-200,4,2,1,40,0,0
88325,-142.857142857143,4,2,1,40,0,0
99039,-100,4,2,1,65,0,0
116182,-80,4,2,2,75,0,0
123950,-57.1428571428571,4,2,2,75,0,0
124753,-80,4,2,2,75,0,0
131182,-57.1428571428571,4,2,2,75,0,0
133325,-80,4,2,2,75,0,0
139753,535.714285714286,4,2,1,65,1,0
139753,-90.9090909090909,4,2,1,65,0,0
156895,-133.333333333333,4,2,1,55,0,0
157967,-153.846153846153,4,2,1,45,0,0
159038,-181.818181818181,4,2,1,35,0,0
160110,-222.222222222221,4,2,1,25,0,0
161181,-222.222222222221,4,2,1,35,0,0
165467,-125,4,2,1,50,0,0
182610,-100,4,2,1,65,0,0
199753,-133.333333333333,4,2,1,50,0,0
200824,-133.333333333333,4,2,1,65,0,0
201895,535.714285714286,4,2,2,75,1,0
201895,-80,4,2,2,75,0,0
209662,-57.1428571428571,4,2,2,75,0,0
210466,-80,4,2,2,75,0,0
216895,-57.1428571428571,4,2,2,75,0,0
219037,-80,4,2,2,75,0,0
225466,535.714285714286,4,2,2,75,1,0
225466,-80,4,2,2,75,0,0
233233,-57.1428571428571,4,2,2,75,0,0
234037,-80,4,2,2,75,0,0
240466,-57.1428571428571,4,2,2,75,0,0
242608,-80,4,2,2,75,0,0
249037,535.714285714286,4,2,1,60,1,0
249037,-100,4,2,1,60,0,0
266269,-133.333333333333,4,2,1,45,0,0
267162,-133.333333333333,4,2,1,5,0,0
267251,-153.846153846153,4,2,1,40,0,0
268233,-153.846153846153,4,2,1,5,0,0
268322,-181.818181818181,4,2,1,35,0,0
269304,-181.818181818181,4,2,1,5,0,0
269394,-222.222222222221,4,2,1,30,0,0
270376,-222.222222222221,4,2,1,5,0,0
270465,-285.714285714284,4,2,1,25,0,0
271447,-285.714285714284,4,2,1,5,0,0
271537,-400,4,2,1,20,0,0
272519,-400,4,2,1,5,0,0
272608,-666.666666666667,4,2,1,15,0,0

[Colours]
Combo1 : 146,192,194
Combo2 : 192,214,165
Combo3 : 243,231,196
Combo4 : 220,165,169

[HitObjects]
384,96,468,6,0,P|370:171|358:246,1,153.000002918243,2|0,0:0|0:0,0:0:0:0:
436,303,1271,2,0,P|365:281|304:324,1,153.000002918243,2|0,0:0|0:0,0:0:0:0:
162,247,2075,2,0,P|105:254|48:264,1,114.750002188683,2|0,0:0|0:0,0:0:0:0:
24,270,2610,6,0,P|13:194|-1:119,1,153.000002918243,2|0,0:0|0:0,0:0:0:0:
113,22,3414,2,0,P|141:133|161:246,1,229.500004377365,2|0,0:0|0:0,0:0:0:0:
161,246,4753,6,0,P|231:224|292:266,1,153.000002918243,2|0,0:0|0:0,0:0:0:0:
144,372,5557,1,2,0:0:0:0:
218,319,5825,1,2,0:0:0:0:
292,266,6093,2,0,P|386:277|480:295,1,191.250003647804,2|0,0:0|0:0,0:0:0:0:
501,299,6896,6,0,P|524:229|480:169,1,153.000002918243,2|0,0:0|0:0,0:0:0:0:
328,133,7700,1,2,0:0:0:0:
351,154,7968,1,2,0:0:0:0:
393,240,8235,1,2,0:0:0:0:
330,338,8503,2,0,P|273:326|217:318,1,114.750002188683,2|0,0:0|0:0,0:0:0:0:
195,314,9039,6,0,P|172:276|182:233,1,90,2|0,1:2|3:0,0:0:0:0:
205,208,9441,1,0,3:0:0:0:
205,208,9575,1,8,0:0:0:0:
90,23,9843,1,2,0:0:0:0:
96,45,9976,2,0,P|104:89|110:133,1,90,0|0,1:0|0:0,0:0:0:0:
116,165,10378,1,0,1:0:0:0:
281,274,10646,1,10,0:0:0:0:
341,86,10914,5,0,1:0:0:0:
345,102,11048,1,0,1:0:0:0:
349,115,11182,2,0,P|357:159|363:203,1,90,2|0,1:2|3:0,0:0:0:0:
375,248,11584,1,0,3:0:0:0:
375,248,11718,1,8,0:0:0:0:
274,367,11985,1,2,0:0:0:0:
250,362,12119,2,0,P|206:354|162:348,1,90,0|0,1:0|0:0,0:0:0:0:
118,340,12520,1,0,1:0:0:0:
281,274,12789,1,8,0:0:0:0:
109,149,13057,2,0,L|101:194,1,45,0|0,3:0|3:0,0:0:0:0:
186,251,13325,6,0,P|192:206|200:161,1,90,2|0,1:2|3:0,0:0:0:0:
207,129,13727,1,0,3:0:0:0:
207,129,13861,1,8,0:0:0:0:
326,89,14128,1,2,0:0:0:0:
307,84,14262,1,0,1:0:0:0:
289,79,14396,1,2,0:0:0:0:
400,32,14664,1,2,1:2:0:0:
207,129,14932,1,8,0:0:0:0:
400,32,15200,5,0,3:0:0:0:
394,20,15334,1,0,3:0:0:0:
386,6,15468,2,0,P|369:94|357:183,1,180,2|0,1:2|0:0,0:0:0:0:
503,299,16271,2,0,B|560:277|516:174|406:207|450:262|393:298|332:273,1,270,2|0,0:0|0:0,0:0:0:0:
333,273,17610,6,0,P|298:323|313:382,1,125.999996154785,4|0,3:2|0:0,0:0:0:0:
455,295,18414,1,2,0:0:0:0:
509,362,18682,1,2,0:0:0:0:
509,362,18950,2,0,P|447:349|385:339,1,125.999996154785,2|2,0:0|0:0,0:0:0:0:
234,252,19753,6,0,P|249:311|214:361,2,125.999996154785,2|2|2,0:0|0:0|0:0,0:0:0:0:
106,147,21093,1,2,0:0:0:0:
106,147,21896,6,0,P|118:208|125:271,1,125.999996154785,2|2,0:0|0:0,0:0:0:0:
234,252,22700,2,0,P|221:190|214:127,1,125.999996154785,2|0,0:0|0:0,0:0:0:0:
140,3,23503,2,0,P|156:31|149:63,1,67.5,2|0,0:0|0:0,0:0:0:0:
148,77,24039,6,0,P|200:44|259:59,1,125.999996154785,2|2,0:0|0:0,0:0:0:0:
334,104,24843,2,0,P|393:119|445:86,1,125.999996154785,2|0,0:0|0:0,0:0:0:0:
377,32,25646,1,0,0:0:0:0:
377,32,26182,6,0,P|389:93|396:156,1,125.999996154785,4|0,3:2|0:0,0:0:0:0:
307,307,26985,1,2,0:0:0:0:
242,248,27253,1,2,0:0:0:0:
242,248,27521,2,0,P|294:215|353:230,1,125.999996154785,2|2,0:0|0:0,0:0:0:0:
510,196,28325,6,0,P|497:257|490:320,2,125.999996154785,2|2|2,0:0|0:0|0:0,0:0:0:0:
399,352,29664,1,2,0:0:0:0:
399,352,30468,6,0,P|306:335|212:321,1,188.999994232178,2|2,0:0|0:0,0:0:0:0:
334,182,31807,1,2,0:0:0:0:
334,182,32075,2,0,P|329:214|324:244,1,62.9999980773926,2|0,0:0|0:0,0:0:0:0:
212,324,32610,6,0,P|219:261|231:199,1,125.999996154785,2|0,0:0|0:0,0:0:0:0:
280,25,33414,2,0,P|205:78|118:51,1,188.999994232178,2|0,0:0|0:0,0:0:0:0:
118,51,34753,6,0,P|103:117|94:184,1,114.750002188683,4|0,3:2|0:0,0:0:0:0:
91,201,35289,1,2,0:0:0:0:
165,282,35557,2,0,P|108:289|52:303,1,114.750002188683,2|0,0:0|0:0,0:0:0:0:
22,310,36093,1,2,0:0:0:0:
191,191,36360,1,2,0:0:0:0:
10,105,36628,1,2,0:0:0:0:
191,191,36896,6,0,P|284:174|381:164,1,191.250003647804,2|0,0:0|0:0,0:0:0:0:
408,164,37700,1,2,0:0:0:0:
408,164,37834,2,0,P|467:96|417:20,1,191.250003647804,2|0,0:0|0:0,0:0:0:0:
270,100,38771,5,2,0:0:0:0:
270,100,38905,1,2,0:0:0:0:
270,100,39039,2,0,P|283:175|292:251,1,153.000002918243,2|0,0:0|0:0,0:0:0:0:
292,251,40378,1,2,0:0:0:0:
169,369,40646,1,2,0:0:0:0:
103,311,40914,5,2,0:0:0:0:
103,311,41048,1,2,0:0:0:0:
103,311,41182,2,0,P|178:319|254:333,1,153.000002918243,2|0,0:0|0:0,0:0:0:0:
254,333,41985,1,0,0:0:0:0:
302,175,42253,2,0,P|293:212|291:250,1,76.5000014591217,2|2,0:0|0:0,0:0:0:0:
433,327,42789,1,2,0:0:0:0:
438,310,42923,1,2,0:0:0:0:
443,292,43057,1,2,0:0:0:0:
290,249,43325,6,0,B|335:276|385:232|365:220|417:181|462:206,1,191.250003647804,4|0,3:2|0:0,0:0:0:0:
484,217,44128,1,2,0:0:0:0:
320,83,44396,2,0,P|313:120|309:158,1,76.5000014591217,2|2,0:0|0:0,0:0:0:0:
399,21,44932,1,2,0:0:0:0:
218,107,45200,5,2,0:0:0:0:
218,107,45334,1,2,0:0:0:0:
218,107,45468,2,0,P|142:92|67:81,1,153.000002918243,2|0,0:0|0:0,0:0:0:0:
30,263,46271,1,2,0:0:0:0:
30,263,46539,2,0,B|112:277|211:302|211:302|153:242,1,267.750005106926,2|0,0:0|0:0,0:0:0:0:
130,224,47610,6,0,P|113:298|105:374,1,153.000002918243,2|0,0:0|0:0,0:0:0:0:
211,302,48414,1,2,0:0:0:0:
43,171,48682,1,2,0:0:0:0:
43,171,48950,1,2,0:0:0:0:
188,46,49218,1,2,0:0:0:0:
256,121,49485,5,2,0:0:0:0:
256,121,49619,1,2,0:0:0:0:
256,121,49753,2,0,B|280:150|314:164|314:164|217:145|122:134,1,267.750005106926,2|0,0:0|0:0,0:0:0:0:
42,121,50825,5,2,0:0:0:0:
34,146,50959,1,2,0:0:0:0:
42,171,51093,1,2,0:0:0:0:
59,187,51226,1,2,0:0:0:0:
98,213,51360,5,10,0:0:0:0:
129,249,51494,1,10,0:0:0:0:
131,293,51628,1,10,0:0:0:0:
104,332,51762,1,10,0:0:0:0:
51,273,51896,6,0,P|134:282|217:299,1,168.75,4|0,1:2|0:0,0:0:0:0:
248,308,52432,1,10,1:2:0:0:
357,128,52700,1,2,0:0:0:0:
352,151,52834,2,0,P|339:205|330:267,1,112.5,2|0,0:0|0:0,0:0:0:0:
390,378,53235,2,0,P|395:347|402:319,1,56.25,2|0,0:0|1:0,0:0:0:0:
244,209,53503,1,10,0:0:0:0:
396,92,53771,5,2,1:2:0:0:
376,111,53905,1,2,0:0:0:0:
357,128,54039,2,0,P|274:111|190:101,1,168.75,0|0,1:0|0:0,0:0:0:0:
150,96,54575,1,8,1:2:0:0:
298,17,54843,1,0,3:0:0:0:
298,16,54976,1,0,3:0:0:0:
298,16,55110,1,0,3:0:0:0:
246,211,55378,1,0,1:0:0:0:
65,57,55646,1,8,0:0:0:0:
55,104,55780,1,0,1:0:0:0:
43,153,55914,1,0,3:0:0:0:
220,377,56182,6,0,P|229:293|246:210,1,168.75,0|0,1:0|0:0,0:0:0:0:
252,181,56718,1,10,0:0:0:0:
36,267,56985,1,2,0:0:0:0:
50,292,57119,2,0,P|96:320|150:307,1,112.5,2|0,0:0|0:0,0:0:0:0:
125,171,57521,2,0,P|118:204|113:246,1,56.25,2|0,0:0|1:0,0:0:0:0:
220,377,57789,1,10,0:0:0:0:
405,231,58057,5,2,1:2:0:0:
412,255,58191,1,2,0:0:0:0:
418,275,58325,2,0,P|340:250|274:298,1,168.75,0|0,1:0|0:0,0:0:0:0:
358,348,58861,1,10,0:0:0:0:
393,369,58994,1,2,0:0:0:0:
435,369,59129,1,2,0:0:0:0:
475,351,59262,1,2,0:0:0:0:
501,313,59396,1,0,1:0:0:0:
501,313,59664,6,0,P|491:234|476:157,1,157.500001502037,6|8,1:2|0:0,0:0:0:0:
191,9,60200,5,0,1:0:0:0:
191,9,60334,1,0,3:0:0:0:
191,9,60468,2,0,P|239:74|214:152,1,168.75,0|0,1:0|0:0,0:0:0:0:
185,178,61004,1,10,0:0:0:0:
0,116,61271,1,2,0:0:0:0:
26,110,61406,2,0,P|80:97|142:88,1,112.5,2|0,0:0|0:0,0:0:0:0:
185,178,61807,2,0,P|154:183|126:190,1,56.25,2|0,0:0|1:0,0:0:0:0:
53,7,62075,1,10,0:0:0:0:
224,71,62343,5,2,1:2:0:0:
236,90,62477,1,2,0:0:0:0:
248,104,62610,2,0,P|231:187|221:271,1,168.75,0|0,1:0|0:0,0:0:0:0:
304,325,63146,2,0,P|226:300|161:349,1,168.75,8|0,0:0|0:0,0:0:0:0:
141,374,63682,1,0,0:0:0:0:
328,229,63950,1,0,1:0:0:0:
141,374,64218,2,0,P|109:365|67:360,1,56.25,10|0,0:0|1:0,0:0:0:0:
4,238,64485,5,2,0:0:0:0:
31,241,64619,1,2,0:0:0:0:
54,245,64754,2,0,P|137:253|220:270,1,168.75,0|0,1:0|0:0,0:0:0:0:
156,98,65289,2,0,P|150:125|146:153,1,56.25,10|0,0:0|0:0,0:0:0:0:
220,270,65558,1,2,0:0:0:0:
227,236,65692,2,0,P|234:180|244:124,1,112.5,2|0,0:0|0:0,0:0:0:0:
68,76,66093,2,0,P|62:103|58:131,1,56.25,2|0,0:0|1:0,0:0:0:0:
130,291,66361,1,10,0:0:0:0:
267,41,66629,5,2,1:2:0:0:
256,84,66763,1,2,0:0:0:0:
244,124,66896,2,0,B|299:157|361:102|336:88|400:39|456:70,1,236.250002253056,4|0,1:2|0:0,0:0:0:0:
437,231,67432,2,0,P|432:191|423:153,1,78.7500007510185,8|0,0:0|0:0,0:0:0:0:
267,41,67700,6,0,P|291:160|305:276,1,236.250002253056,6|0,1:2|0:0,0:0:0:0:
307,359,68235,2,0,B|325:367|325:367|345:348,2,39.3750003755093,0|0|0,1:0|1:0|1:0,0:0:0:0:
232,320,68503,5,8,0:0:0:0:
201,285,68636,1,8,0:0:0:0:
157,270,68770,1,8,0:0:0:0:
111,284,68904,1,8,0:0:0:0:
87,374,69039,6,0,P|76:290|60:207,1,168.75,4|0,1:2|0:0,0:0:0:0:
51,114,69575,2,0,P|78:119|105:125,1,56.25,10|0,0:0|0:0,0:0:0:0:
236,33,69843,1,2,0:0:0:0:
269,42,69976,2,0,P|324:50|379:63,1,112.5,2|0,0:0|0:0,0:0:0:0:
295,196,70378,2,0,P|299:168|305:140,1,56.25,2|0,0:0|1:0,0:0:0:0:
487,44,70645,1,10,0:0:0:0:
422,272,70914,5,2,1:2:0:0:
395,266,71048,1,2,0:0:0:0:
370,262,71182,2,0,P|287:246|203:235,1,168.75,0|0,1:0|0:0,0:0:0:0:
165,226,71717,1,8,0:0:0:0:
403,178,71985,1,0,3:0:0:0:
403,177,72118,1,0,3:0:0:0:
403,177,72253,1,2,0:0:0:0:
310,341,72521,1,2,1:2:0:0:
165,226,72789,2,0,P|171:254|176:284,1,56.25,10|0,0:0|1:0,0:0:0:0:
50,378,73057,5,2,0:0:0:0:
47,363,73191,1,2,0:0:0:0:
44,349,73325,2,0,P|32:282|21:222,1,128.249996575356,2|0,1:2|3:0,0:0:0:0:
15,196,73860,1,8,0:0:0:0:
136,67,74128,1,2,0:0:0:0:
143,89,74262,2,0,P|154:152|165:215,1,128.249996575356,0|0,1:0|1:0,0:0:0:0:
343,267,74932,1,10,0:0:0:0:
239,52,75200,5,0,1:0:0:0:
245,73,75333,1,0,1:0:0:0:
251,95,75467,2,0,P|258:137|265:179,1,85.4999977169037,2|0,1:2|3:0,0:0:0:0:
265,214,75869,1,0,3:0:0:0:
265,214,76003,1,8,0:0:0:0:
49,93,76271,1,2,0:0:0:0:
55,115,76405,2,0,P|62:157|69:199,1,85.4999977169037,0|0,1:0|0:0,0:0:0:0:
69,234,76807,1,0,1:0:0:0:
248,322,77075,1,8,0:0:0:0:
135,384,77342,2,0,P|138:368|143:339,1,42.7499988584519,0|0,3:0|3:0,0:0:0:0:
265,214,77610,6,0,P|254:151|243:88,1,128.249996575356,2|0,1:2|3:0,0:0:0:0:
232,57,78145,1,8,0:0:0:0:
462,117,78414,1,2,0:0:0:0:
445,94,78548,2,0,P|378:88|345:142,1,128.249996575356,0|2,1:0|1:2,0:0:0:0:
379,326,79217,1,8,0:0:0:0:
512,245,79485,5,0,3:0:0:0:
491,239,79618,1,0,3:0:0:0:
469,233,79753,2,0,P|427:225|384:220,1,85.4999977169037,2|0,1:2|0:0,0:0:0:0:
285,288,80289,6,0,P|243:280|200:275,1,85.4999977169037,0|0,1:0|0:0,0:0:0:0:
101,343,80825,6,0,P|69:336|37:332,1,64.1249982876778,0|0,1:0|1:0,0:0:0:0:
20,313,81092,2,0,L|0:308,2,21.3749994292259,0|0|0,1:0|1:0|1:0,0:0:0:0:
21,234,81360,1,8,0:0:0:0:
201,275,81896,6,0,P|166:225|181:166,1,125.999996154785,4|0,3:2|0:0,0:0:0:0:
251,121,82700,1,2,0:0:0:0:
305,188,82968,1,2,0:0:0:0:
305,188,83236,2,0,P|243:175|181:165,1,125.999996154785,2|2,0:0|0:0,0:0:0:0:
40,155,84039,6,0,P|52:216|62:278,2,125.999996154785,2|2|2,0:0|0:0|0:0,0:0:0:0:
122,0,85379,1,2,0:0:0:0:
122,0,86182,6,0,P|67:34|4:19,1,125.999996154785,2|2,0:0|0:0,0:0:0:0:
40,155,86985,2,0,P|94:120|157:135,1,125.999996154785,2|0,0:0|0:0,0:0:0:0:
113,291,87789,2,0,P|97:263|104:231,1,67.5,2|0,0:0|0:0,0:0:0:0:
119,222,88325,6,0,P|181:232|243:243,1,125.999996154785,2|2,0:0|0:0,0:0:0:0:
300,318,89128,2,0,P|361:329|424:339,1,125.999996154785,2|0,0:0|0:0,0:0:0:0:
492,279,89932,1,0,0:0:0:0:
492,279,90467,6,0,P|462:251|473:163,1,125.999996154785,4|0,3:2|0:0,0:0:0:0:
441,37,91271,1,2,0:0:0:0:
512,81,91539,1,2,0:0:0:0:
512,81,91807,2,0,P|449:87|387:97,1,125.999996154785,2|2,0:0|0:0,0:0:0:0:
239,184,92610,6,0,P|301:190|363:200,2,125.999996154785,2|2|2,0:0|0:0|0:0,0:0:0:0:
125,70,93950,1,2,0:0:0:0:
125,70,94753,6,0,B|147:63|170:51|170:51|149:122|137:199,1,188.999994232178,2|2,0:0|0:0,0:0:0:0:
0,384,96093,1,2,0:0:0:0:
0,384,96361,2,0,P|5:352|10:321,1,62.9999980773926,2|2,0:0|0:0,0:0:0:0:
57,236,96896,6,0,P|76:268|163:280,1,125.999996154785,2|0,0:0|0:0,0:0:0:0:
201,129,97700,2,0,B|175:174|218:223|230:204|269:255|244:300,1,188.999994232178,2|0,0:0|0:0,0:0:0:0:
245,299,99039,6,0,P|289:290|333:282,1,90,0|0,1:0|0:0,0:0:0:0:
357,103,99575,1,10,0:0:0:0:
512,184,99842,1,2,0:0:0:0:
512,184,99976,2,0,P|467:191|423:200,1,90,2|0,0:0|0:0,0:0:0:0:
386,209,100378,1,2,1:2:0:0:
512,90,100646,1,10,0:0:0:0:
477,280,100914,1,2,1:2:0:0:
512,90,101182,6,0,L|498:-12,1,90,2|0,1:2|0:0,0:0:0:0:
307,23,101717,1,8,0:0:0:0:
420,161,101985,1,2,0:0:0:0:
420,161,102119,2,0,L|406:59,1,90,2|0,0:0|0:0,0:0:0:0:
402,44,102521,1,0,0:0:0:0:
336,217,102789,1,8,0:0:0:0:
228,41,103057,5,2,0:0:0:0:
228,41,103191,1,2,0:0:0:0:
228,41,103325,2,0,P|257:17|310:24,1,90,2|0,1:2|0:0,0:0:0:0:
218,181,103860,1,10,0:0:0:0:
187,196,103993,1,2,0:0:0:0:
154,192,104128,1,2,0:0:0:0:
58,73,104396,1,2,1:2:0:0:
88,57,104529,1,2,0:0:0:0:
121,61,104663,1,2,0:0:0:0:
285,110,104932,1,8,0:0:0:0:
140,280,105200,5,2,0:0:0:0:
140,280,105333,1,2,0:0:0:0:
140,280,105467,2,0,L|154:191,1,90,0|0,1:0|0:0,0:0:0:0:
289,26,106003,2,0,P|272:67|284:109,1,90,8|0,0:0|0:0,0:0:0:0:
349,159,106405,1,0,0:0:0:0:
349,159,106539,2,0,L|438:145,1,90,0|0,1:0|0:0,0:0:0:0:
313,311,107075,1,8,0:0:0:0:
313,311,107610,6,0,P|281:287|223:303,1,90,0|0,1:0|0:0,0:0:0:0:
62,222,108146,1,8,0:0:0:0:
234,294,108414,2,0,L|230:247,1,45,2|0,0:0|0:0,0:0:0:0:
141,165,108682,2,0,L|148:254,1,90,2|2,1:2|0:0,0:0:0:0:
217,101,109217,1,10,0:0:0:0:
43,44,109485,5,2,0:0:0:0:
43,44,109619,1,2,0:0:0:0:
43,44,109753,2,0,L|50:133,1,90,0|0,1:0|0:0,0:0:0:0:
150,254,110289,1,8,0:0:0:0:
262,107,110557,2,0,L|217:101,1,45,2|0,0:0|0:0,0:0:0:0:
368,205,110825,2,0,L|458:218,1,90,2|0,1:2|0:0,0:0:0:0:
278,198,111360,1,8,0:0:0:0:
348,71,111628,1,0,0:0:0:0:
272,22,111896,6,0,P|254:64|262:107,1,90,0|0,1:0|0:0,0:0:0:0:
427,20,112432,1,8,0:0:0:0:
364,161,112700,2,0,L|369:206,1,45,2|0,0:0|0:0,0:0:0:0:
477,99,112967,2,0,L|487:188,1,90,2|2,1:2|0:0,0:0:0:0:
369,310,113503,1,10,0:0:0:0:
280,196,113771,5,2,0:0:0:0:
280,196,113905,1,2,0:0:0:0:
280,196,114039,2,0,L|388:211,1,90,0|0,1:0|0:0,0:0:0:0:
181,300,114575,2,0,L|289:315,1,90,8|0,0:0|0:0,0:0:0:0:
132,185,115110,5,2,0:0:0:0:
113,185,115244,1,2,0:0:0:0:
99,197,115378,1,2,0:0:0:0:
98,215,115512,1,2,0:0:0:0:
122,224,115646,5,10,0:0:0:0:
158,195,115780,1,10,0:0:0:0:
166,147,115914,1,10,0:0:0:0:
143,105,116048,1,10,0:0:0:0:
58,77,116182,6,0,P|141:67|225:57,1,168.75,4|0,1:2|0:0,0:0:0:0:
258,54,116717,1,10,1:2:0:0:
158,195,116985,1,2,0:0:0:0:
187,183,117119,2,0,P|242:176|298:170,1,112.5,2|0,0:0|0:0,0:0:0:0:
384,186,117521,2,0,P|380:158|377:130,1,56.25,2|0,0:0|1:0,0:0:0:0:
267,254,117789,1,10,0:0:0:0:
501,376,118057,5,2,1:2:0:0:
510,344,118191,1,2,0:0:0:0:
490,318,118325,2,0,B|397:314|442:389|326:383,1,168.75,0|0,1:0|0:0,0:0:0:0:
309,373,118860,1,8,1:2:0:0:
431,192,119128,1,0,3:0:0:0:
431,192,119262,1,0,3:0:0:0:
431,192,119396,1,0,3:0:0:0:
214,177,119664,1,0,1:0:0:0:
319,247,119932,1,8,0:0:0:0:
323,195,120066,1,0,1:0:0:0:
326,147,120200,1,0,3:0:0:0:
118,39,120467,6,0,P|108:122|102:206,1,168.75,0|0,1:0|0:0,0:0:0:0:
109,242,121003,1,10,0:0:0:0:
235,37,121271,1,2,0:0:0:0:
226,65,121405,2,0,P|217:133|212:202,1,112.5,2|0,0:0|0:0,0:0:0:0:
215,257,121807,2,0,P|235:266|273:259,1,56.25,2|0,0:0|1:0,0:0:0:0:
431,153,122075,1,10,0:0:0:0:
381,377,122342,5,2,1:2:0:0:
374,340,122475,1,2,0:0:0:0:
366,305,122610,2,0,P|351:220|333:137,1,168.75,0|0,1:0|0:0,0:0:0:0:
279,80,123146,1,10,0:0:0:0:
226,65,123279,1,2,0:0:0:0:
185,100,123413,1,2,0:0:0:0:
191,154,123547,1,2,0:0:0:0:
239,179,123682,1,2,1:2:0:0:
239,179,123950,6,0,B|237:220|209:251|209:251|248:269|261:306,1,157.500001502037,6|8,1:2|0:0,0:0:0:0:
36,384,124485,5,0,1:0:0:0:
36,384,124619,1,0,3:0:0:0:
36,384,124753,2,0,P|90:324|180:344,1,168.75,0|0,1:0|0:0,0:0:0:0:
194,360,125289,1,10,0:0:0:0:
57,158,125557,1,2,0:0:0:0:
62,181,125691,2,0,P|75:235|84:297,1,112.5,2|0,0:0|0:0,0:0:0:0:
9,339,126092,2,0,P|5:311|0:283,1,56.25,2|0,0:0|1:0,0:0:0:0:
168,213,126360,1,10,0:0:0:0:
25,23,126628,5,2,1:2:0:0:
17,47,126762,1,2,0:0:0:0:
12,72,126896,2,0,P|63:134|143:125,1,168.75,0|0,1:0|0:0,0:0:0:0:
198,47,127432,2,0,P|182:129|168:213,1,168.75,8|0,0:0|0:0,0:0:0:0:
169,248,127967,1,0,0:0:0:0:
96,45,128235,1,0,1:0:0:0:
169,248,128503,2,0,P|142:244|114:242,1,56.25,10|0,0:0|1:0,0:0:0:0:
271,108,128771,5,2,0:0:0:0:
267,132,128905,1,2,0:0:0:0:
262,154,129039,2,0,P|346:161|429:174,1,168.75,0|0,1:0|0:0,0:0:0:0:
512,154,129575,2,0,P|508:181|506:209,1,56.25,10|0,0:0|0:0,0:0:0:0:
321,343,129842,1,2,0:0:0:0:
327,309,129976,2,0,P|334:253|339:197,1,112.5,2|0,0:0|0:0,0:0:0:0:
429,174,130378,2,0,P|425:201|423:229,1,56.25,2|0,0:0|1:0,0:0:0:0:
251,247,130646,1,10,0:0:0:0:
346,11,130914,5,2,1:2:0:0:
357,54,131048,1,2,0:0:0:0:
369,94,131182,2,0,B|314:127|252:72|277:58|213:9|157:40,1,236.250002253056,4|0,1:2|0:0,0:0:0:0:
0,124,131717,2,0,P|38:131|76:141,1,78.7500007510185,8|0,0:0|0:0,0:0:0:0:
244,291,131985,6,0,B|155:349|99:247|99:247|181:196,1,236.250002253056,6|0,1:2|0:0,0:0:0:0:
204,155,132521,2,0,B|204:137|204:137|192:119,2,39.3750003755093,0|0|0,1:0|1:0|1:0,0:0:0:0:
276,206,132790,5,8,0:0:0:0:
330,205,132923,1,8,0:0:0:0:
363,163,133057,1,8,0:0:0:0:
349,110,133191,1,8,0:0:0:0:
269,63,133325,6,0,P|186:78|102:89,1,168.75,4|0,1:2|0:0,0:0:0:0:
0,198,133860,2,0,P|37:191|74:186,1,56.25,10|0,0:0|0:0,0:0:0:0:
192,331,134128,1,2,0:0:0:0:
164,316,134262,2,0,P|140:283|165:199,1,112.5,2|0,0:0|0:0,0:0:0:0:
287,243,134664,2,0,P|259:247|231:252,1,56.25,2|0,0:0|1:0,0:0:0:0:
52,301,134932,1,10,0:0:0:0:
196,95,135200,5,2,1:2:0:0:
184,72,135333,1,2,0:0:0:0:
171,47,135467,2,0,P|159:130|149:214,1,168.75,0|0,1:0|0:0,0:0:0:0:
149,252,136003,1,8,0:0:0:0:
294,77,136271,1,0,3:0:0:0:
294,77,136405,1,0,3:0:0:0:
294,77,136539,1,2,0:0:0:0:
66,146,136807,1,2,1:2:0:0:
253,322,137075,2,0,P|224:324|197:328,1,56.25,10|0,0:0|1:0,0:0:0:0:
5,359,137342,5,2,0:0:0:0:
5,359,137476,1,2,0:0:0:0:
5,359,137610,2,0,P|53:370|96:278,1,168.75,0|0,1:0|0:0,0:0:0:0:
7,252,138146,2,0,P|90:239|172:221,1,168.75,8|0,0:0|0:0,0:0:0:0:
204,203,138682,1,0,1:0:0:0:
92,41,138950,1,0,3:0:0:0:
79,66,139083,1,0,3:0:0:0:
68,90,139217,2,0,P|73:126|81:163,1,56.25,8|0,0:0|0:0,0:0:0:0:
306,226,139485,2,0,P|297:184|291:142,1,84.375,12|0,0:0|0:0,0:0:0:0:
291,143,139753,6,0,P|360:123|419:163,1,148.50000453186,0|0,1:0|0:0,0:0:0:0:
387,242,140288,1,8,0:0:0:0:
391,259,140422,1,0,3:0:0:0:
396,275,140556,1,0,3:0:0:0:
401,288,140690,1,0,3:0:0:0:
406,304,140824,2,0,P|430:298|454:296,1,49.5000015106202,2|0,1:2|0:0,0:0:0:0:
320,325,141092,1,2,0:0:0:0:
419,163,141360,5,8,3:2:0:0:
390,147,141494,1,0,3:0:0:0:
356,148,141628,1,0,3:0:0:0:
328,167,141761,1,0,3:0:0:0:
311,195,141895,2,0,P|305:145|294:97,1,99.0000030212403,2|0,1:2|0:0,0:0:0:0:
387,242,142431,1,8,0:0:0:0:
219,157,142699,5,0,3:0:0:0:
219,157,142833,1,0,3:0:0:0:
219,157,142967,2,0,L|170:164,1,49.5000015106202,2|0,1:2|0:0,0:0:0:0:
149,77,143235,2,0,L|197:69,1,49.5000015106202,2|0,0:0|0:0,0:0:0:0:
82,143,143503,2,0,L|33:150,1,49.5000015106202,10|0,0:0|0:0,0:0:0:0:
11,62,143770,2,0,L|59:54,1,49.5000015106202,2|0,0:0|0:0,0:0:0:0:
170,164,144038,6,0,P|155:236|145:310,1,148.50000453186,2|0,1:2|0:0,0:0:0:0:
83,370,144574,1,8,3:2:0:0:
64,355,144708,1,0,3:0:0:0:
61,333,144842,1,0,3:0:0:0:
73,312,144976,1,0,3:0:0:0:
96,303,145110,2,0,P|120:305|144:310,1,49.5000015106202,2|0,1:2|0:0,0:0:0:0:
304,345,145378,1,2,0:0:0:0:
170,165,145645,5,8,3:2:0:0:
190,149,145779,1,0,3:0:0:0:
218,146,145913,1,0,3:0:0:0:
240,158,146047,1,0,3:0:0:0:
251,180,146181,2,0,P|241:229|235:278,1,99.0000030212403,2|0,1:2|0:0,0:0:0:0:
336,144,146717,1,8,0:0:0:0:
456,239,146985,5,0,3:0:0:0:
456,239,147119,1,0,3:0:0:0:
456,239,147253,2,0,P|480:238|503:247,1,49.5000015106202,2|0,1:2|0:0,0:0:0:0:
489,329,147520,2,0,P|464:329|441:322,1,49.5000015106202,2|0,0:0|0:0,0:0:0:0:
316,260,147788,2,0,P|340:257|363:267,1,49.5000015106202,10|0,0:0|0:0,0:0:0:0:
351,352,148056,2,0,P|326:352|303:344,1,49.5000015106202,2|0,0:0|0:0,0:0:0:0:
165,277,148324,6,0,P|91:286|18:300,1,148.50000453186,2|0,1:2|0:0,0:0:0:0:
0,216,148860,1,8,3:2:0:0:
13,199,148994,1,0,3:0:0:0:
37,189,149128,1,0,3:0:0:0:
59,192,149261,1,0,3:0:0:0:
78,202,149395,2,0,P|83:226|86:250,1,49.5000015106202,2|0,1:2|0:0,0:0:0:0:
107,378,149663,1,2,0:0:0:0:
225,213,149931,5,8,3:2:0:0:
220,181,150065,1,0,3:0:0:0:
212,148,150199,1,0,3:0:0:0:
207,114,150333,1,0,3:0:0:0:
203,82,150467,2,0,P|250:70|291:96,1,99.0000030212403,2|0,1:2|0:0,0:0:0:0:
389,243,151003,1,8,0:0:0:0:
429,78,151270,5,0,3:0:0:0:
429,78,151404,1,0,3:0:0:0:
429,78,151538,2,0,B|453:71|453:71|474:84,1,49.5000015106202,2|0,1:2|0:0,0:0:0:0:
463,165,151806,2,0,B|438:171|438:171|417:158,1,49.5000015106202,2|0,0:0|0:0,0:0:0:0:
291,96,152074,2,0,B|315:89|315:89|336:102,1,49.5000015106202,10|0,0:0|0:0,0:0:0:0:
326,184,152342,2,0,B|301:190|301:190|280:177,1,49.5000015106202,2|0,0:0|0:0,0:0:0:0:
128,98,152610,6,0,P|141:170|151:244,1,148.50000453186,2|0,1:2|0:0,0:0:0:0:
135,321,153145,1,8,3:2:0:0:
155,330,153279,1,0,3:0:0:0:
174,330,153414,1,0,3:0:0:0:
192,322,153548,1,0,3:0:0:0:
209,307,153681,2,0,P|233:309|257:314,1,49.5000015106202,2|0,1:2|0:0,0:0:0:0:
151,244,153949,1,2,0:0:0:0:
317,378,154217,5,8,3:2:0:0:
337,362,154351,1,0,3:0:0:0:
347,338,154485,1,0,3:0:0:0:
347,313,154619,1,0,3:0:0:0:
339,292,154753,6,0,L|348:255,6,24.7500007553101,0|0|0|0|0|0|0,1:0|0:0|0:0|0:0|0:0|0:0|0:0,0:0:0:0:
403,208,155288,5,8,0:0:0:0:
376,187,155422,1,8,0:0:0:0:
337,179,155556,1,8,0:0:0:0:
300,193,155690,1,8,0:0:0:0:
275,225,155824,6,0,L|226:217,1,49.5000015106202,2|0,1:2|0:0,0:0:0:0:
216,302,156092,2,0,L|167:294,1,49.5000015106202,2|0,1:2|0:0,0:0:0:0:
87,345,156360,5,10,0:0:0:0:
73,299,156493,1,10,0:0:0:0:
61,254,156627,1,10,0:0:0:0:
49,210,156761,1,10,0:0:0:0:
37,165,156895,6,0,L|43:121,3,33.7500012874604,2|0|0|0,0:0|0:0|0:0|0:0,0:0:0:0:
2,56,157431,1,0,0:0:0:0:
49,38,157565,1,0,0:0:0:0:
93,66,157699,1,0,0:0:0:0:
196,230,157967,6,0,L|200:201,3,29.2499986610413,2|0|0|0,0:0|0:0|0:0|0:0,0:0:0:0:
170,122,158503,1,0,0:0:0:0:
206,106,158637,1,0,0:0:0:0:
241,129,158771,1,0,0:0:0:0:
333,292,159038,6,0,L|336:267,3,24.7500007553101,2|0|0|0,0:0|0:0|0:0|0:0,0:0:0:0:
318,185,159574,1,0,0:0:0:0:
344,173,159708,1,0,0:0:0:0:
370,189,159842,1,0,0:0:0:0:
455,349,160110,6,0,L|458:328,3,20.2499993820191,2|0|0|0,0:0|0:0|0:0|0:0,0:0:0:0:
447,245,160645,1,0,0:0:0:0:
464,236,160779,1,0,0:0:0:0:
481,247,160913,1,0,0:0:0:0:
374,361,161181,6,0,B|308:392|259:332|259:332|203:319|165:369|165:369|67:377|27:314|46:240|46:240|62:282|100:298,1,526.499983932496,2|0,0:0|0:0,0:0:0:0:
94,295,164797,1,0,3:0:0:0:
94,295,164931,1,8,0:0:0:0:
218,167,165199,1,0,0:0:0:0:
130,146,165467,6,0,P|135:181|140:217,1,72,2|0,1:2|0:0,0:0:0:0:
305,173,166003,1,8,0:0:0:0:
192,40,166271,1,2,0:0:0:0:
198,60,166404,2,0,P|205:95|209:130,1,72,0|0,1:0|0:0,0:0:0:0:
218,167,166806,1,0,1:0:0:0:
363,240,167074,1,8,0:0:0:0:
202,279,167342,5,0,1:0:0:0:
202,279,167476,1,0,1:0:0:0:
202,279,167610,2,0,P|233:263|269:266,1,72,2|0,1:2|0:0,0:0:0:0:
453,246,168146,1,8,0:0:0:0:
353,342,168413,1,2,0:0:0:0:
353,310,168547,2,0,P|355:274|363:239,1,72,0|0,1:0|0:0,0:0:0:0:
373,209,168948,1,0,1:0:0:0:
508,128,169217,1,8,0:0:0:0:
373,209,169485,2,0,P|355:206|337:204,1,36,0|0,1:0|0:0,0:0:0:0:
422,135,169753,6,0,P|369:122|315:117,1,108,2|0,1:2|0:0,0:0:0:0:
288,113,170289,1,8,0:0:0:0:
190,35,170556,1,2,0:0:0:0:
196,61,170690,1,0,3:0:0:0:
201,85,170824,1,0,1:0:0:0:
312,201,171092,1,0,1:0:0:0:
166,166,171360,2,0,P|173:201|176:236,1,72,8|0,0:0|1:0,0:0:0:0:
201,85,171895,6,0,P|148:75|101:100,1,108,2|0,1:2|0:0,0:0:0:0:
84,123,172431,1,8,0:0:0:0:
176,237,172699,1,2,0:0:0:0:
201,230,172833,2,0,P|237:222|273:218,1,72,0|0,1:0|0:0,0:0:0:0:
311,211,173235,1,0,1:0:0:0:
450,329,173503,1,8,0:0:0:0:
311,211,173770,1,0,0:0:0:0:
404,194,174038,6,0,P|395:229|391:264,1,72,2|0,1:2|0:0,0:0:0:0:
427,112,174574,1,8,0:0:0:0:
311,211,174842,1,2,0:0:0:0:
304,243,174976,2,0,P|295:278|291:313,1,72,0|0,1:0|0:0,0:0:0:0:
287,353,175378,1,0,1:0:0:0:
390,264,175645,1,8,0:0:0:0:
208,323,175913,5,0,1:0:0:0:
208,323,176047,1,0,1:0:0:0:
208,323,176181,2,0,P|173:314|137:310,1,72,2|0,1:2|0:0,0:0:0:0:
287,353,176717,1,8,0:0:0:0:
159,207,176984,1,2,0:0:0:0:
151,239,177119,2,0,P|144:274|137:309,1,72,0|0,1:0|0:0,0:0:0:0:
132,339,177519,1,0,1:0:0:0:
0,255,177788,1,8,0:0:0:0:
39,364,178056,2,0,P|45:339|51:314,1,36
34,173,178324,6,0,P|103:162|158:206,1,144,2|8,1:2|0:0,0:0:0:0:
291,108,179128,1,2,0:0:0:0:
318,113,179261,2,0,P|353:117|388:124,1,72,0|0,1:0|0:0,0:0:0:0:
420,130,179663,1,0,1:0:0:0:
287,193,179931,1,8,0:0:0:0:
368,34,180199,1,0,1:0:0:0:
287,193,180467,6,0,P|299:263|308:335,1,144,2|8,1:2|0:0,0:0:0:0:
380,211,181270,1,2,0:0:0:0:
388,236,181404,2,0,P|395:271|399:306,1,72,0|0,1:0|0:0,0:0:0:0:
405,348,181806,1,0,1:0:0:0:
234,382,182074,2,0,P|218:349|223:314,1,72,8|0,1:2|0:0,0:0:0:0:
271,108,182610,6,0,P|291:150|285:195,1,90,0|0,1:0|0:0,0:0:0:0:
85,105,183145,1,10,1:2:0:0:
159,0,183413,1,2,0:0:0:0:
168,20,183547,2,0,P|177:86|184:153,1,135,2|2,0:0|0:0,0:0:0:0:
136,344,184217,1,10,1:2:0:0:
22,226,184485,5,2,0:0:0:0:
22,226,184619,1,0,3:0:0:0:
22,226,184753,2,0,P|66:231|111:237,1,90,2|0,1:2|0:0,0:0:0:0:
246,331,185288,1,8,1:2:0:0:
319,180,185556,1,2,0:0:0:0:
303,162,185690,2,0,P|239:165|221:226,1,135,2|0,0:0|0:0,0:0:0:0:
337,384,186360,1,8,1:2:0:0:
431,257,186628,5,2,0:0:0:0:
431,257,186761,1,2,0:0:0:0:
431,257,186895,2,0,P|386:263|342:272,1,90,2|0,1:2|0:0,0:0:0:0:
469,110,187431,1,10,1:2:0:0:
484,141,187565,1,2,0:0:0:0:
480,174,187698,1,2,0:0:0:0:
316,83,187967,1,2,0:0:0:0:
301,52,188100,1,2,0:0:0:0:
305,19,188234,1,2,0:0:0:0:
388,150,188503,1,8,1:2:0:0:
214,90,188770,5,2,0:0:0:0:
214,90,188904,1,2,0:0:0:0:
214,90,189038,2,0,P|169:98|125:108,1,90,0|0,1:0|0:0,0:0:0:0:
289,215,189574,2,0,P|301:146|317:77,1,135,8|0,1:2|0:0,0:0:0:0:
332,52,190110,1,2,0:0:0:0:
495,141,190378,1,2,0:0:0:0:
447,0,190645,1,10,1:2:0:0:
442,21,190779,1,2,0:0:0:0:
437,44,190912,1,2,0:0:0:0:
477,229,191181,6,0,P|485:184|495:140,1,90,0|0,1:0|0:0,0:0:0:0:
335,250,191717,1,8,1:2:0:0:
494,373,191985,1,2,0:0:0:0:
498,358,192119,1,0,3:0:0:0:
502,342,192253,2,0,P|464:318|421:327,1,90,2|2,0:0|0:0,0:0:0:0:
226,277,192788,1,10,1:2:0:0:
353,161,193056,5,2,0:0:0:0:
353,161,193190,1,2,0:0:0:0:
353,161,193324,2,0,P|343:204|334:249,1,90,0|0,1:0|0:0,0:0:0:0:
170,377,193860,1,8,1:2:0:0:
243,202,194128,1,2,0:0:0:0:
239,217,194262,1,2,0:0:0:0:
235,233,194395,2,0,P|228:262|222:292,1,45,2|0,0:0|0:0,0:0:0:0:
283,350,194663,1,0,0:0:0:0:
141,226,194931,1,8,1:2:0:0:
283,350,195199,2,0,P|304:344|326:339,1,45,0|0,0:0|0:0,0:0:0:0:
346,170,195467,6,0,P|327:209|339:252,1,90,0|0,1:0|0:0,0:0:0:0:
506,180,196003,1,8,1:2:0:0:
454,343,196270,1,2,0:0:0:0:
450,327,196404,1,0,3:0:0:0:
447,311,196538,2,0,P|436:266|423:222,1,90,2|2,0:0|0:0,0:0:0:0:
316,77,197074,1,10,1:2:0:0:
252,271,197342,5,2,0:0:0:0:
252,271,197476,1,2,0:0:0:0:
252,271,197610,2,0,P|295:259|339:251,1,90,0|0,1:0|0:0,0:0:0:0:
152,185,198145,6,0,P|195:173|239:165,1,90,8|0,1:2|0:0,0:0:0:0:
194,384,198681,6,0,P|237:372|281:364,1,90,0|0,1:0|0:0,0:0:0:0:
106,271,199217,5,8,1:2:0:0:
98,304,199351,1,0,3:0:0:0:
116,331,199485,1,0,3:0:0:0:
240,166,199753,6,0,P|245:133|228:104,1,67.5000025749208,2|0,0:0|0:0,0:0:0:0:
192,25,200154,6,0,P|239:69|303:59,1,135.000005149842,2|0,0:0|0:0,0:0:0:0:
467,76,200824,5,2,0:0:0:0:
477,56,200958,1,2,0:0:0:0:
474,34,201092,1,2,0:0:0:0:
458,20,201226,1,2,0:0:0:0:
432,16,201360,5,10,0:0:0:0:
391,44,201493,1,10,0:0:0:0:
381,93,201627,1,10,0:0:0:0:
405,136,201761,1,10,0:0:0:0:
497,184,201895,6,0,P|417:167|363:226,1,168.75,4|0,1:2|0:0,0:0:0:0:
359,257,202430,1,10,1:2:0:0:
228,39,202698,1,2,0:0:0:0:
217,71,202832,2,0,P|206:126|198:181,1,112.5,2|0,0:0|0:0,0:0:0:0:
277,230,203234,2,0,P|281:202|286:174,1,56.25,2|0,0:0|1:0,0:0:0:0:
123,112,203502,1,10,0:0:0:0:
184,329,203770,5,2,1:2:0:0:
187,301,203903,1,2,0:0:0:0:
192,273,204037,2,0,B|149:274|120:230|120:230|104:285|50:297,1,168.75,0|0,1:0|0:0,0:0:0:0:
30,307,204573,1,8,1:2:0:0:
198,182,204841,1,0,3:0:0:0:
198,182,204975,1,0,3:0:0:0:
198,182,205109,1,0,3:0:0:0:
6,100,205377,1,0,1:0:0:0:
187,301,205645,1,8,0:0:0:0:
233,287,205779,1,0,1:0:0:0:
281,271,205913,1,0,3:0:0:0:
115,58,206180,6,0,P|99:140|87:224,1,168.75,0|0,1:0|0:0,0:0:0:0:
86,256,206716,1,10,0:0:0:0:
342,164,206984,1,2,0:0:0:0:
340,136,207118,2,0,P|295:104|240:111,1,112.5,2|0,0:0|0:0,0:0:0:0:
198,182,207520,2,0,P|225:186|253:191,1,56.25,2|0,0:0|1:0,0:0:0:0:
410,227,207787,1,10,0:0:0:0:
188,334,208055,5,2,1:2:0:0:
185,307,208189,1,2,0:0:0:0:
202,286,208323,2,0,P|285:303|369:322,1,168.75,0|0,1:0|0:0,0:0:0:0:
439,384,208859,1,10,0:0:0:0:
483,366,208993,1,2,0:0:0:0:
511,326,209127,1,2,0:0:0:0:
512,277,209261,1,2,0:0:0:0:
486,236,209394,1,0,1:0:0:0:
486,236,209662,6,0,P|407:225|329:216,1,157.500001502037,6|8,1:2|0:0,0:0:0:0:
56,99,210198,5,0,1:0:0:0:
56,99,210332,1,0,3:0:0:0:
56,99,210466,2,0,P|135:117|195:63,1,168.75,0|0,1:0|0:0,0:0:0:0:
201,33,211002,1,10,0:0:0:0:
28,205,211270,1,2,0:0:0:0:
17,233,211403,2,0,P|7:288|0:344,1,112.5,2|0,0:0|0:0,0:0:0:0:
77,384,211805,2,0,P|80:356|85:328,1,56.25,2|0,0:0|1:0,0:0:0:0:
147,147,212073,1,10,0:0:0:0:
350,278,212341,5,2,1:2:0:0:
322,273,212474,1,2,0:0:0:0:
294,269,212609,2,0,P|206:253|118:241,1,168.75,0|0,1:0|0:0,0:0:0:0:
17,233,213145,2,0,B|53:185|53:185|13:80,1,168.75,8|0,0:0|0:0,0:0:0:0:
0,56,213680,1,0,0:0:0:0:
127,242,213948,1,0,1:0:0:0:
0,56,214216,2,0,P|27:52|55:47,1,56.25,10|0,0:0|1:0,0:0:0:0:
304,114,214484,5,2,0:0:0:0:
276,118,214617,1,2,0:0:0:0:
249,123,214752,2,0,P|165:135|82:150,1,168.75,0|0,1:0|0:0,0:0:0:0:
0,134,215287,2,0,P|4:161|9:189,1,56.25,10|0,0:0|0:0,0:0:0:0:
112,290,215555,1,2,0:0:0:0:
101,261,215689,2,0,P|89:198|80:135,1,112.5,2|0,0:0|0:0,0:0:0:0:
157,106,216091,2,0,P|161:133|166:161,1,56.25,2|0,0:0|1:0,0:0:0:0:
21,279,216359,1,10,0:0:0:0:
267,357,216627,5,2,1:2:0:0:
278,312,216761,1,2,0:0:0:0:
249,275,216895,2,0,B|152:240|117:338|117:338|205:369,1,236.250002253056,4|0,1:2|0:0,0:0:0:0:
340,233,217430,2,0,P|331:194|324:155,1,78.7500007510185,8|0,0:0|0:0,0:0:0:0:
111,75,217698,6,0,B|128:49|137:20|137:20|156:107|175:213,1,236.250002253056,6|0,1:2|0:0,0:0:0:0:
117,258,218234,2,0,L|73:250,2,39.3750003755093,0|0|0,1:0|1:0|1:0,0:0:0:0:
181,360,218502,5,8,0:0:0:0:
229,375,218635,1,8,0:0:0:0:
278,357,218769,1,8,0:0:0:0:
304,313,218903,1,8,0:0:0:0:
277,231,219037,6,0,P|289:147|303:64,1,168.75,4|0,1:2|0:0,0:0:0:0:
391,48,219573,2,0,P|386:75|382:103,1,56.25,10|0,0:0|0:0,0:0:0:0:
191,150,219841,1,2,0:0:0:0:
159,143,219975,2,0,P|103:133|47:125,1,112.5,2|0,0:0|0:0,0:0:0:0:
29,42,220377,2,0,P|56:46|84:50,1,56.25,2|0,0:0|1:0,0:0:0:0:
96,215,220645,1,10,0:0:0:0:
302,134,220912,5,2,1:2:0:0:
291,112,221046,1,2,0:0:0:0:
277,89,221180,2,0,P|224:151|253:228,1,168.75,0|0,1:0|0:0,0:0:0:0:
282,244,221716,1,8,0:0:0:0:
357,40,221984,1,0,3:0:0:0:
357,40,222118,1,0,3:0:0:0:
357,40,222252,1,2,0:0:0:0:
159,143,222520,1,2,1:2:0:0:
373,290,222787,2,0,P|377:262|383:234,1,56.25,10|0,0:0|1:0,0:0:0:0:
287,366,223055,1,2,0:0:0:0:
251,78,223323,6,0,P|269:160|282:243,1,168.75,2|0,1:2|0:0,0:0:0:0:
203,311,223859,1,8,3:2:0:0:
200,283,223993,2,0,P|195:255|188:227,1,56.25,0|0,3:0|3:0,0:0:0:0:
55,126,224261,1,0,3:0:0:0:
49,98,224395,2,0,P|44:70|37:42,1,56.25,0|0,3:0|0:0,0:0:0:0:
225,150,224663,1,0,1:0:0:0:
180,137,224796,1,8,0:0:0:0:
137,153,224930,1,8,0:0:0:0:
111,191,225064,2,0,P|107:204|106:218,4,28.125,8|0|0|0|0,0:0|3:0|3:0|3:0|3:0,0:0:0:0:
113,305,225466,5,4,1:2:0:0:
335,120,225733,1,0,1:0:0:0:
204,339,226001,2,0,P|198:283|188:227,1,112.5,10|2,0:0|0:0,0:0:0:0:
126,154,226403,2,0,P|192:201|271:178,1,168.75,2|2,0:0|0:0,0:0:0:0:
338,122,226939,1,8,0:0:0:0:
338,122,227073,1,10,0:0:0:0:
379,356,227341,2,0,P|374:328|369:300,1,56.25,10|2,0:0|0:0,0:0:0:0:
446,245,227608,6,0,P|362:256|279:271,1,168.75,0|0,1:0|0:0,0:0:0:0:
251,280,228145,1,8,0:0:0:0:
59,180,228413,1,0,3:0:0:0:
59,179,228546,1,0,3:0:0:0:
59,179,228680,1,0,1:0:0:0:
187,360,228948,1,0,0:0:0:0:
172,131,229216,1,8,0:0:0:0:
162,178,229350,1,0,3:0:0:0:
150,227,229484,1,0,3:0:0:0:
83,70,229751,5,0,1:0:0:0:
251,280,230019,1,0,1:0:0:0:
423,59,230287,2,0,P|411:113|405:169,1,112.5,10|2,0:0|0:0,0:0:0:0:
467,244,230689,2,0,P|399:197|321:220,1,168.75,2|2,0:0|0:0,0:0:0:0:
251,280,231224,1,8,0:0:0:0:
251,280,231359,1,10,0:0:0:0:
98,146,231626,2,0,P|123:134|151:137,1,56.25,10|2,0:0|0:0,0:0:0:0:
202,59,231895,6,0,P|188:142|178:226,1,168.75,0|0,1:0|0:0,0:0:0:0:
103,282,232431,1,8,0:0:0:0:
138,313,232565,1,2,0:0:0:0:
181,319,232698,1,2,0:0:0:0:
222,308,232833,1,2,0:0:0:0:
251,280,232966,1,0,1:0:0:0:
251,280,233234,6,0,P|329:289|406:304,1,157.500001502037,6|8,1:2|0:0,0:0:0:0:
444,57,233770,5,0,1:0:0:0:
444,57,233904,1,0,3:0:0:0:
444,57,234037,1,0,1:0:0:0:
229,151,234305,1,0,1:0:0:0:
406,304,234573,2,0,P|413:248|423:192,1,112.5,10|2,0:0|0:0,0:0:0:0:
508,134,234974,2,0,P|429:157|362:111,1,168.75,2|2,0:0|0:0,0:0:0:0:
300,43,235510,1,8,0:0:0:0:
300,43,235645,1,10,0:0:0:0:
81,178,235912,2,0,P|87:205|89:234,1,56.25,10|2,0:0|0:0,0:0:0:0:
160,80,236181,6,0,P|177:163|187:247,1,168.75,0|0,1:0|0:0,0:0:0:0:
144,317,236716,2,0,B|174:294|187:246|187:246|213:289|249:302,1,168.75,8|0,0:0|0:0,0:0:0:0:
276,315,237252,1,0,1:0:0:0:
88,233,237520,1,0,0:0:0:0:
261,147,237788,2,0,P|270:179|275:221,1,56.25,10|0,0:0|0:0,0:0:0:0:
466,314,238055,5,2,0:0:0:0:
461,289,238189,1,2,0:0:0:0:
456,267,238323,2,0,B|465:248|474:235|474:235|409:245|342:256,1,168.75,0|0,1:0|0:0,0:0:0:0:
273,201,238859,2,0,P|265:173|261:146,1,56.25,10|0,0:0|0:0,0:0:0:0:
329,12,239126,1,2,0:0:0:0:
334,39,239260,2,0,P|341:95|351:151,1,112.5,2|0,0:0|0:0,0:0:0:0:
442,162,239663,2,0,P|438:134|431:106,1,56.25,2|8,0:0|0:0,0:0:0:0:
244,57,239931,1,10,0:0:0:0:
84,322,240198,5,10,0:0:0:0:
71,277,240332,1,2,0:0:0:0:
61,232,240466,2,0,P|134:210|196:263,1,157.500001502037,4|0,1:2|1:0,0:0:0:0:
27,60,241001,2,0,P|34:99|39:138,1,78.7500007510185,8|0,0:0|0:0,0:0:0:0:
84,322,241269,6,0,P|199:298|317:285,1,236.250002253056,6|0,1:2|0:0,0:0:0:0:
390,325,241805,2,0,P|412:322|433:320,2,39.3750003755093,0|0|0,1:0|1:0|1:0,0:0:0:0:
495,371,242073,5,8,0:0:0:0:
512,336,242206,1,8,0:0:0:0:
512,299,242340,1,8,0:0:0:0:
492,264,242474,1,8,0:0:0:0:
456,241,242608,6,0,P|466:157|482:74,1,168.75,4|0,1:2|0:0,0:0:0:0:
403,25,243144,2,0,P|396:52|391:80,1,56.25,10|0,0:0|0:0,0:0:0:0:
456,241,243412,1,2,0:0:0:0:
445,217,243546,2,0,P|376:172|297:194,1,168.75,2|2,0:0|0:0,0:0:0:0:
227,243,244082,1,8,0:0:0:0:
227,243,244216,1,10,0:0:0:0:
113,82,244483,2,0,P|84:84|57:89,1,56.25,10|2,0:0|0:0,0:0:0:0:
18,181,244752,6,0,P|101:165|185:154,1,168.75,0|0,1:0|0:0,0:0:0:0:
220,150,245287,1,8,0:0:0:0:
366,267,245555,1,0,3:0:0:0:
366,266,245688,1,0,3:0:0:0:
366,266,245823,1,2,1:2:0:0:
220,150,246091,1,2,0:0:0:0:
135,356,246358,2,0,P|130:329|125:301,1,56.25,10|0,0:0|0:0,0:0:0:0:
351,201,246627,5,2,0:0:0:0:
356,234,246761,1,2,0:0:0:0:
361,263,246894,2,0,B|400:287|444:249|426:238|472:204|512:226,1,168.75,0|0,1:0|0:0,0:0:0:0:
507,315,247430,2,0,B|465:332|423:294|442:285|402:242|361:262,1,168.75,8|0,0:0|0:0,0:0:0:0:
290,316,247966,1,0,1:0:0:0:
105,214,248233,1,0,3:0:0:0:
102,190,248367,1,0,3:0:0:0:
99,166,248501,2,0,P|96:138|90:110,1,56.25,8|0,0:0|0:0,0:0:0:0:
293,6,248769,2,0,P|303:46|291:85,1,84.375,8|0,0:0|0:0,0:0:0:0:
291,85,249037,6,0,P|246:76|202:69,1,90,2|0,1:2|3:0,0:0:0:0:
168,64,249439,1,0,3:0:0:0:
168,64,249573,1,8,0:0:0:0:
105,214,249841,1,2,0:0:0:0:
129,217,249974,2,0,P|173:222|217:230,1,90,0|0,1:0|0:0,0:0:0:0:
258,239,250376,1,0,1:0:0:0:
399,111,250644,1,10,0:0:0:0:
327,304,250912,5,0,1:0:0:0:
339,289,251046,1,0,1:0:0:0:
352,275,251180,2,0,P|359:231|339:192,1,90,2|0,1:2|3:0,0:0:0:0:
318,163,251582,1,0,3:0:0:0:
318,163,251716,1,8,0:0:0:0:
228,335,251983,1,2,0:0:0:0:
204,330,252117,2,0,P|160:322|116:316,1,90,0|0,1:0|0:0,0:0:0:0:
77,309,252518,1,0,1:0:0:0:
258,239,252787,1,8,0:0:0:0:
94,137,253055,2,0,L|86:182,1,45,0|0,3:0|3:0,0:0:0:0:
169,223,253323,6,0,P|175:178|183:133,1,90,2|0,1:2|3:0,0:0:0:0:
193,96,253725,1,0,3:0:0:0:
193,96,253859,1,8,0:0:0:0:
307,51,254126,1,2,0:0:0:0:
287,45,254260,1,0,1:0:0:0:
266,40,254394,1,2,0:0:0:0:
392,4,254662,1,2,1:2:0:0:
193,96,254930,1,8,0:0:0:0:
317,230,255198,5,0,3:0:0:0:
293,237,255332,1,0,3:0:0:0:
277,228,255466,2,0,P|288:138|306:50,1,180,2|8,1:2|0:0,0:0:0:0:
446,212,256269,1,2,0:0:0:0:
452,186,256403,1,0,1:0:0:0:
456,159,256537,1,2,0:0:0:0:
431,301,256804,1,2,1:2:0:0:
507,89,257072,2,0,P|443:71|388:107,1,135,10|0,0:0|0:0,0:0:0:0:
382,127,257608,6,0,P|337:118|293:111,1,90,2|0,1:2|0:0,0:0:0:0:
258,105,258010,1,0,3:0:0:0:
258,105,258144,1,8,0:0:0:0:
82,38,258412,1,2,0:0:0:0:
88,60,258545,2,0,P|96:104|102:148,1,90,0|0,1:0|0:0,0:0:0:0:
108,180,258947,1,0,1:0:0:0:
185,32,259215,1,10,0:0:0:0:
0,101,259483,5,0,1:0:0:0:
0,101,259617,1,0,1:0:0:0:
0,101,259751,2,0,P|8:145|14:189,1,90,2|0,1:2|0:0,0:0:0:0:
25,229,260153,1,0,3:0:0:0:
25,229,260287,1,8,0:0:0:0:
187,301,260554,1,2,0:0:0:0:
167,284,260688,2,0,P|124:277|83:297,1,90,0|0,1:0|0:0,0:0:0:0:
59,328,261089,1,0,1:0:0:0:
247,367,261358,1,8,0:0:0:0:
216,168,261626,2,0,L|223:219,1,45,0|0,0:0|0:0,0:0:0:0:
322,273,261894,6,0,P|316:228|308:183,1,90,2|0,1:2|0:0,0:0:0:0:
304,144,262295,1,0,3:0:0:0:
304,144,262430,1,8,0:0:0:0:
465,114,262697,1,2,0:0:0:0:
470,135,262831,1,0,1:0:0:0:
475,156,262965,1,2,0:0:0:0:
371,51,263233,1,2,1:2:0:0:
411,248,263501,1,8,0:0:0:0:
304,144,263769,5,0,1:0:0:0:
309,165,263903,1,0,1:0:0:0:
314,186,264037,2,0,B|271:211|224:169|243:158|195:121|152:145,1,180,2|8,1:2|0:0,0:0:0:0:
26,276,264840,1,2,0:0:0:0:
23,254,264974,2,0,P|16:209|8:165,1,90,0|0,1:0|0:0,0:0:0:0:
0,125,265376,1,0,1:0:0:0:
141,56,265644,2,0,P|148:100|153:145,1,90,8|0,0:0|0:0,0:0:0:0:
384,352,266269,6,0,P|457:296|369:265,1,225.000008583069,2|0,0:0|0:0,0:0:0:0:
357,268,267251,6,0,P|383:183|298:207,1,214.49999018097,2|0,0:0|0:0,0:0:0:0:
290,216,268322,6,0,P|268:142|220:199,1,181.500005538941,2|0,0:0|0:0,0:0:0:0:
220,209,269394,6,0,P|170:169|167:229,1,148.49999546814,2|0,0:0|0:0,0:0:0:0:
170,238,270465,6,0,P|121:232|145:270,1,115.49999647522,2|0,0:0|0:0,0:0:0:0:
156,275,271537,6,0,P|125:290|154:303,1,82.5,2|0,0:0|0:0,0:0:0:0:
166,301,272608,6,0,P|155:321|176:316,1,53.9999983520508,2|0,0:0|0:0,0:0:0:0:
