osu file format v14

[General]
AudioFilename: audio.mp3
AudioLeadIn: 0
PreviewTime: -1
Countdown: 0
SampleSet: Normal
StackLeniency: 0.7
Mode: 0
LetterboxInBreaks: 0
WidescreenStoryboard: 0

[Editor]
DistanceSpacing: 0.7
BeatDivisor: 4
GridSize: 32
TimelineZoom: 1.9

[Metadata]
Title:Koi no Balloon (TV size)
TitleUnicode:恋のバルーン
Artist:Haruna Ooshima
ArtistUnicode:Haruna Ooshima
Creator:SupertCZ
Version:Normal Tsundere
Source:Akkun to Kanojo
Tags:my sweet tyrant akkun to kanojo akikun
BeatmapID:1659465
BeatmapSetID:790923

[Difficulty]
HPDrainRate:4
CircleSize:2.5
OverallDifficulty:3
ApproachRate:5
SliderMultiplier:1.4
SliderTickRate:1

[Events]
//Background and Video events
0,0,"akkuntokanojo.jpg",0,0
//Break Periods
//Storyboard Layer 0 (Background)
//Storyboard Layer 1 (Fail)
//Storyboard Layer 2 (Pass)
//Storyboard Layer 3 (Foreground)
//Storyboard Sound Samples

[TimingPoints]
132,857.142857142857,4,1,0,50,1,0
1203,-100,4,1,0,45,0,0
6162,-100,4,1,0,50,0,0
13029,428.571428571429,4,1,0,81,1,0
13929,-100,4,1,0,60,0,1
16072,-100,4,1,0,75,0,0
29786,-100,4,1,0,75,0,1
31822,-100,4,1,0,75,0,0
40822,-100,4,1,0,80,0,1
43179,-100,4,1,0,90,0,0

[HitObjects]
227,280,131,5,8,0:0:0:0:
163,249,560,1,2,0:0:0:0:
141,182,989,1,0,0:0:0:0:
189,88,1417,2,0,P|317:56|381:88,1,210
352,192,3346,6,4,P|320:256|224:288,1,175
224,192,4846,1,0,0:0:0:0:
126,96,5274,1,0,0:0:0:0:
223,57,5703,1,4,0:0:0:0:
327,57,6131,1,4,0:0:0:0:
339,161,6774,2,0,P|316:243|242:286,1,175
221,182,8489,2,12,P|125:150|61:214,1,175
123,281,10203,5,2,0:0:0:0:
192,286,10631,1,0,0:0:0:0:
258,263,11060,1,0,0:0:0:0:
256,192,11274,12,0,13679,0:0:0:0:
128,281,13886,5,12,0:0:0:0:
176,187,14314,2,0,L|253:82,1,105
358,116,15171,5,6,0:0:0:0:
309,209,15600,2,0,L|232:314,1,105
143,198,16457,5,0,0:0:0:0:
36,107,16886,2,0,P|126:9|221:70,1,262.500010013581
288,206,18171,5,8,0:0:0:0:
165,273,18600,1,8,0:0:0:0:
96,150,19029,1,8,0:0:0:0:
210,69,19457,2,12,P|312:104|341:174,1,175
386,263,20529,5,4,0:0:0:0:
247,281,20957,1,0,0:0:0:0:
235,191,21386,2,0,P|250:76|331:87,1,210
415,55,22457,5,4,0:0:0:0:
432,151,22886,1,0,0:0:0:0:
335,168,23314,2,0,P|235:174|185:262,1,210
101,228,24600,5,4,0:0:0:0:
141,139,25028,1,0,0:0:0:0:
235,113,25457,1,0,0:0:0:0:
256,192,25886,12,0,27064,0:0:0:0:
127,280,27493,5,12,0:0:0:0:
210,167,27921,1,0,0:0:0:0:
112,66,28350,2,4,P|226:33|227:33,1,105,12|4,0:0|0:0,0:0:0:0:
358,127,29207,5,0,0:0:0:0:
439,181,29636,1,0,0:0:0:0:
345,233,29957,2,4,P|281:265|240:259,2,105
125,257,31136,6,0,P|74:178|90:112,1,140
164,40,32100,1,0,0:0:0:0:
303,52,32529,1,0,0:0:0:0:
358,132,32957,2,2,B|310:219|329:198|87:107|203:241|363:252|192:81|65:62|103:151,1,350
99,240,34457,5,8,0:0:0:0:
173,303,34886,1,8,0:0:0:0:
261,261,35314,1,8,0:0:0:0:
353,228,35743,1,8,0:0:0:0:
369,131,36171,6,12,P|274:42|111:160,1,350
118,292,37886,5,0,0:0:0:0:
213,311,38314,1,0,0:0:0:0:
290,250,38743,1,0,0:0:0:0:
215,186,39171,2,12,P|112:134|148:62,2,210
260,166,40886,5,4,0:0:0:0:
297,197,41314,2,12,P|251:273|187:290,1,140
158,301,42600,5,8,0:0:0:0:
123,265,42921,1,0,0:0:0:0:
124,137,43243,2,0,P|189:103|235:62,2,90.9999958343508
177,180,44207,5,0,0:0:0:0:
111,208,44529,6,12,L|173:269,2,45.4999979171754
256,192,45386,12,12,48493,0:0:0:0:
