osu file format v14

[General]
AudioFilename: audio.mp3
AudioLeadIn: 0
PreviewTime: -1
Countdown: 0
SampleSet: Normal
StackLeniency: 0.7
Mode: 0
LetterboxInBreaks: 0
WidescreenStoryboard: 1

[Editor]
DistanceSpacing: 0.5
BeatDivisor: 4
GridSize: 32
TimelineZoom: 2

[Metadata]
Title:Koi no Balloon (TV size)
TitleUnicode:恋のバルーン (TV size)
Artist:Haruna Ooshima
ArtistUnicode:Haruna Ooshima
Creator:SupertCZ
Version:Insane Tsundere
Source:Akkun to Kanojo
Tags:my sweet tyrant akkun to kanojo akikun
BeatmapID:1667477
BeatmapSetID:790923

[Difficulty]
HPDrainRate:6
CircleSize:4
OverallDifficulty:7
ApproachRate:9
SliderMultiplier:1.4
SliderTickRate:1

[Events]
//Background and Video events
0,0,"akkuntokanojo.jpg",0,0
//Break Periods
//Storyboard Layer 0 (Background)
//Storyboard Layer 1 (Fail)
//Storyboard Layer 2 (Pass)
//Storyboard Layer 3 (Foreground)
//Storyboard Sound Samples

[TimingPoints]
132,857.142857142857,4,1,0,50,1,0
2489,-66.6666666666667,4,1,0,50,0,0
3346,-100,4,1,0,50,0,0
4203,-66.6666666666667,4,1,0,50,0,1
9560,-100,4,1,0,50,0,0
10631,-50,4,1,0,50,0,0
13037,428.571428571429,4,1,0,81,1,0
15215,-66.6666666666667,4,1,0,81,0,0
16072,-100,4,1,0,81,0,0
17036,-66.6666666666667,4,1,0,81,0,0
18418,-133.333333333333,4,1,0,81,0,0
19822,-66.6666666666667,4,1,0,81,0,0
23036,-66.6666666666667,4,1,0,81,0,0
24965,-50,4,1,0,81,0,0
27536,-66.6666666666667,4,1,0,81,0,1
37286,-133.333333333333,4,1,0,81,0,0
39429,-50,4,1,0,81,0,0
40286,-133.333333333333,4,1,0,81,0,0

[HitObjects]
64,320,132,5,4,0:0:0:0:
201,237,1417,2,4,P|256:204|281:219,1,70
255,204,2060,1,2,0:0:0:0:
291,250,2274,5,0,0:0:0:0:
335,284,2489,1,0,0:0:0:0:
388,315,2703,2,4,P|427:313|459:259,1,105.000004005432
459,260,3346,1,0,0:0:0:0:
451,236,3560,5,8,0:0:0:0:
426,176,3774,1,8,0:0:0:0:
377,125,3989,2,4,P|346:98|325:98,1,35
141,90,4417,6,0,P|80:212|88:232,1,140
99,254,5274,1,0,0:0:0:0:
99,254,5489,1,10,0:0:0:0:
143,301,5703,1,0,0:0:0:0:
143,301,5917,1,10,0:0:0:0:
175,315,6131,6,4,P|226:333|280:318,1,105.000004005432
297,311,6774,5,0,0:0:0:0:
341,267,6989,1,0,0:0:0:0:
367,201,7203,1,0,0:0:0:0:
297,311,7417,1,0,0:0:0:0:
341,267,7631,1,0,0:0:0:0:
346,205,7846,6,0,P|275:162|260:162,1,52.5000020027161
199,232,8489,5,4,0:0:0:0:
146,290,8703,1,4,0:0:0:0:
66,321,8917,1,4,0:0:0:0:
199,232,9131,1,4,0:0:0:0:
158,291,9346,1,0,0:0:0:0:
74,254,9560,2,0,P|59:186|60:180,1,70
123,134,10203,5,0,0:0:0:0:
204,92,10417,1,0,0:0:0:0:
296,105,10631,1,0,0:0:0:0:
366,165,11060,2,0,P|323:217|319:228,1,70
294,267,11489,5,0,0:0:0:0:
177,262,11703,1,0,0:0:0:0:
109,184,11917,1,0,0:0:0:0:
141,111,12131,2,0,P|215:82|308:94,1,140
274,83,12774,5,0,0:0:0:0:
274,83,13037,1,0,0:0:0:0:
192,96,13251,5,0,0:0:0:0:
128,192,13465,1,0,0:0:0:0:
256,32,13679,1,0,0:0:0:0:
326,79,13894,5,8,0:0:0:0:
432,268,14108,1,0,0:0:0:0:
215,199,14322,1,0,0:0:0:0:
121,74,14537,1,0,0:0:0:0:
432,127,14751,5,8,0:0:0:0:
181,273,14965,1,0,0:0:0:0:
94,204,15179,5,8,0:0:0:0:
131,92,15394,2,0,P|198:54|256:58,2,105,0|0|8,0:0|0:0|0:0,0:0:0:0:
286,156,16037,5,0,0:0:0:0:
428,274,16251,1,0,0:0:0:0:
285,361,16465,1,0,0:0:0:0:
169,249,16679,1,0,0:0:0:0:
93,107,16894,5,8,0:0:0:0:
210,213,17108,1,0,0:0:0:0:
339,294,17322,2,8,L|381:217,1,70
352,160,17644,2,4,L|295:78,1,70
232,48,17965,5,0,0:0:0:0:
63,144,18179,1,0,0:0:0:0:
189,235,18394,1,0,0:0:0:0:
324,345,18501,6,4,P|396:297|377:266,1,131.25000500679
365,216,19250,5,0,0:0:0:0:
173,263,19464,1,0,0:0:0:0:
87,98,19679,1,0,0:0:0:0:
222,325,19894,6,4,P|316:259|344:217,1,157.500006008148
375,178,20429,5,0,0:0:0:0:
345,98,20644,1,0,0:0:0:0:
250,81,20858,1,0,0:0:0:0:
105,121,21072,5,0,0:0:0:0:
92,222,21287,1,0,0:0:0:0:
373,244,21608,6,4,P|410:194|397:132,2,105.000004005432
375,178,22250,5,0,0:0:0:0:
350,120,22358,1,0,0:0:0:0:
290,98,22465,1,0,0:0:0:0:
106,158,22680,5,0,0:0:0:0:
104,204,22787,1,0,0:0:0:0:
142,251,22894,1,0,0:0:0:0:
308,269,23108,5,8,0:0:0:0:
231,210,23322,6,0,P|212:147|218:121,1,52.5000020027161
442,166,23644,5,2,0:0:0:0:
426,61,23751,1,0,0:0:0:0:
232,51,23965,1,0,0:0:0:0:
141,95,24072,1,0,0:0:0:0:
99,189,24287,5,4,0:0:0:0:
101,201,24394,1,0,0:0:0:0:
103,214,24501,1,0,0:0:0:0:
226,173,24822,5,4,0:0:0:0:
231,188,24929,1,0,0:0:0:0:
241,209,25037,1,0,0:0:0:0:
358,158,25251,6,0,P|349:252|283:291,2,157.500006008148
251,86,25894,1,0,0:0:0:0:
199,309,26108,5,0,0:0:0:0:
111,256,26322,1,0,0:0:0:0:
28,152,26537,1,0,0:0:0:0:
198,46,26751,1,0,0:0:0:0:
318,81,26965,6,12,P|351:162|326:218,1,140
285,260,27501,5,0,0:0:0:0:
189,244,27715,1,0,0:0:0:0:
127,186,27929,2,0,P|98:118|122:39,1,157.500006008148
219,43,28465,5,0,0:0:0:0:
305,66,28679,1,0,0:0:0:0:
134,62,28894,2,12,P|106:120|123:217,1,157.500006008148
170,268,29429,2,0,P|218:331|239:252,1,157.500006008148
255,289,29965,5,0,0:0:0:0:
324,237,30179,1,0,0:0:0:0:
364,162,30394,1,0,0:0:0:0:
401,90,30608,6,12,P|321:82|215:119,1,157.500006008148
247,101,31144,1,0,0:0:0:0:
140,159,31358,1,0,0:0:0:0:
149,293,31572,1,0,0:0:0:0:
150,57,31787,1,0,0:0:0:0:
220,58,32001,6,8,P|302:45|341:44,1,105.000004005432,8|0,0:0|0:0,0:0:0:0:
332,119,32322,2,8,P|280:117|231:134,1,105.000004005432,8|0,0:0|0:0,0:0:0:0:
295,205,32751,1,0,0:0:0:0:
287,228,32858,1,0,0:0:0:0:
279,252,32965,1,0,0:0:0:0:
271,276,33072,1,0,0:0:0:0:
263,300,33179,1,0,0:0:0:0:
187,319,33394,5,0,0:0:0:0:
83,81,33608,1,0,0:0:0:0:
304,172,33822,1,0,0:0:0:0:
187,319,34037,5,0,0:0:0:0:
304,172,34251,1,0,0:0:0:0:
192,80,34465,1,0,0:0:0:0:
92,121,34679,5,4,0:0:0:0:
350,47,34894,1,0,0:0:0:0:
120,211,35108,1,4,0:0:0:0:
357,188,35322,1,0,0:0:0:0:
319,287,35537,2,0,B|267:275|206:201|207:159|219:103,1,210.000008010865
215,123,36179,5,8,0:0:0:0:
219,118,36394,1,2,0:0:0:0:
215,123,36608,1,2,0:0:0:0:
332,168,36823,5,0,0:0:0:0:
243,296,37037,1,0,0:0:0:0:
73,225,37251,1,0,0:0:0:0:
327,70,37465,5,8,0:0:0:0:
135,163,37679,1,8,0:0:0:0:
324,237,37893,1,8,0:0:0:0:
151,320,38108,1,8,0:0:0:0:
242,325,38322,6,12,B|259:271|187:230|189:221,1,105.000004005432
115,268,38965,5,4,0:0:0:0:
67,188,39179,1,0,0:0:0:0:
129,96,39394,1,4,0:0:0:0:
387,308,39608,2,4,L|358:236,1,70
284,91,39929,5,0,0:0:0:0:
343,162,40144,1,0,0:0:0:0:
290,241,40358,1,0,0:0:0:0:
197,322,40572,5,0,0:0:0:0:
102,255,40787,2,12,P|59:197|47:137,1,131.25000500679
108,92,41537,5,0,0:0:0:0:
196,49,41751,1,0,0:0:0:0:
288,94,41965,1,0,0:0:0:0:
360,160,42179,2,12,P|316:213|260:257,1,131.25000500679
193,282,42929,5,0,0:0:0:0:
73,161,43144,2,12,P|109:87|121:78,1,78.7500030040742
187,67,43679,1,0,0:0:0:0:
207,51,43786,1,0,0:0:0:0:
233,49,43893,1,0,0:0:0:0:
257,59,44000,1,0,0:0:0:0:
272,80,44107,1,0,0:0:0:0:
274,106,44214,1,0,0:0:0:0:
354,188,44429,5,0,0:0:0:0:
194,263,44644,1,0,0:0:0:0:
88,146,44858,1,0,0:0:0:0:
139,65,45072,6,12,P|213:48|402:107,1,262.500010013581
370,188,46358,6,12,P|307:230|236:263,1,131.25000500679,2|0,0:0|0:0,0:0:0:0:
256,192,47001,12,0,48608,0:0:0:0:
