osu file format v14

[General]
AudioFilename: audio.mp3
AudioLeadIn: 0
PreviewTime: 223930
Countdown: 0
SampleSet: Soft
StackLeniency: 0.7
Mode: 0
LetterboxInBreaks: 0
WidescreenStoryboard: 1

[Editor]
Bookmarks: 64835
DistanceSpacing: 1.1
BeatDivisor: 4
GridSize: 16
TimelineZoom: 1.8

[Metadata]
Title:glory days
TitleUnicode:glory days
Artist:Haruna Luna
ArtistUnicode:春奈るな
Creator:HeTo
Version:Blessing
Source:冴えない彼女の育てかた Fine
Tags:japanese anime movie Saekano: How to Raise a Boring Girlfriend jpop j-pop pop Saenai Heroine no Sodatekata kanojo
BeatmapID:2548167
BeatmapSetID:1225204

[Difficulty]
HPDrainRate:5
CircleSize:4
OverallDifficulty:7.5
ApproachRate:8.4
SliderMultiplier:1.67
SliderTickRate:1

[Events]
//Background and Video events
0,0,"bg.jpg",0,0
//Break Periods
2,199953,205878
//Storyboard Layer 0 (Background)
//Storyboard Layer 1 (Fail)
//Storyboard Layer 2 (Pass)
//Storyboard Layer 3 (Foreground)
//Storyboard Layer 4 (Overlay)
//Storyboard Sound Samples

[TimingPoints]
584,472.44094488189,4,2,1,25,1,0
584,-153.846153846153,4,2,1,25,0,0
7552,-153.846153846153,4,2,1,5,0,0
7670,-153.846153846153,4,2,1,35,0,0
8143,-105.263157894736,4,2,1,40,0,0
14521,-181.818181818179,4,2,1,35,0,0
15702,-153.846153846152,4,2,1,30,0,0
30347,-181.818181818179,4,2,1,35,0,0
30702,-181.818181818179,4,2,1,5,0,0
30820,-128.205128205128,4,2,2,40,0,0
37198,-102.040816326531,4,2,2,40,0,0
37316,-102.040816326531,4,2,2,5,0,0
37434,-128.205128205128,4,2,2,40,0,0
45938,-116.279069767442,4,2,1,50,0,0
53497,-111.111111111111,4,2,1,50,0,0
57276,-83.3333333333333,4,2,1,60,0,0
57434,-83.3333333333333,4,2,1,5,0,0
57591,-83.3333333333333,4,2,1,60,0,0
57749,-83.3333333333333,4,2,1,5,0,0
57906,-83.3333333333333,4,2,1,60,0,0
58064,-83.3333333333333,4,2,1,5,0,0
58221,-83.3333333333333,4,2,1,60,0,0
58379,-83.3333333333333,4,2,1,5,0,0
58536,-83.3333333333333,4,2,1,60,0,0
58694,-83.3333333333333,4,2,1,5,0,0
58851,-83.3333333333333,4,2,1,60,0,0
59009,-83.3333333333333,4,2,1,5,0,0
59166,-100,4,2,1,60,0,0
61292,-100,4,2,1,35,0,0
61528,-100,4,2,1,50,0,0
62001,-100,4,2,1,60,0,0
62473,-100,4,2,1,50,0,0
63418,-153.846153846153,4,2,1,50,0,0
63772,-153.846153846153,4,2,1,5,0,0
63891,-153.846153846153,4,2,1,50,0,0
64245,-153.846153846153,4,2,1,5,0,0
64363,-153.846153846153,4,2,1,50,0,0
64835,-95.2380952380952,4,2,1,65,0,1
78300,-95.2380952380952,4,2,1,65,0,1
78418,-95.2380952380952,4,2,1,5,0,1
78536,-95.2380952380952,4,2,1,65,0,1
95072,-100,4,2,1,60,0,0
95426,-100,4,2,1,5,0,0
95544,-80,4,2,1,60,0,0
95662,-80,4,2,1,5,0,0
95780,-100,4,2,1,60,0,0
99206,-100,4,2,1,5,0,0
99324,-80,4,2,1,60,0,0
99442,-80,4,2,1,5,0,0
99560,-100,4,2,1,60,0,0
102631,-111.111111111111,4,2,1,60,0,0
106410,-111.111111111111,4,2,1,60,0,0
106646,-111.111111111111,4,2,1,40,0,0
106883,-111.111111111111,4,2,1,45,0,0
107355,-111.111111111111,4,2,1,50,0,0
107828,-111.111111111111,4,2,1,55,0,0
108300,-111.111111111111,4,2,1,60,0,0
109245,-212.765957446809,4,2,1,60,0,0
110662,-212.765957446809,4,2,1,15,0,0
110898,-212.765957446809,4,2,1,40,0,0
111135,472.44094488189,4,2,1,40,1,0
111135,-128.205128205128,4,2,1,40,0,0
117512,-100,4,2,1,40,0,0
117631,-100,4,2,1,5,0,0
117749,-128.205128205128,4,2,1,40,0,0
126253,-116.279069767442,4,2,1,50,0,0
133812,-111.111111111111,4,2,1,50,0,0
137591,-83.3333333333333,4,2,1,60,0,0
137749,-83.3333333333333,4,2,1,5,0,0
137906,-83.3333333333333,4,2,1,60,0,0
138064,-83.3333333333333,4,2,1,5,0,0
138221,-83.3333333333333,4,2,1,60,0,0
138379,-83.3333333333333,4,2,1,5,0,0
138536,-83.3333333333333,4,2,1,60,0,0
138694,-83.3333333333333,4,2,1,5,0,0
138851,-83.3333333333333,4,2,1,60,0,0
139009,-83.3333333333333,4,2,1,5,0,0
139166,-83.3333333333333,4,2,1,60,0,0
139323,-83.3333333333333,4,2,1,5,0,0
139481,-100,4,2,1,40,0,0
139953,-100,4,2,1,45,0,0
140426,-100,4,2,1,50,0,0
140898,-100,4,2,1,60,0,0
141489,-100,4,2,1,5,0,0
141607,-83.3333333333333,4,2,1,60,0,0
141725,-83.3333333333333,4,2,1,5,0,0
141843,-83.3333333333333,4,2,1,60,0,0
142316,-100,4,2,1,60,0,0
143260,-95.2380952380952,4,2,1,65,0,1
156725,-95.2380952380952,4,2,1,65,0,1
156843,-95.2380952380952,4,2,1,5,0,1
156961,-95.2380952380952,4,2,1,65,0,1
173497,-105.263157894737,4,2,1,60,0,0
173851,-105.263157894737,4,2,1,5,0,0
173969,-79.9999999999999,4,2,1,60,0,0
174087,-79.9999999999999,4,2,1,5,0,0
174205,-105.263157894737,4,2,1,60,0,0
177631,-105.263157894737,4,2,1,5,0,0
177749,-80.0000000000001,4,2,1,60,0,0
177867,-80.0000000000001,4,2,1,5,0,0
177985,-105.263157894737,4,2,1,60,0,0
181056,-100,4,2,1,65,0,0
192394,-83.3333333333333,4,2,1,60,0,0
192552,-83.3333333333333,4,2,1,5,0,0
192709,-83.3333333333333,4,2,1,60,0,0
192867,-83.3333333333333,4,2,1,5,0,0
193024,-83.3333333333333,4,2,1,60,0,0
193182,-83.3333333333333,4,2,1,5,0,0
193339,-83.3333333333333,4,2,1,60,0,0
193497,-83.3333333333333,4,2,1,5,0,0
193654,-83.3333333333333,4,2,1,60,0,0
193812,-83.3333333333333,4,2,1,5,0,0
193969,-83.3333333333333,4,2,1,60,0,0
194127,-83.3333333333333,4,2,1,5,0,0
194284,-100,4,2,1,60,0,0
196410,-100,4,2,1,40,0,0
196646,-100,4,2,1,45,0,0
197119,-100,4,2,1,55,0,0
197591,-100,4,2,1,60,0,0
198064,-222.222222222221,4,2,1,35,0,0
206568,-133.333333333333,4,2,1,50,0,0
207512,-111.111111111111,4,2,1,60,0,0
207985,-111.111111111111,4,2,1,40,0,0
208457,-111.111111111111,4,2,1,45,0,0
208930,-111.111111111111,4,2,1,50,0,0
209402,-111.111111111111,4,2,1,55,0,0
209875,-111.111111111111,4,2,1,60,0,0
210347,-111.111111111111,4,2,1,60,0,0
218379,472.44094488189,4,2,1,60,1,0
218379,-222.222222222221,4,2,1,60,0,0
220741,-222.222222222221,4,2,1,15,0,0
224048,-153.846153846153,4,2,1,50,0,0
224402,-153.846153846153,4,2,1,5,0,0
224520,-153.846153846153,4,2,1,50,0,0
224875,-153.846153846153,4,2,1,5,0,0
224993,-153.846153846153,4,2,1,50,0,0
225465,472.44094488189,4,2,1,60,1,1
225465,-208.333333333333,4,2,1,60,0,1
227354,-133.333333333333,4,2,1,60,0,0
229244,-105.263157894737,4,2,1,60,0,0
233024,-95.2380952380951,4,2,1,65,0,1
238929,-95.2380952380951,4,2,1,65,0,1
239047,-95.2380952380951,4,2,1,5,0,1
239165,-95.2380952380951,4,2,1,65,0,1
240583,-285.714285714286,4,2,1,65,0,0
240937,-285.714285714286,4,2,1,5,0,0
241055,-80,4,2,1,65,0,1
241527,-95.2380952380951,4,2,1,65,0,1
255701,-100,4,2,1,60,0,0
256055,-100,4,2,1,5,0,0
256173,-79.9999999999999,4,2,1,60,0,0
256291,-79.9999999999999,4,2,1,5,0,0
256409,-100,4,2,1,60,0,0
261134,-200,4,2,1,60,0,0
263260,-200,4,2,1,15,0,0
264205,-117.647058823529,4,2,1,45,0,0
265150,-100,4,2,1,60,0,0
284047,-117.647058823529,4,2,1,50,0,0
287354,-83.3333333333333,4,2,1,65,0,0

[Colours]
Combo1 : 68,247,206
Combo2 : 240,134,164
Combo3 : 222,181,253
Combo4 : 248,207,69

[HitObjects]
0,207,584,6,0,P|28:155|85:157,1,108.549995030976,2|0,0:0|0:0,0:0:0:0:
73,152,1292,1,2,0:0:0:0:
176,242,1528,2,0,B|321:235|209:164|371:161,1,217.099990061951,2|2,0:0|0:0,0:0:0:0:
364,161,3654,1,2,0:0:0:0:
321,246,3891,1,2,0:0:0:0:
285,149,4127,1,2,0:0:0:0:
420,232,4363,6,0,P|414:269|402:345,1,108.549995030976,2|0,0:0|0:0,0:0:0:0:
402,339,5072,1,2,0:0:0:0:
296,369,5308,2,0,P|217:366|205:256,1,189.962491304207,2|0,0:0|0:0,0:0:0:0:
204,256,6253,5,2,0:0:0:0:
117,163,6489,1,2,0:0:0:0:
58,285,6725,1,2,0:0:0:0:
129,239,6961,1,2,0:0:0:0:
26,79,7198,6,0,P|29:128|33:170,1,81.4124962732317,2|0,0:0|0:0,0:0:0:0:
117,163,7670,2,0,P|114:114|113:84,1,54.2749975154878,2|0,0:0|0:0,0:0:0:0:
195,43,8024,2,0,L|198:68,1,13.5687493788719,2|2,0:0|0:0,0:0:0:0:
205,37,8143,6,0,B|314:33|243:96|372:89,1,158.649995763588,6|0,1:2|0:0,0:0:0:0:
488,213,8851,1,2,1:2:0:0:
459,46,9087,2,0,P|407:67|389:177,1,158.649995763588,2|0,0:0|0:0,0:0:0:0:
437,296,9796,1,2,0:1:0:0:
438,307,9914,1,2,0:1:0:0:
440,318,10032,6,0,B|378:321|378:321|348:287|348:287|276:289,1,158.649995763588,2|0,1:2|0:0,0:0:0:0:
159,349,10741,1,2,1:1:0:0:
201,165,10977,2,0,P|208:210|215:251,1,79.324997881794,2|0,0:0|0:0,0:0:0:0:
242,376,11450,1,2,0:1:0:0:
89,292,11686,1,2,0:0:0:0:
89,292,11804,2,0,L|65:282,1,19.8312494704485
58,277,11922,6,0,P|139:259|219:241,1,158.649995763588,2|0,1:2|0:0,0:0:0:0:
315,200,12631,1,0,1:2:0:0:
242,2,12867,2,0,P|235:47|228:88,1,79.324997881794,2|0,0:0|0:0,0:0:0:0:
212,242,13339,1,2,0:1:0:0:
358,135,13576,1,2,0:1:0:0:
358,135,13694,1,2,0:1:0:0:
358,135,13812,5,2,1:2:0:0:
236,169,14048,1,2,0:0:0:0:
421,248,14284,1,2,0:0:0:0:
371,9,14521,2,0,P|362:60|345:150,1,137.775004204559,2|0,0:0|0:0,0:0:0:0:
320,309,15465,1,2,0:0:0:0:
317,320,15584,1,2,0:0:0:0:
314,330,15702,6,0,P|258:320|200:308,1,108.549995030976,2|0,0:0|0:0,0:0:0:0:
207,173,16410,1,2,0:0:0:0:
207,173,16646,2,0,P|200:208|193:247,1,54.2749975154878,2|0,0:0|0:0,0:0:0:0:
114,266,17119,2,0,P|108:239|103:212,1,54.2749975154878,2|0,0:0|0:0,0:0:0:0:
90,53,17591,5,2,0:0:0:0:
35,122,17828,1,2,0:0:0:0:
124,128,18064,1,2,0:0:0:0:
3,22,18300,2,0,P|13:81|22:145,1,108.549995030976,2|2,0:0|0:0,0:0:0:0:
103,212,19009,2,0,P|142:204|167:199,1,54.2749975154878,2|0,0:0|0:0,0:0:0:0:
272,108,19481,6,0,P|245:103|153:83,1,108.549995030976,2|0,0:0|0:0,0:0:0:0:
338,178,20190,1,2,0:0:0:0:
338,178,20426,2,0,P|355:157|380:126,1,54.2749975154878,2|0,0:0|0:0,0:0:0:0:
243,191,20898,2,0,P|252:216|267:253,1,54.2749975154878,2|0,0:0|0:0,0:0:0:0:
369,352,21371,5,2,0:0:0:0:
430,270,21607,1,2,0:0:0:0:
309,299,21843,1,2,0:0:0:0:
451,367,22080,1,2,0:0:0:0:
451,367,22198,1,2,0:0:0:0:
451,367,22316,1,2,0:0:0:0:
348,229,22552,1,2,0:0:0:0:
498,176,22788,1,2,0:0:0:0:
431,271,23024,2,0,L|430:247,2,18.0916658384959
429,239,23261,6,0,P|425:184|422:129,1,108.549995030976,2|2,0:0|0:0,0:0:0:0:
272,71,23969,1,2,0:0:0:0:
265,162,24206,1,2,0:0:0:0:
265,162,24442,2,0,P|305:163|347:99,1,108.549995030976,2|0,0:0|0:0,0:0:0:0:
199,37,25150,6,0,P|163:46|141:52,1,54.2749975154878,2|2,0:0|0:0,0:0:0:0:
66,139,25623,1,2,0:0:0:0:
68,29,25859,2,0,P|74:59|90:147,1,108.549995030976,2|0,0:0|0:0,0:0:0:0:
161,212,26568,2,0,P|171:158|174:149,1,54.2749975154878,2|2,0:0|0:0,0:0:0:0:
73,324,27040,6,0,P|135:309|193:297,1,108.549995030976,2|2,0:0|0:0,0:0:0:0:
277,300,27749,1,2,0:0:0:0:
277,300,28221,1,2,0:0:0:0:
176,149,28458,2,0,P|170:176|166:203,1,54.2749975154878,2|0,0:0|0:0,0:0:0:0:
166,222,28812,1,0,0:0:0:0:
166,222,28930,5,2,0:0:0:0:
263,165,29166,1,2,0:0:0:0:
154,69,29402,1,2,0:0:0:0:
341,4,29639,2,0,P|336:39|327:123,1,108.549995030976,2|0,0:0|0:1,0:0:0:0:
405,264,30347,6,0,P|446:258|470:232,1,68.8875021022797,4|0,0:0|0:0,0:0:0:0:
476,228,30820,6,0,P|472:192|469:156,1,65.1300021863709,2|0,1:2|0:0,0:0:0:0:
457,44,31292,1,2,0:0:0:0:
351,189,31528,2,0,P|290:186|251:125,1,130.260004372742,2|2,1:2|0:0,0:0:0:0:
328,114,32237,1,8,0:0:0:0:
217,279,32473,1,2,0:0:0:0:
217,279,32591,1,2,0:0:0:0:
217,279,32709,6,0,P|210:229|207:203,1,65.1300021863709,2|0,1:2|0:0,0:0:0:0:
119,294,33182,1,2,0:0:0:0:
290,383,33418,2,0,P|298:332|313:235,1,130.260004372742,2|2,1:2|0:0,0:0:0:0:
257,58,34127,1,8,0:0:0:0:
102,174,34363,1,0,0:0:0:0:
102,174,34481,2,0,L|77:161,1,16.2825005465927
74,158,34599,6,0,B|151:138|103:204|214:178,1,130.260004372742,0|2,1:2|0:0,0:0:0:0:
306,116,35308,1,2,1:2:0:0:
172,19,35544,2,0,P|174:46|179:90,1,65.1300021863709,0|2,0:0|0:0,0:0:0:0:
293,223,36017,1,8,0:0:0:0:
390,65,36253,1,2,0:0:0:0:
390,65,36371,2,0,L|385:39,1,16.2825005465927
384,30,36489,6,0,P|438:23|493:82,1,130.260004372742,2|2,1:2|0:0,0:0:0:0:
438,230,37198,6,0,L|392:218,1,40.914999625412,2|0,1:2|0:0,0:0:0:0:
264,78,37434,5,2,0:0:0:0:
318,218,37670,5,2,0:0:0:0:
362,123,37906,5,8,0:0:0:0:
241,260,38143,5,2,0:0:0:0:
241,260,38261,1,2,0:0:0:0:
241,260,38379,2,0,P|203:250|166:243,1,65.1300021863709,2|2,1:2|0:0,0:0:0:0:
53,353,38851,1,2,0:0:0:0:
188,331,39087,1,2,1:2:0:0:
88,180,39324,2,0,P|93:215|101:257,1,65.1300021863709,2|2,0:0|0:0,0:0:0:0:
168,109,39796,1,10,0:0:0:0:
6,197,40032,1,2,1:2:0:0:
177,244,40269,6,0,B|265:243|203:197|304:205,1,130.260004372742,2|0,1:2|0:0,0:0:0:0:
418,97,40977,2,0,P|407:150|392:227,1,130.260004372742,2|2,1:2|0:0,0:0:0:0:
496,141,41686,1,10,0:0:0:0:
313,27,41922,1,2,1:2:0:0:
313,27,42040,2,0,L|317:54,1,16.2825005465927
318,58,42158,6,0,P|260:47|178:31,1,130.260004372742,2|2,1:2|0:0,0:0:0:0:
107,170,42867,2,0,B|98:120|98:120|115:94|115:94|105:38,1,130.260004372742,2|2,1:2|1:2,0:0:0:0:
21,215,43576,1,10,0:0:0:0:
196,146,43812,1,2,0:0:0:0:
196,146,43930,2,0,L|200:174,1,16.2825005465927
201,178,44048,6,0,P|243:171|276:165,1,65.1300021863709,2|0,1:2|0:0,0:0:0:0:
411,259,44521,1,2,0:0:0:0:
341,36,44757,2,0,B|327:111|371:73|352:175,1,130.260004372742,6|8,1:2|1:2,0:0:0:0:
441,29,45465,1,8,0:3:0:0:
248,91,45702,1,4,0:3:0:0:
437,261,45938,6,0,P|447:195|463:98,1,143.620002191467,6|0,1:2|0:0,0:0:0:0:
344,285,46646,2,0,P|334:219|318:122,1,143.620002191467,2|0,1:2|1:2,0:0:0:0:
269,297,47355,1,10,0:0:0:0:
420,220,47591,1,2,0:0:0:0:
247,163,47828,6,0,P|208:173|173:184,1,71.8100010957337,2|0,1:2|0:0,0:0:0:0:
81,277,48300,1,2,0:0:0:0:
12,119,48536,2,0,P|59:125|98:216,1,143.620002191467,2|2,1:2|1:2,0:0:0:0:
0,341,49245,1,12,0:3:0:0:
17,199,49481,1,4,0:3:0:0:
148,352,49717,6,0,B|246:348|177:293|303:302,1,143.620002191467,2|0,1:2|0:0,0:0:0:0:
437,350,50426,2,0,L|441:306,1,35.9050005478668,2|2,1:2|0:0,0:0:0:0:
365,205,50662,2,0,P|361:240|357:308,1,71.8100010957337,2|0,0:0|1:2,0:0:0:0:
435,151,51135,1,10,0:0:0:0:
285,229,51371,1,2,0:0:0:0:
453,364,51607,6,0,P|457:329|463:261,1,71.8100010957337,2|2,1:2|0:0,0:0:0:0:
435,151,52080,1,2,0:0:0:0:
427,144,52198,2,0,P|387:154|342:164,1,71.8100010957337,2|2,0:0|0:0,0:0:0:0:
285,229,52552,1,0,0:0:0:0:
428,226,52788,1,8,0:0:0:0:
269,142,53024,1,8,0:3:0:0:
281,323,53261,1,4,0:3:0:0:
374,155,53497,6,0,P|368:111|354:-8,1,150.299995413208,6|2,1:2|0:0,0:0:0:0:
253,144,54206,1,2,0:0:0:0:
245,151,54324,2,0,P|192:139|121:123,1,112.724996559906,2|2,0:0|1:2,0:0:0:0:
196,229,54914,1,10,0:0:0:0:
240,60,55150,1,2,0:0:0:0:
82,188,55387,6,0,P|86:227|91:270,1,75.1499977066041,2|0,1:2|0:0,0:0:0:0:
9,135,55859,1,2,0:0:0:0:
150,19,56095,1,2,1:2:0:0:
156,26,56213,2,0,P|152:65|147:108,1,75.1499977066041,2|0,0:0|0:0,0:0:0:0:
82,188,56568,1,8,0:0:0:0:
43,28,56804,1,8,0:3:0:0:
223,147,57040,1,4,0:3:0:0:
71,277,57276,6,0,P|34:266|-9:257,1,66.7999979614258,14|0,0:0|0:0,0:0:0:0:
147,100,57591,2,0,P|175:73|204:40,1,66.7999979614258,14|0,0:0|0:0,0:0:0:0:
285,251,57906,2,0,P|293:288|307:330,1,66.7999979614258,14|0,0:0|0:0,0:0:0:0:
130,95,58221,6,0,P|158:68|187:35,1,66.7999979614258,14|0,0:0|0:0,0:0:0:0:
361,141,58536,2,0,P|369:178|383:220,1,66.7999979614258,8|0,0:3|0:0,0:0:0:0:
219,303,58851,2,0,P|181:291|138:282,1,66.7999979614258,4|0,0:3|0:0,0:0:0:0:
279,91,59166,5,14,0:0:0:0:
302,315,59402,1,0,1:2:0:0:
462,148,59639,1,10,0:0:0:0:
218,223,59875,1,0,1:2:0:0:
486,358,60111,1,10,0:0:0:0:
375,142,60347,1,0,1:2:0:0:
261,380,60584,1,10,0:0:0:0:
489,226,60820,1,4,0:3:0:0:
489,226,60938,1,4,0:3:0:0:
489,226,61056,6,0,P|482:180|475:131,1,83.5,6|8,1:2|0:0,0:0:0:0:
479,61,61410,1,8,0:0:0:0:
479,52,61528,2,0,L|425:40,1,41.75,8|8,0:0|0:0,0:0:0:0:
375,142,61765,2,0,L|321:154,1,41.75,8|8,0:0|0:0,0:0:0:0:
213,16,62001,1,8,0:0:0:0:
215,45,62119,1,8,0:0:0:0:
218,74,62237,1,8,0:0:0:0:
221,103,62355,1,8,0:0:0:0:
224,132,62473,5,2,0:0:0:0:
224,132,63418,6,0,P|180:126|131:119,1,81.4124962732317,2|0,0:0|0:0,0:0:0:0:
54,197,63891,2,0,P|98:203|147:210,1,81.4124962732317,2|0,0:0|0:0,0:0:0:0:
211,254,64363,5,2,0:0:0:0:
213,277,64481,1,2,0:0:0:0:
214,300,64599,1,2,0:0:0:0:
215,324,64717,1,2,0:0:0:0:
216,347,64835,6,0,P|165:335|126:325,1,87.6749973243714,6|0,1:2|0:0,0:0:0:0:
143,120,65308,2,0,P|185:109|228:99,1,87.6749973243714,10|0,0:0|0:0,0:0:0:0:
409,252,65780,1,10,0:0:0:0:
215,192,66017,1,0,1:2:0:0:
420,85,66253,1,10,0:0:0:0:
331,311,66489,1,2,1:2:0:0:
228,98,66725,6,0,P|238:37|245:-8,1,87.6749973243714,10|0,0:0|0:0,0:0:0:0:
349,174,67198,1,10,0:0:0:0:
141,266,67434,1,2,1:2:0:0:
141,266,67552,1,2,1:2:0:0:
141,266,67670,2,0,P|131:205|124:160,1,87.6749973243714,10|2,0:0|1:2,0:0:0:0:
245,10,68143,1,10,0:0:0:0:
57,103,68379,1,2,1:2:0:0:
284,241,68615,6,0,B|401:238|321:178|445:182,1,175.349994648743,10|10,0:0|0:0,0:0:0:0:
280,25,69324,2,0,P|273:76|265:132,1,87.6749973243714,2|8,0:0|0:0,0:0:0:0:
326,323,69796,1,2,1:2:0:0:
360,101,70032,1,10,0:0:0:0:
187,237,70269,1,2,1:2:0:0:
426,317,70505,6,0,P|488:306|531:298,1,87.6749973243714,8|0,0:0|1:2,0:0:0:0:
457,119,70977,1,10,0:0:0:0:
279,268,71213,1,2,1:2:0:0:
279,268,71332,1,2,1:2:0:0:
279,268,71450,2,0,P|286:330|289:361,1,87.6749973243714,10|0,0:0|1:2,0:0:0:0:
169,176,71922,1,10,0:0:0:0:
385,65,72158,1,8,0:0:0:0:
385,65,72276,1,8,0:0:0:0:
385,65,72395,6,0,P|375:143|363:247,1,175.349994648743,6|10,1:2|0:0,0:0:0:0:
249,76,73103,2,0,P|204:87|155:101,1,87.6749973243714,2|8,0:0|0:0,0:0:0:0:
119,234,73576,1,0,1:2:0:0:
89,31,73812,1,10,0:0:0:0:
268,175,74048,1,0,1:2:0:0:
90,314,74284,6,0,P|47:304|-1:293,1,87.6749973243714,10|0,0:0|0:0,0:0:0:0:
146,120,74757,1,8,0:0:0:0:
233,342,74993,1,2,1:2:0:0:
233,342,75111,1,2,1:2:0:0:
233,342,75229,2,0,P|276:332|324:321,1,87.6749973243714,10|0,0:0|0:0,0:0:0:0:
158,198,75702,1,10,0:0:0:0:
142,384,75938,1,2,1:2:0:0:
325,210,76174,6,0,P|314:151|305:106,1,87.6749973243714,10|2,0:0|1:2,0:0:0:0:
419,246,76568,2,0,P|423:214|427:190,1,29.2249991081238,2|8,0:0|0:0,0:0:0:0:
308,205,76765,2,0,P|297:146|288:101,1,87.6749973243714,2|2,0:0|0:0,0:0:0:0:
225,0,77119,1,10,0:0:0:0:
218,215,77355,1,0,1:2:0:0:
425,59,77591,1,8,0:0:0:0:
411,57,77709,1,8,0:0:0:0:
397,55,77828,1,0,1:2:0:0:
201,133,78064,5,4,1:2:0:0:
408,260,78300,2,0,B|414:238|414:238|404:197,1,43.8374986621857,14|0,0:0|0:0,0:0:0:0:
295,17,78536,2,0,P|293:63|290:117,1,87.6749973243714,10|0,0:0|1:2,0:0:0:0:
189,303,79009,1,8,0:3:0:0:
94,112,79245,5,8,0:0:0:0:
94,112,79363,1,8,0:0:0:0:
94,112,79481,1,8,0:0:0:0:
137,109,79599,1,8,0:0:0:0:
173,131,79717,1,4,0:3:0:0:
189,171,79835,1,4,0:3:0:0:
180,213,79954,6,0,B|64:198|135:269|3:261,1,175.349994648743,6|10,1:2|0:0,0:0:0:0:
205,356,80662,1,2,0:1:0:0:
205,356,80780,1,2,0:1:0:0:
205,356,80898,2,0,P|254:346|296:335,1,87.6749973243714,0|0,1:2|1:0,0:0:0:0:
287,132,81371,2,0,P|279:176|272:226,1,87.6749973243714,10|0,0:0|0:0,0:0:0:0:
173,131,81725,1,2,0:1:0:0:
163,121,81843,6,0,P|156:77|149:34,1,87.6749973243714,2|0,1:2|0:0,0:0:0:0:
97,250,82316,1,8,0:0:0:0:
340,138,82552,1,2,1:2:0:0:
322,136,82670,1,10,0:0:0:0:
305,134,82788,1,2,1:2:0:0:
287,132,82906,1,8,0:0:0:0:
273,131,83024,1,2,1:2:0:0:
396,299,83261,1,10,0:0:0:0:
460,105,83497,1,2,1:2:0:0:
460,105,83615,1,10,0:0:0:0:
460,105,83733,6,0,P|403:112|374:229,1,175.349994648743,2|10,1:2|0:0,0:0:0:0:
327,375,84442,1,2,1:2:0:0:
327,375,84560,1,10,0:0:0:0:
327,375,84678,2,0,P|322:338|317:306,1,43.8374986621857,0|8,1:2|0:0,0:0:0:0:
437,183,84914,1,2,1:2:0:0:
414,368,85150,1,10,0:0:0:0:
267,192,85387,1,2,1:2:0:0:
267,192,85505,1,8,0:0:0:0:
267,192,85623,6,0,P|202:203|169:209,1,87.6749973243714,0|0,1:2|0:0,0:0:0:0:
257,39,86095,2,0,P|300:46|343:53,1,87.6749973243714,10|2,0:0|0:1,0:0:0:0:
371,62,86450,1,2,0:1:0:0:
371,62,86568,1,2,1:2:0:0:
497,217,86804,1,0,1:2:0:0:
495,208,86922,1,8,0:0:0:0:
493,199,87040,1,8,0:0:0:0:
464,17,87276,1,8,0:0:0:0:
461,25,87395,1,8,0:0:0:0:
459,33,87513,6,0,P|453:89|446:133,1,87.6749973243714,6|2,1:2|0:0,0:0:0:0:
339,302,87985,1,10,0:0:0:0:
155,98,88221,2,0,B|275:93|197:162|317:157,1,175.349994648743,6|0,1:2|1:2,0:0:0:0:
161,223,88930,1,10,0:0:0:0:
298,55,89166,1,8,0:0:0:0:
298,55,89284,1,8,0:0:0:0:
298,55,89402,5,6,1:2:0:0:
100,153,89639,1,2,0:0:0:0:
337,261,89875,1,10,0:0:0:0:
211,7,90111,2,0,P|200:82|182:208,1,175.349994648743,6|0,1:2|1:2,0:0:0:0:
86,330,90820,1,8,0:0:0:0:
55,333,90938,1,8,0:0:0:0:
25,323,91056,1,8,0:3:0:0:
4,300,91174,1,8,0:3:0:0:
0,269,91292,6,0,B|55:252|107:238|107:238|130:273|182:279,1,175.349994648743,6|10,1:2|0:0,0:0:0:0:
338,91,92001,1,2,1:2:0:0:
338,91,92119,1,2,1:2:0:0:
338,91,92237,2,0,P|277:106|253:130,1,87.6749973243714,0|2,1:2|1:2,0:0:0:0:
374,249,92709,1,10,0:0:0:0:
397,32,92946,1,2,1:2:0:0:
397,32,93064,1,2,1:2:0:0:
397,32,93182,5,6,1:2:0:0:
189,197,93418,1,10,0:0:0:0:
476,265,93654,1,10,0:0:0:0:
270,34,93891,1,2,0:0:0:0:
270,34,94009,1,8,0:0:0:0:
270,34,94127,2,0,P|263:91|258:128,1,87.6749973243714,8|0,1:2|0:0,0:0:0:0:
254,147,94481,1,8,0:3:0:0:
254,147,94599,1,4,0:3:0:0:
222,323,94835,1,4,0:3:0:0:
220,331,94954,1,4,0:3:0:0:
218,339,95072,6,0,P|160:328|83:310,1,125.25,6|0,1:2|0:0,0:0:0:0:
74,313,95544,2,0,L|81:369,1,52.1875,10|0,0:0|0:0,0:0:0:0:
242,199,95780,1,6,1:2:0:0:
252,210,96253,5,8,0:0:0:0:
83,101,96489,1,8,0:3:0:0:
164,250,96725,2,0,P|176:172|192:66,1,167,6|0,1:2|1:2,0:0:0:0:
75,230,97434,1,10,0:0:0:0:
275,84,97670,2,0,P|252:21|136:23,1,167,6|8,1:2|0:3,0:0:0:0:
40,142,98379,1,8,0:3:0:0:
244,232,98615,1,4,0:3:0:0:
244,232,98733,1,4,0:3:0:0:
244,232,98851,6,0,P|297:219|390:198,1,125.25,6|0,1:2|0:0,0:0:0:0:
395,213,99324,2,0,L|388:269,1,52.1875,10|0,0:0|0:0,0:0:0:0:
275,84,99560,1,6,1:2:0:0:
476,185,99796,1,0,1:2:0:0:
283,307,100032,1,8,0:0:0:0:
364,99,100269,1,2,0:0:0:0:
364,99,100505,6,0,P|375:175|389:270,1,167,4|0,1:2|1:2,0:0:0:0:
459,76,101213,1,10,0:0:0:0:
285,232,101450,2,0,B|170:244|236:177|107:197,1,167,6|8,1:2|0:3,0:0:0:0:
280,143,102158,1,8,0:3:0:0:
112,284,102395,1,4,0:3:0:0:
112,284,102513,1,4,0:3:0:0:
112,284,102631,6,0,P|104:225|87:125,1,150.299995413208,6|0,1:2|0:0,0:0:0:0:
174,9,103339,2,0,P|228:6|277:93,1,150.299995413208,0|2,1:2|0:0,0:0:0:0:
190,226,104048,1,2,0:0:0:0:
198,83,104284,1,10,0:0:0:0:
361,239,104521,6,0,P|413:227|447:218,1,75.1499977066041,2|2,1:2|0:0,0:0:0:0:
342,145,104993,1,2,0:0:0:0:
292,317,105229,2,0,P|240:305|132:279,1,150.299995413208,2|8,1:2|0:0,0:0:0:0:
40,179,105938,1,8,0:3:0:0:
192,50,106174,1,4,0:3:0:0:
192,50,106292,1,4,0:3:0:0:
192,50,106410,6,0,P|185:106|180:145,1,75.1499977066041,14|0,1:2|1:2,0:0:0:0:
145,282,106883,1,0,1:2:0:0:
104,131,107119,1,0,1:2:0:0:
295,243,107355,2,0,P|352:231|381:224,1,75.1499977066041,12|8,1:2|0:0,0:0:0:0:
512,112,107828,1,8,1:2:0:0:
430,331,108064,1,8,0:0:0:0:
306,96,108300,6,0,P|317:27|322:-6,1,75.1499977066041,12|8,0:0|0:0,0:0:0:0:
479,262,108772,1,8,0:0:0:0:
222,189,109009,1,8,0:0:0:0:
491,35,109245,6,0,B|476:7|449:0|449:0|437:110|496:52|482:181,1,235.469996407013,14|0,0:0|0:0,0:0:0:0:
464,323,110898,1,2,0:0:0:0:
462,334,111017,1,2,0:0:0:0:
461,346,111135,6,0,P|404:338|329:328,1,130.260004372742,6|0,1:2|0:0,0:0:0:0:
240,239,111843,1,2,1:2:0:0:
325,168,112079,2,0,P|318:206|312:252,1,65.1300021863709,2|2,0:0|1:2,0:0:0:0:
228,132,112552,1,10,0:0:0:0:
361,84,112788,1,2,0:0:0:0:
200,0,113024,6,0,P|209:57|224:150,1,130.260004372742,2|0,1:2|0:0,0:0:0:0:
175,281,113733,2,0,P|114:282|73:207,1,130.260004372742,0|2,1:2|0:0,0:0:0:0:
206,358,114442,1,10,0:0:0:0:
147,208,114678,1,2,0:0:0:0:
17,358,114914,6,0,P|9:291|-1:216,1,130.260004372742,2|0,1:2|0:0,0:0:0:0:
36,91,115623,2,0,B|88:85|88:85|106:57|106:57|169:52,1,130.260004372742,2|2,1:2|1:2,0:0:0:0:
27,11,116331,1,8,0:0:0:0:
151,200,116568,1,2,0:0:0:0:
151,200,116686,1,2,0:0:0:0:
151,200,116804,6,0,L|160:129,1,65.1300021863709,2|0,1:2|0:0,0:0:0:0:
73,231,117276,1,0,1:2:0:0:
263,300,117512,6,0,L|254:238,1,41.75,2|0,1:2|0:0,0:0:0:0:
337,58,117749,5,2,0:0:0:0:
230,110,117985,5,2,0:0:0:0:
306,175,118221,5,10,0:0:0:0:
185,4,118457,5,2,0:0:0:0:
185,4,118575,1,2,0:0:0:0:
185,4,118694,2,0,B|93:1|154:49|53:49,1,130.260004372742,2|0,1:2|0:0,0:0:0:0:
149,197,119402,1,2,1:2:0:0:
262,112,119638,2,0,P|212:99|182:89,1,65.1300021863709,2|0,0:0|1:2,0:0:0:0:
327,229,120111,1,10,0:0:0:0:
444,88,120347,1,2,0:0:0:0:
444,88,120465,1,2,0:0:0:0:
444,88,120583,6,0,P|451:144|455:181,1,65.1300021863709,2|0,1:2|0:0,0:0:0:0:
410,337,121056,1,2,0:0:0:0:
502,224,121292,2,0,P|463:194|364:199,1,130.260004372742,2|2,1:2|0:0,0:0:0:0:
371,196,121883,1,0,0:0:0:0:
371,196,122001,1,10,0:0:0:0:
265,290,122237,1,0,0:0:0:0:
269,86,122473,6,0,P|276:120|284:159,1,65.1300021863709,6|2,1:2|0:0,0:0:0:0:
265,290,122946,1,2,0:0:0:0:
397,68,123182,2,0,P|390:102|368:208,1,130.260004372742,6|2,1:2|1:2,0:0:0:0:
369,384,123890,1,10,0:0:0:0:
510,258,124127,1,2,0:0:0:0:
510,258,124245,1,2,0:0:0:0:
510,258,124363,6,0,P|450:244|427:238,1,65.1300021863709,6|2,1:2|0:0,0:0:0:0:
256,282,124835,1,10,0:0:0:0:
435,335,125072,1,2,1:2:0:0:
292,180,125308,1,8,0:3:0:0:
341,370,125544,6,0,P|345:345|348:327,1,32.5650010931855,2|8,1:2|0:0,0:0:0:0:
210,177,125780,2,0,P|212:193|215:209,1,32.5650010931855,2|8,1:2|0:0,0:0:0:0:
171,364,126016,1,0,0:0:0:0:
315,106,126253,6,0,P|323:164|337:255,1,143.620002191467,6|0,1:2|1:2,0:0:0:0:
220,105,126961,2,0,P|212:163|206:200,1,71.8100010957337,2|0,1:2|1:2,0:0:0:0:
99,273,127434,1,10,0:0:0:0:
29,148,127670,2,0,P|71:140|105:133,1,71.8100010957337,6|0,1:2|0:0,0:0:0:0:
254,256,128142,5,2,1:2:0:0:
73,344,128379,1,2,0:0:0:0:
73,344,128497,1,2,0:0:0:0:
73,344,128615,1,0,1:2:0:0:
170,181,128851,2,0,P|175:230|179:264,1,71.8100010957337,10|0,0:0|1:2,0:0:0:0:
280,135,129323,1,8,0:0:0:0:
107,62,129560,2,0,P|102:111|98:145,1,71.8100010957337,0|0,1:2|0:0,0:0:0:0:
225,320,130032,6,0,P|287:309|371:291,1,143.620002191467,2|0,1:2|1:2,0:0:0:0:
454,147,130741,1,2,0:0:0:0:
454,147,130859,1,2,0:0:0:0:
454,147,130977,1,2,1:2:0:0:
478,322,131213,1,10,0:0:0:0:
351,183,131449,2,0,P|360:125|367:91,1,71.8100010957337,10|0,0:0|0:0,0:0:0:0:
213,245,131922,6,0,P|218:280|224:315,1,71.8100010957337,0|2,1:2|0:0,0:0:0:0:
90,182,132394,1,2,1:2:0:0:
92,171,132512,2,0,P|145:158|188:147,1,71.8100010957337,2|2,0:0|0:0,0:0:0:0:
257,170,132867,1,0,1:2:0:0:
121,274,133103,1,8,0:3:0:0:
196,67,133339,1,8,0:0:0:0:
316,260,133575,1,8,0:3:0:0:
316,260,133694,1,8,0:3:0:0:
316,260,133812,6,0,B|417:256|338:203|476:201,1,150.299995413208,6|10,1:2|0:0,0:0:0:0:
372,20,134520,1,2,0:0:0:0:
362,24,134638,2,0,P|357:75|350:141,1,112.724996559906,2|2,0:0|1:2,0:0:0:0:
441,288,135229,1,10,0:0:0:0:
498,124,135465,1,2,0:0:0:0:
316,260,135701,6,0,P|261:249|234:242,1,75.1499977066041,2|0,1:2|0:0,0:0:0:0:
80,171,136174,1,10,0:0:0:0:
199,2,136410,1,2,0:0:0:0:
207,7,136528,2,0,P|215:48|226:103,1,75.1499977066041,2|0,0:0|0:0,0:0:0:0:
192,165,136883,1,2,1:2:0:0:
26,61,137119,1,8,0:0:0:0:
24,46,137237,1,8,0:0:0:0:
22,31,137355,1,0,1:2:0:0:
165,236,137591,6,0,P|161:269|156:302,1,66.7999979614258,14|0,0:0|0:0,0:0:0:0:
318,174,137906,2,0,P|313:140|309:107,1,66.7999979614258,14|0,0:0|0:0,0:0:0:0:
93,168,138221,2,0,P|89:201|84:234,1,66.7999979614258,14|0,0:0|0:0,0:0:0:0:
195,364,138536,6,0,P|236:354|276:343,1,66.7999979614258,14|0,0:0|0:0,0:0:0:0:
84,175,138851,2,0,P|80:208|75:241,1,66.7999979614258,8|0,0:3|0:0,0:0:0:0:
252,274,139166,2,0,P|293:264|333:253,1,66.7999979614258,4|0,0:3|0:0,0:0:0:0:
428,131,139481,5,14,1:2:0:0:
333,179,139717,1,8,0:0:0:0:
466,240,139953,1,8,0:0:0:0:
397,60,140190,1,8,0:0:0:0:
252,274,140426,1,8,0:0:0:0:
506,151,140662,1,8,0:0:0:0:
237,42,140898,1,8,0:0:0:0:
377,342,141135,6,0,P|387:275|399:201,1,125.25,6|0,1:2|0:0,0:0:0:0:
402,195,141607,6,0,P|368:190|321:180,1,50.0999984710694,14|0,1:2|0:0,0:0:0:0:
145,288,141843,1,12,1:2:0:0:
145,288,142316,5,8,0:3:0:0:
146,255,142434,1,8,0:3:0:0:
147,223,142552,1,8,0:0:0:0:
148,191,142670,1,8,0:0:0:0:
148,162,142788,2,0,L|218:146,1,41.75,8|8,0:0|0:0,0:0:0:0:
266,9,143024,2,0,L|196:-7,1,41.75,8|8,0:0|0:0,0:0:0:0:
310,237,143260,6,0,P|359:226|410:215,1,87.6749973243714,6|0,1:2|0:0,0:0:0:0:
219,82,143733,2,0,P|176:72|133:63,1,87.6749973243714,10|0,0:0|0:0,0:0:0:0:
241,260,144205,1,10,0:0:0:0:
339,92,144442,1,0,1:2:0:0:
147,223,144678,1,10,0:0:0:0:
357,308,144914,1,2,1:2:0:0:
219,82,145150,6,0,P|210:136|204:181,1,87.6749973243714,10|0,0:0|1:2,0:0:0:0:
93,325,145623,1,10,0:0:0:0:
0,147,145859,1,2,1:2:0:0:
0,147,145977,1,2,1:2:0:0:
0,147,146095,2,0,P|49:138|90:130,1,87.6749973243714,10|2,0:0|1:2,0:0:0:0:
254,264,146568,1,10,0:0:0:0:
219,82,146804,1,2,1:2:0:0:
177,345,147040,6,0,B|289:341|205:283|333:290,1,175.349994648743,10|10,0:0|0:0,0:0:0:0:
438,99,147749,2,0,P|428:149|419:192,1,87.6749973243714,2|8,0:0|0:0,0:0:0:0:
325,62,148221,1,2,1:2:0:0:
512,188,148457,1,10,0:0:0:0:
333,290,148694,1,2,1:2:0:0:
420,13,148930,6,0,P|430:63|439:106,1,87.6749973243714,8|0,0:0|1:2,0:0:0:0:
416,293,149402,1,10,0:0:0:0:
246,159,149638,1,0,1:2:0:0:
246,159,149757,1,0,1:2:0:0:
246,159,149875,2,0,P|310:144|350:135,1,87.6749973243714,10|0,0:0|1:2,0:0:0:0:
234,282,150347,1,10,0:0:0:0:
136,71,150583,1,8,0:0:0:0:
132,62,150701,1,8,0:0:0:0:
128,53,150820,6,0,P|59:59|32:161,1,175.349994648743,14|10,0:0|0:0,0:0:0:0:
124,306,151528,2,0,P|132:254|144:184,1,87.6749973243714,2|8,1:2|0:0,0:0:0:0:
21,355,152001,1,0,1:2:0:0:
228,264,152237,1,10,0:0:0:0:
26,149,152473,1,0,1:2:0:0:
212,351,152709,6,0,P|272:338|313:328,1,87.6749973243714,10|0,0:0|0:0,0:0:0:0:
453,233,153182,1,10,0:0:0:0:
283,82,153418,1,2,1:2:0:0:
283,82,153536,1,2,1:2:0:0:
283,82,153654,2,0,P|290:136|296:191,1,87.6749973243714,10|0,0:0|1:2,0:0:0:0:
390,363,154127,1,10,0:0:0:0:
512,184,154363,1,2,1:2:0:0:
512,184,154481,1,2,1:2:0:0:
512,184,154599,6,0,P|471:159|419:163,1,87.6749973243714,10|2,0:0|1:2,0:0:0:0:
341,235,154993,2,0,L|393:224,1,29.2249991081238,2|8,0:0|0:0,0:0:0:0:
434,78,155190,2,0,P|387:89|353:131,1,87.6749973243714,2|2,0:0|0:0,0:0:0:0:
457,257,155544,1,10,0:0:0:0:
512,76,155780,1,2,1:2:0:0:
341,235,156016,1,8,0:0:0:0:
337,217,156135,1,8,0:0:0:0:
333,199,156253,1,0,1:2:0:0:
221,15,156489,5,0,1:2:0:0:
128,217,156725,2,0,B|150:222|150:222|179:209,1,43.8374986621857,14|0,0:0|0:0,0:0:0:0:
335,103,156961,2,0,P|308:106|227:115,1,87.6749973243714,10|0,0:0|1:2,0:0:0:0:
79,3,157434,2,0,P|91:68|99:108,1,87.6749973243714,8|8,0:3|0:0,0:0:0:0:
24,181,157788,1,8,0:0:0:0:
18,168,157906,2,0,L|8:116,1,43.8374986621857,8|8,0:0|0:0,0:0:0:0:
169,213,158142,2,0,L|179:161,1,43.8374986621857,8|8,0:3|0:3,0:0:0:0:
22,320,158379,6,0,B|58:284|98:279|98:279|123:323|190:317,1,175.349994648743,6|8,1:2|0:0,0:0:0:0:
325,192,159087,1,2,0:1:0:0:
325,192,159205,1,2,0:1:0:0:
325,192,159323,2,0,P|314:250|306:298,1,87.6749973243714,0|0,1:2|1:2,0:0:0:0:
179,166,159796,1,10,0:0:0:0:
359,26,160032,1,0,1:2:0:0:
359,26,160150,1,8,0:0:0:0:
359,26,160268,6,0,P|368:76|378:132,1,87.6749973243714,0|0,1:2|0:0,0:0:0:0:
392,311,160741,1,8,0:0:0:0:
512,184,160977,1,2,1:2:0:0:
490,184,161095,1,10,0:0:0:0:
468,184,161213,1,2,1:2:0:0:
446,185,161331,1,8,0:0:0:0:
424,185,161449,1,2,1:2:0:0:
287,306,161686,1,10,0:0:0:0:
228,91,161922,1,2,1:2:0:0:
228,91,162040,1,8,0:0:0:0:
228,91,162158,6,0,P|296:108|325:214,1,175.349994648743,2|10,1:2|0:0,0:0:0:0:
153,341,162867,1,2,1:2:0:0:
153,341,162985,1,8,0:0:0:0:
153,341,163103,1,0,1:2:0:0:
255,174,163339,1,2,1:2:0:0:
262,367,163575,1,10,0:0:0:0:
125,165,163812,1,2,1:2:0:0:
125,165,163930,1,8,0:0:0:0:
125,165,164048,6,0,P|70:177|28:186,1,87.6749973243714,0|0,1:2|0:0,0:0:0:0:
153,340,164520,2,0,P|195:349|238:358,1,87.6749973243714,10|0,0:0|0:0,0:0:0:0:
262,367,164875,1,8,0:0:0:0:
262,367,164993,1,2,1:2:0:0:
434,200,165229,1,0,1:2:0:0:
433,208,165347,1,0,1:2:0:0:
433,216,165465,1,10,0:0:0:0:
365,374,165701,1,8,0:0:0:0:
363,365,165820,1,8,0:0:0:0:
361,356,165938,6,0,P|350:281|346:257,1,87.6749973243714,6|0,1:2|0:0,0:0:0:0:
305,122,166410,1,10,0:0:0:0:
480,281,166646,2,0,P|491:206|513:83,1,175.349994648743,6|0,1:2|1:2,0:0:0:0:
348,269,167355,1,10,0:0:0:0:
271,41,167591,1,8,0:0:0:0:
271,41,167709,1,8,0:0:0:0:
271,41,167827,5,6,1:2:0:0:
477,181,168064,1,2,0:0:0:0:
246,247,168300,1,10,0:0:0:0:
367,5,168536,2,0,B|354:103|424:40|397:195,1,175.349994648743,6|0,1:2|1:2,0:0:0:0:
280,317,169245,1,8,0:0:0:0:
239,332,169363,1,8,0:0:0:0:
198,321,169481,1,4,0:3:0:0:
170,288,169599,1,4,0:3:0:0:
168,245,169717,6,0,B|102:243|102:243|72:284|72:284|-7:284,1,175.349994648743,6|10,1:2|0:0,0:0:0:0:
8,29,170426,1,2,1:2:0:0:
8,29,170544,1,8,0:0:0:0:
8,29,170662,2,0,P|16:76|23:121,1,87.6749973243714,0|2,1:2|1:2,0:0:0:0:
100,281,171135,1,10,0:0:0:0:
200,71,171371,1,2,1:2:0:0:
200,71,171489,1,2,1:2:0:0:
200,71,171607,5,6,1:2:0:0:
0,199,171843,1,10,0:0:0:0:
250,262,172079,1,10,0:0:0:0:
126,10,172316,1,2,0:0:0:0:
126,10,172434,1,8,0:0:0:0:
126,10,172552,2,0,P|118:57|111:102,1,87.6749973243714,8|0,0:0|1:2,0:0:0:0:
119,121,172906,1,8,0:3:0:0:
119,121,173024,1,4,0:3:0:0:
157,319,173260,1,4,0:3:0:0:
160,327,173379,1,4,0:3:0:0:
163,334,173497,6,0,P|231:331|259:266,1,118.987496822691,6|0,1:2|0:0,0:0:0:0:
273,285,173969,2,0,L|266:223,1,52.1875,10|0,0:0|0:0,0:0:0:0:
413,349,174205,5,6,1:2:0:0:
406,362,174678,1,8,0:0:0:0:
512,184,174914,1,8,0:3:0:0:
342,220,175150,2,0,B|444:216|378:277|515:265,1,158.649995763588,6|0,1:2|1:2,0:0:0:0:
407,108,175859,1,10,0:0:0:0:
257,293,176095,2,0,P|202:281|91:258,1,158.649995763588,6|8,1:2|0:3,0:0:0:0:
50,161,176804,1,8,0:3:0:0:
168,46,177040,1,4,0:3:0:0:
168,46,177158,1,4,0:3:0:0:
168,46,177276,6,0,P|227:58|252:107,1,118.987496822691,6|0,1:2|0:0,0:0:0:0:
272,111,177749,2,0,L|262:170,1,52.1875,10|0,0:0|0:0,0:0:0:0:
370,31,177985,1,6,1:2:0:0:
362,20,178457,5,8,0:0:0:0:
165,167,178694,1,4,0:3:0:0:
239,5,178930,2,0,P|250:81|264:166,1,158.649995763588,6|0,1:2|1:2,0:0:0:0:
318,343,179638,1,10,0:0:0:0:
392,167,179875,1,0,1:2:0:0:
235,315,180111,2,0,P|175:303|126:291,1,79.324997881794,2|0,1:2|0:0,0:0:0:0:
72,319,180465,1,8,0:0:0:0:
64,321,180583,2,0,L|54:273,1,39.662498940897,0|8,1:2|0:0,0:0:0:0:
168,196,180820,2,0,L|178:148,1,39.662498940897,8|4,0:3|0:3,0:0:0:0:
0,34,181056,6,0,B|113:20|41:91|171:72,1,167,6|10,1:2|0:0,0:0:0:0:
27,210,181764,1,2,0:1:0:0:
27,210,181883,1,2,0:1:0:0:
27,210,182001,2,0,L|16:162,1,41.75,0|8,1:2|0:0,0:0:0:0:
134,0,182237,1,0,1:2:0:0:
262,246,182473,2,0,P|194:240|168:176,1,125.25,10|2,0:0|0:0,0:0:0:0:
228,91,182946,6,0,P|234:131|243:184,1,83.5,0|0,1:2|0:0,0:0:0:0:
382,313,183418,2,0,P|388:271|395:230,1,83.5,10|0,0:0|0:0,0:0:0:0:
388,141,183772,1,2,0:1:0:0:
392,134,183890,2,0,L|443:122,1,41.75,2|2,1:2|0:1,0:0:0:0:
507,211,184127,1,2,1:2:0:0:
409,43,184363,1,10,0:0:0:0:
309,236,184599,1,8,0:0:0:0:
306,244,184717,1,8,0:0:0:0:
303,252,184835,6,0,P|229:236|107:209,1,167,2|10,1:2|0:0,0:0:0:0:
83,84,185544,1,2,0:0:0:0:
83,84,185662,1,2,0:1:0:0:
83,84,185780,2,0,L|90:132,1,41.75,2|2,1:2|0:1,0:0:0:0:
60,249,186016,1,0,1:2:0:0:
224,74,186253,2,0,P|218:123|209:205,1,125.25,10|2,0:0|0:0,0:0:0:0:
211,216,186725,6,0,P|266:203|306:195,1,83.5,2|0,1:2|0:0,0:0:0:0:
446,290,187197,1,10,0:0:0:0:
387,56,187434,1,2,0:0:0:0:
387,56,187552,1,2,0:1:0:0:
387,56,187670,2,0,P|380:111|373:157,1,83.5,2|0,1:2|1:2,0:0:0:0:
367,161,188024,2,0,L|374:214,1,41.75,2|8,0:0|0:0,0:0:0:0:
369,301,188260,2,0,P|326:305|278:260,1,83.5,2|8,0:0|0:0,0:0:0:0:
211,216,188615,6,0,B|92:218|185:275|38:281,1,167,6|10,1:2|0:0,0:0:0:0:
85,39,189323,1,2,0:0:0:0:
85,39,189442,1,2,0:1:0:0:
85,39,189560,2,0,P|97:88|110:140,1,83.5,2|2,1:2|1:2,0:0:0:0:
106,146,189914,2,0,L|162:135,1,41.75,2|8,0:0|0:0,0:0:0:0:
236,64,190150,2,0,P|283:74|337:86,1,83.5,2|2,0:0|0:0,0:0:0:0:
465,222,190505,5,4,1:2:0:0:
401,12,190741,1,8,0:0:0:0:
399,23,190859,1,8,0:0:0:0:
398,35,190977,1,8,0:0:0:0:
270,249,191213,2,0,P|210:237|156:226,1,83.5,6|0,1:2|0:0,0:0:0:0:
317,81,191686,1,8,0:0:0:0:
319,92,191804,1,8,0:0:0:0:
322,104,191922,1,8,0:0:0:0:
263,326,192158,1,4,0:3:0:0:
140,113,192394,6,0,P|145:80|154:35,1,66.7999979614258,14|0,0:0|0:0,0:0:0:0:
333,227,192709,2,0,P|301:239|258:253,1,66.7999979614258,14|0,0:0|0:0,0:0:0:0:
363,0,193024,2,0,P|389:20|423:51,1,66.7999979614258,14|0,0:0|0:0,0:0:0:0:
128,129,193339,6,0,P|133:96|142:51,1,66.7999979614258,14|0,0:0|0:0,0:0:0:0:
328,74,193654,2,0,P|354:94|388:125,1,66.7999979614258,8|0,0:3|0:0,0:0:0:0:
270,250,193969,2,0,P|238:262|195:276,1,66.7999979614258,8|0,0:3|0:0,0:0:0:0:
242,10,194284,5,6,1:2:0:0:
385,241,194520,1,14,0:0:0:0:
129,130,194757,1,14,0:0:0:0:
403,42,194993,1,2,1:2:0:0:
207,273,195229,2,0,P|200:216|195:169,1,83.5,14|0,0:0|1:2,0:0:0:0:
341,316,195701,1,10,0:0:0:0:
91,227,195938,1,8,0:0:0:0:
91,227,196056,1,8,0:0:0:0:
91,227,196174,5,14,1:2:0:0:
272,167,196410,1,8,0:0:0:0:
190,317,196646,1,8,0:0:0:0:
209,97,196883,1,8,0:0:0:0:
343,331,197119,1,8,0:0:0:0:
129,130,197355,1,8,0:0:0:0:
444,346,197591,5,10,0:0:0:0:
487,330,197709,1,10,0:0:0:0:
505,288,197827,1,10,0:0:0:0:
487,245,197945,1,10,0:0:0:0:
64,89,206568,6,0,P|57:146|50:193,2,93.9375035834314,2|2|2,0:0|0:0|0:0,0:0:0:0:
134,28,207394,1,4,0:3:0:0:
143,21,207512,6,0,P|201:10|232:3,1,75.1499977066041,14|0,1:2|0:0,0:0:0:0:
207,224,207985,2,0,P|170:216|133:209,1,75.1499977066041,0|0,1:2|1:2,0:0:0:0:
277,157,208457,5,8,0:0:0:0:
304,261,208694,1,8,0:0:0:0:
183,135,208930,1,8,0:0:0:0:
364,197,209166,1,8,0:0:0:0:
182,295,209402,5,12,0:0:0:0:
343,123,209638,1,8,0:0:0:0:
377,363,209875,1,8,0:0:0:0:
134,209,210111,1,8,0:0:0:0:
426,141,210347,5,8,0:0:0:0:
219,371,210583,1,8,0:0:0:0:
205,90,210820,1,8,0:0:0:0:
242,87,210938,1,8,0:0:0:0:
275,102,211056,1,8,0:3:0:0:
297,132,211174,1,8,0:3:0:0:
302,169,211292,5,10,0:0:0:0:
46,236,211528,1,10,0:0:0:0:
35,230,212001,5,10,0:0:0:0:
246,344,212237,1,10,0:0:0:0:
255,352,212709,5,10,0:0:0:0:
133,123,212946,2,0,P|125:181|108:306,1,150.299995413208,14|0,0:0|0:0,0:0:0:0:
112,271,213654,1,4,0:3:0:0:
232,86,213890,1,14,0:0:0:0:
327,259,214127,1,2,0:0:0:0:
202,168,214363,1,8,0:3:0:0:
411,18,214599,5,12,0:3:0:0:
410,44,214717,1,2,0:0:0:0:
409,77,214835,1,2,0:0:0:0:
407,118,214953,1,2,0:0:0:0:
405,163,215072,5,10,0:0:0:0:
156,298,215308,1,10,0:0:0:0:
145,315,215780,5,10,0:0:0:0:
279,33,216016,1,10,0:0:0:0:
272,17,216489,5,10,0:0:0:0:
441,288,216725,2,0,B|337:297|405:232|274:239,1,150.299995413208,14|8,0:0|0:0,0:0:0:0:
180,361,217434,1,8,0:0:0:0:
307,314,217670,1,8,0:3:0:0:
166,167,217906,1,2,0:0:0:0:
233,293,218142,1,4,0:3:0:0:
346,62,218379,5,6,1:2:0:0:
256,192,218497,12,0,220741,0:0:0:0:
15,130,224048,6,0,P|9:89|2:49,1,81.4124962732317,2|0,0:0|0:0,0:0:0:0:
92,7,224520,2,0,P|97:47|104:87,1,81.4124962732317,2|0,0:0|0:0,0:0:0:0:
143,177,224993,5,2,0:0:0:0:
167,174,225111,1,2,0:0:0:0:
191,171,225229,1,2,0:0:0:0:
215,168,225347,1,2,0:0:0:0:
238,165,225465,6,0,B|365:148|299:228|424:210|424:210|403:188|384:187,1,240.480005871094,6|2,1:2|0:0,0:0:0:0:
393,188,227118,1,0,1:2:0:0:
256,283,227354,6,0,P|205:272|127:254,1,125.250004777909,8|0,0:0|0:0,0:0:0:0:
51,168,228063,1,8,0:3:0:0:
133,92,228299,2,8,P|137:132|140:165,1,62.6250023889543,2|0,0:0|0:0,0:3:0:0:
50,257,228772,1,4,0:3:0:0:
50,257,229008,1,4,0:3:0:0:
250,39,229244,6,8,P|245:84|231:186,1,118.987496822691,14|0,0:0|0:0,0:3:0:0:
240,177,229716,1,8,0:0:0:0:
377,100,229953,1,8,0:0:0:0:
171,62,230189,1,8,0:0:0:0:
341,224,230425,1,8,0:0:0:0:
329,7,230661,1,8,0:0:0:0:
202,286,230898,1,8,0:0:0:0:
486,195,231134,5,6,1:2:0:0:
83,38,232079,5,4,1:2:0:0:
156,178,232315,1,2,0:0:0:0:
156,178,232433,1,2,0:0:0:0:
156,178,232551,2,0,L|165:119,1,39.662498940897,8|8,0:0|0:0,0:0:0:0:
10,194,232787,2,0,L|16:234,1,39.662498940897,4|8,0:3|0:3,0:0:0:0:
166,328,233024,6,0,B|282:323|194:267|321:269,1,175.349994648743,6|10,1:2|0:0,0:0:0:0:
442,110,233732,2,0,P|431:164|425:201,1,87.6749973243714,2|8,0:0|0:0,0:0:0:0:
366,58,234205,1,0,1:2:0:0:
320,268,234441,1,8,0:0:0:0:
506,149,234677,1,0,1:2:0:0:
263,19,234913,6,0,P|273:72|280:110,1,87.6749973243714,10|0,0:0|0:0,0:0:0:0:
237,297,235386,1,10,0:0:0:0:
425,196,235622,1,2,1:2:0:0:
425,196,235740,1,2,1:2:0:0:
425,196,235858,2,0,P|378:186|311:169,1,87.6749973243714,10|0,0:0|1:2,0:0:0:0:
136,243,236331,1,10,0:0:0:0:
330,315,236567,1,2,1:2:0:0:
178,61,236803,6,0,P|168:114|161:152,1,87.6749973243714,10|2,0:0|1:2,0:0:0:0:
64,37,237197,2,0,P|68:60|72:81,1,29.2249991081238,2|8,0:0|0:0,0:0:0:0:
189,76,237394,2,0,P|179:129|172:167,1,87.6749973243714,2|2,0:0|0:0,0:0:0:0:
136,243,237748,1,10,0:0:0:0:
281,124,237984,1,2,1:2:0:0:
50,202,238220,1,10,0:0:0:0:
273,302,238457,1,2,1:2:0:0:
189,76,238693,5,6,1:2:0:0:
0,309,238929,2,0,B|24:314|24:314|55:301,1,43.8374986621857,14|0,0:0|0:0,0:0:0:0:
222,228,239165,2,0,P|178:236|132:243,1,87.6749973243714,10|0,0:0|0:0,0:0:0:0:
50,202,239520,1,4,0:3:0:0:
37,197,239638,6,0,P|29:137|25:106,1,87.6749973243714,10|0,0:0|0:0,0:0:0:0:
135,242,239992,6,0,P|129:285|123:328,1,87.6749973243714,8|0,0:3|0:0,0:0:0:0:
198,158,240346,5,0,1:2:0:0:
198,158,240583,6,0,L|254:149,1,43.8374986621857,2|0,0:0|0:0,0:0:0:0:
362,132,241055,6,0,B|209:144|301:68|161:79,1,208.75,14|0,0:0|1:2,0:0:0:0:
344,235,241764,1,0,1:2:0:0:
397,31,242000,1,10,0:0:0:0:
198,158,242236,1,2,0:0:0:0:
437,276,242472,6,0,P|446:209|451:169,1,87.6749973243714,0|0,1:2|0:0,0:0:0:0:
315,19,242945,1,8,0:0:0:0:
247,238,243181,1,2,1:2:0:0:
268,234,243299,1,8,0:0:0:0:
290,230,243417,1,2,1:2:0:0:
311,227,243535,1,8,0:0:0:0:
333,223,243653,1,2,1:2:0:0:
217,84,243890,1,10,0:0:0:0:
146,305,244126,1,2,1:2:0:0:
146,305,244244,1,8,0:0:0:0:
146,305,244362,6,0,P|91:293|-8:270,1,131.512495986557,2|0,1:2|0:0,0:0:0:0:
0,268,244835,1,10,0:0:0:0:
90,85,245071,1,2,1:2:0:0:
90,85,245189,1,8,0:0:0:0:
90,85,245307,2,0,L|97:139,1,43.8374986621857,0|8,1:2|0:0,0:0:0:0:
10,36,245543,1,2,1:2:0:0:
87,210,245779,1,10,0:0:0:0:
204,41,246016,1,2,1:2:0:0:
204,41,246134,1,8,0:0:0:0:
204,41,246252,6,0,P|273:32|301:27,1,87.6749973243714,0|0,1:2|0:0,0:0:0:0:
173,222,246724,2,0,P|129:215|86:209,1,87.6749973243714,10|2,0:0|0:1,0:0:0:0:
65,206,247079,1,2,0:1:0:0:
65,206,247197,1,2,1:2:0:0:
185,332,247433,1,0,1:2:0:0:
185,340,247551,1,8,0:0:0:0:
185,348,247669,1,10,0:0:0:0:
304,202,247905,1,8,0:0:0:0:
303,193,248024,1,8,0:0:0:0:
302,184,248142,6,2,P|296:140|290:97,1,87.6749973243714,6|2,1:2|0:0,0:0:0:0:
173,222,248614,1,8,0:0:0:0:
370,356,248850,2,2,P|375:312|396:166,1,175.349994648743,6|2,1:2|1:2,0:0:0:0:
455,13,249559,1,10,0:0:0:0:
304,202,249795,1,2,0:0:0:0:
304,202,249913,1,2,0:0:0:0:
304,202,250031,5,6,1:2:0:0:
491,265,250268,1,2,0:0:0:0:
284,92,250504,1,10,0:0:0:0:
369,353,250740,1,6,1:2:0:0:
466,120,250976,1,8,0:0:0:0:
423,115,251094,1,8,0:0:0:0:
385,135,251212,1,8,0:3:0:0:
364,174,251330,1,8,0:3:0:0:
370,216,251448,1,8,0:0:0:0:
506,340,251685,1,4,0:3:0:0:
509,348,251803,1,4,0:3:0:0:
512,356,251921,6,0,B|395:372|455:305|334:326,1,175.349994648743,6|10,1:2|0:0,0:0:0:0:
204,174,252630,1,2,1:2:0:0:
204,174,252748,1,8,0:0:0:0:
204,174,252866,2,0,L|213:231,1,43.8374986621857,0|8,1:2|0:0,0:0:0:0:
313,105,253102,1,2,1:2:0:0:
247,292,253339,1,10,0:0:0:0:
123,111,253575,1,2,1:2:0:0:
123,111,253693,1,2,1:2:0:0:
123,111,253811,5,6,0:0:0:0:
351,229,254047,1,14,0:0:0:0:
98,323,254283,1,14,0:0:0:0:
258,68,254520,1,2,0:0:0:0:
258,68,254638,1,8,0:0:0:0:
258,68,254756,2,0,P|269:134|275:173,1,87.6749973243714,2|0,1:2|1:2,0:0:0:0:
267,176,255110,1,8,0:3:0:0:
267,176,255228,1,0,1:2:0:0:
232,332,255465,1,8,0:3:0:0:
227,339,255583,1,8,0:3:0:0:
222,346,255701,6,0,P|156:333|83:321,1,125.25,6|0,1:2|0:0,0:0:0:0:
76,326,256173,2,0,L|85:383,1,52.1875,10|0,0:0|0:0,0:0:0:0:
186,186,256409,1,6,1:2:0:0:
188,175,256882,5,10,0:0:0:0:
221,341,257118,1,8,0:3:0:0:
87,197,257354,2,0,P|98:137|116:28,1,167,6|0,1:2|1:2,0:0:0:0:
0,153,258063,1,10,0:0:0:0:
198,52,258299,2,0,B|301:41|237:106|368:93,1,167,6|8,1:2|0:3,0:0:0:0:
213,132,259008,1,8,0:3:0:0:
413,20,259244,1,4,0:3:0:0:
413,20,259362,1,4,0:3:0:0:
413,20,259480,6,0,P|400:106|389:186,1,167,6|8,1:2|0:3,0:0:0:0:
390,215,260071,1,8,0:3:0:0:
390,215,260189,1,8,0:3:0:0:
227,322,260425,1,8,0:3:0:0:
295,180,260661,1,8,0:3:0:0:
324,372,260898,1,4,0:3:0:0:
70,310,261134,6,0,B|25:250|61:177|61:177|138:215|141:278|141:278|162:223|223:229,1,375.75,6|0,1:2|0:0,0:0:0:0:
367,26,264205,6,0,L|358:89,1,35.4875006768704,2|2,0:0|0:0,0:0:0:0:
512,112,264441,2,0,L|506:76,1,35.4875006768704,2|2,0:0|0:0,0:0:0:0:
363,157,264677,1,2,0:0:0:0:
365,185,264795,1,2,0:0:0:0:
368,213,264913,1,2,0:0:0:0:
371,241,265031,1,2,0:0:0:0:
373,270,265150,6,0,B|284:294|321:218|198:246,1,167,6|10,1:2|0:0,0:0:0:0:
77,46,265858,1,2,1:2:0:0:
77,46,265976,1,8,0:0:0:0:
77,46,266094,2,0,L|85:97,1,41.75,0|8,1:2|0:0,0:0:0:0:
136,251,266331,1,0,1:2:0:0:
199,84,266567,1,10,0:0:0:0:
16,242,266803,1,2,1:1:0:0:
16,242,266921,1,2,1:1:0:0:
16,242,267039,6,0,P|72:232|112:223,1,83.5,0|0,1:2|0:0,0:0:0:0:
280,99,267512,2,0,P|239:90|198:83,1,83.5,10|0,0:0|0:0,0:0:0:0:
171,92,267866,1,10,0:0:0:0:
171,92,267984,2,0,L|176:155,1,41.75,0|8,1:2|0:0,0:0:0:0:
156,323,268220,1,2,1:2:0:0:
71,150,268457,1,10,0:0:0:0:
261,330,268693,1,2,1:1:0:0:
261,330,268811,1,2,1:1:0:0:
261,330,268929,6,0,L|274:234,1,83.5,2|0,1:2|0:0,0:0:0:0:
363,101,269402,1,10,0:0:0:0:
468,261,269638,1,2,0:0:0:0:
447,258,269756,1,8,0:0:0:0:
426,256,269874,1,0,1:2:0:0:
405,254,269992,1,8,0:0:0:0:
384,252,270110,1,0,1:2:0:0:
250,148,270346,1,10,0:0:0:0:
429,16,270583,1,2,1:1:0:0:
429,16,270701,1,2,1:1:0:0:
429,16,270819,6,0,P|436:84|439:111,1,83.5,2|0,1:2|0:0,0:0:0:0:
344,323,271291,2,0,P|348:281|352:239,1,83.5,10|0,0:0|0:0,0:0:0:0:
348,223,271646,1,8,0:0:0:0:
348,223,271764,1,0,1:2:0:0:
262,69,272000,1,0,1:2:0:0:
264,56,272118,1,8,0:0:0:0:
266,43,272236,1,8,0:0:0:0:
193,229,272472,1,8,0:0:0:0:
189,241,272590,1,8,0:0:0:0:
185,253,272709,6,0,P|128:247|81:242,1,83.5,6|2,1:2|0:0,0:0:0:0:
0,122,273181,1,10,0:0:0:0:
70,341,273417,2,0,B|89:227|24:280|54:162,1,167,6|2,1:2|1:2,0:0:0:0:
0,306,274126,1,10,0:0:0:0:
136,85,274362,1,2,0:0:0:0:
136,85,274480,1,2,0:0:0:0:
136,85,274598,6,0,P|142:142|146:181,1,83.5,6|2,1:2|0:0,0:0:0:0:
219,325,275071,1,10,0:0:0:0:
387,143,275307,2,0,P|375:95|260:85,1,167,6|2,1:2|1:2,0:0:0:0:
213,251,276016,1,10,0:0:0:0:
215,275,276134,1,2,0:0:0:0:
217,300,276252,1,2,0:0:0:0:
219,325,276370,1,2,0:0:0:0:
221,350,276488,6,0,P|271:340|322:332,1,83.5,6|2,1:2|0:0,0:0:0:0:
411,239,276961,1,10,0:0:0:0:
291,66,277197,2,0,P|296:134|308:265,1,167,6|2,1:2|1:2,0:0:0:0:
401,76,277905,1,10,0:0:0:0:
210,217,278142,6,0,B|151:218|151:218|117:184|117:184|42:185,1,167,6|2,1:2|1:2,0:0:0:0:
188,307,278850,1,10,0:0:0:0:
251,80,279087,2,0,P|300:71|358:176,1,167,6|2,1:2|1:2,0:0:0:0:
88,265,279795,1,8,0:0:0:0:
90,231,279913,1,8,0:0:0:0:
92,198,280031,1,8,0:3:0:0:
95,165,280149,1,8,0:3:0:0:
97,131,280267,5,6,1:2:0:0:
2,314,280504,1,2,0:0:0:0:
210,219,280740,1,10,0:0:0:0:
16,31,280976,2,0,P|12:87|9:127,1,83.5,6|8,1:2|0:0,0:0:0:0:
144,336,281449,1,2,1:2:0:0:
238,98,281685,1,10,0:0:0:0:
2,314,281921,6,0,B|109:313|37:250|173:256,1,167,6|10,1:2|0:0,0:0:0:0:
396,169,282630,1,10,0:0:0:0:
242,366,282866,1,6,1:2:0:0:
235,98,283102,1,8,0:3:0:0:
394,322,283339,1,0,1:2:0:0:
394,322,283457,1,8,0:0:0:0:
394,322,283575,1,8,0:0:0:0:
353,326,283693,1,8,0:0:0:0:
315,309,283811,1,8,0:3:0:0:
296,271,283929,1,4,0:3:0:0:
298,235,284047,6,0,P|351:224|379:218,1,70.9750013537407,6|0,1:2|0:0,0:0:0:0:
225,175,284520,2,0,P|254:129|270:105,1,70.9750013537407,2|2,1:2|0:0,0:0:0:0:
126,205,284992,2,0,P|115:152|109:124,1,70.9750013537407,2|2,1:2|0:0,0:0:0:0:
111,135,285465,1,2,0:0:0:0:
35,219,285701,2,0,L|39:242,3,17.7437503384352,2|2|2|2,0:0|0:0|0:0|0:0,0:0:0:0:
39,273,285937,5,2,1:2:0:0:
66,314,286055,1,2,0:0:0:0:
108,320,286173,1,2,0:0:0:0:
141,309,286291,1,2,0:0:0:0:
163,284,286409,1,2,1:2:0:0:
187,269,286527,1,2,0:0:0:0:
211,266,286645,1,2,0:0:0:0:
230,273,286763,1,2,0:0:0:0:
244,283,286881,1,2,1:2:0:0:
252,294,287000,1,2,0:0:0:0:
254,304,287118,1,2,0:0:0:0:
254,311,287236,1,2,0:0:0:0:
251,320,287354,5,14,0:0:0:0:
346,31,287590,1,12,0:0:0:0:
