osu file format v14

[General]
AudioFilename: audio.mp3
AudioLeadIn: 0
PreviewTime: 192844
Countdown: 0
SampleSet: Soft
StackLeniency: 0.4
Mode: 0
LetterboxInBreaks: 0
WidescreenStoryboard: 1

[Editor]
Bookmarks: 61769,92118,100839,139908
DistanceSpacing: 0.5
BeatDivisor: 4
GridSize: 4
TimelineZoom: 1.3

[Metadata]
Title:TRUE STORY
TitleUnicode:TRUE STORY
Artist:Haruna Luna
ArtistUnicode:春奈るな
Creator:P A N
Version:Simple's Insane
Source:AKIBA'S TRIP2
Tags:p_a_n opening akihabara アキバズトリップ2 simple- japanese op jpop j-pop video game akibas
BeatmapID:3646683
BeatmapSetID:1778366

[Difficulty]
HPDrainRate:5
CircleSize:4
OverallDifficulty:8.2
ApproachRate:8.8
SliderMultiplier:1.8
SliderTickRate:1

[Events]
//Background and Video events
0,0,"GCh2wN6EQziTRRDex7x4Y6wc.jpg",0,0
//Break Periods
//Storyboard Layer 0 (Background)
//Storyboard Layer 1 (Fail)
//Storyboard Layer 2 (Pass)
//Storyboard Layer 3 (Foreground)
//Storyboard Layer 4 (Overlay)
//Storyboard Sound Samples

[TimingPoints]
360,348.837209302326,4,2,1,40,1,0
883,-181.818181818181,4,2,1,40,0,0
11173,-133.333333333333,4,2,1,40,0,0
11522,-133.333333333333,4,2,1,65,0,0
11697,-117.647058823529,4,2,1,65,0,0
21290,-181.818181818181,4,2,1,65,0,0
22336,-133.333333333333,4,2,1,65,0,0
22598,-133.333333333333,4,2,1,65,0,0
22685,-133.333333333333,4,2,1,50,0,0
34546,-117.647058823529,4,2,1,50,0,0
42220,-117.647058823529,4,2,1,60,0,0
58964,-222.222222222221,4,2,1,60,0,0
60708,-117.647058823529,4,2,1,40,0,0
61406,-117.647058823529,4,2,1,60,0,0
61755,-105.263157894737,4,2,1,75,0,1
62278,-90.9090909090909,4,2,1,75,0,1
72307,-90.9090909090909,4,2,1,75,0,1
72394,-90.9090909090909,4,2,1,75,0,0
72918,-90.9090909090909,4,2,1,75,0,1
78499,-153.846153846153,4,2,1,70,0,1
84080,-133.333333333333,4,2,1,70,0,1
84953,-133.333333333333,4,2,1,70,0,1
88266,-181.818181818181,4,2,1,70,0,0
89313,-181.818181818181,4,2,1,40,0,0
89662,-100,4,2,1,65,0,0
100825,-222.222222222222,4,2,1,65,0,0
111987,-133.333333333333,4,2,1,60,0,0
120360,-105.263157894737,4,2,1,60,0,0
123150,-117.647058823529,4,2,1,50,0,0
129080,-133.333333333333,4,2,1,50,0,0
131522,-105.263157894737,4,2,1,60,0,0
131871,-105.263157894737,4,2,1,60,0,0
137104,-153.846153846153,4,2,1,60,0,0
137453,-153.846153846153,4,2,1,40,0,0
138499,-153.846153846153,4,2,1,60,0,0
138848,-153.846153846153,4,2,1,40,0,0
139197,-133.333333333333,4,2,1,40,0,0
139894,-90.9090909090909,4,2,1,75,0,1
140418,-90.9090909090909,4,2,1,75,0,1
142598,-90.9090909090909,4,2,1,75,0,1
142685,-90.9090909090909,4,2,1,75,0,1
150447,-90.9090909090909,4,2,1,75,0,0
150534,-133.333333333333,4,2,1,75,0,0
151057,-90.9090909090909,4,2,1,75,0,1
155854,-90.9090909090909,4,2,1,75,0,1
155941,-90.9090909090909,4,2,1,75,0,1
156639,-133.333333333333,4,2,1,70,0,1
157511,-133.333333333333,4,2,1,70,0,1
161086,-133.333333333333,4,2,1,70,0,1
161173,-133.333333333333,4,2,1,70,0,1
162220,-90.9090909090909,4,2,1,75,0,1
162918,-90.9090909090909,4,2,1,75,0,1
166406,-222.222222222221,4,2,1,75,0,0
167801,-100,4,2,1,65,0,0
171203,-100,4,2,1,65,0,0
171290,-100,4,2,1,65,0,0
171900,-100,4,2,1,65,0,0
171987,-100,4,2,1,65,0,0
177482,-100,4,2,1,65,0,0
177569,-100,4,2,1,65,0,0
192918,-133.333333333333,4,2,1,70,0,0
195970,-133.333333333333,4,2,1,70,0,0
196057,-133.333333333333,4,2,1,70,0,0
197365,-133.333333333333,4,2,1,70,0,0
197453,-133.333333333333,4,2,1,70,0,0
201290,-100,4,2,1,70,0,0
202598,-100,4,2,1,70,0,0
202685,-100,4,2,1,70,0,0
203732,-181.818181818181,4,2,1,70,0,0
204080,-90.9090909090909,4,2,1,75,0,1
208266,-133.333333333333,4,2,1,75,0,1
208615,-100,4,2,1,75,0,1
208964,-76.9230769230769,4,2,1,75,0,1
209662,-90.9090909090909,4,2,1,75,0,1
215243,-105.263157894737,4,2,1,80,0,1
218034,-105.263157894737,4,2,1,40,0,1
218208,-105.263157894737,4,2,1,45,0,1
218383,-105.263157894737,4,2,1,50,0,1
218557,-105.263157894737,4,2,1,55,0,1
218732,-105.263157894737,4,2,1,60,0,1
218906,-105.263157894737,4,2,1,65,0,1
219080,-105.263157894737,4,2,1,70,0,1
219255,-105.263157894737,4,2,1,75,0,1
219429,-222.222222222221,4,2,1,80,0,0
220825,-100,4,2,1,65,0,1
229982,-100,4,2,1,65,0,1
230069,-100,4,2,1,65,0,0

[Colours]
Combo1 : 255,70,70
Combo2 : 255,255,128
Combo3 : 117,0,234
Combo4 : 255,241,185

[HitObjects]
117,221,360,5,2,0:0:0:0:
117,221,534,1,2,0:0:0:0:
213,186,883,6,0,P|203:233|195:291,1,99.0000000000005,2|2,0:0|0:0,0:0:0:0:
302,291,1406,2,0,P|300:266|299:242,1,49.5000000000002,2|2,0:0|0:0,0:0:0:0:
178,106,1755,5,2,0:0:0:0:
165,98,1929,2,0,P|156:76|154:51,1,49.5000000000002,2|0,0:0|0:0,0:0:0:0:
258,97,2278,2,0,P|251:48|241:0,1,99.0000000000005,2|2,0:0|0:0,0:0:0:0:
350,74,2801,2,0,P|348:109|345:137,1,49.5000000000002,2|2,0:0|0:0,0:0:0:0:
416,188,3150,5,2,0:0:0:0:
428,197,3325,2,0,P|435:173|445:150,1,49.5000000000002,2|0,0:0|0:0,0:0:0:0:
337,241,3673,2,0,P|300:210|231:211,1,99.0000000000005,2|2,0:0|0:0,0:0:0:0:
254,286,4197,5,2,0:0:0:0:
238,282,4371,1,2,0:0:0:0:
197,353,4546,5,2,0:0:0:0:
156,265,4720,1,2,0:0:0:0:
225,193,4894,1,2,0:0:0:0:
274,187,5069,1,2,0:0:0:0:
174,364,5418,5,2,0:0:0:0:
143,338,5592,1,2,0:0:0:0:
134,290,5766,1,2,0:0:0:0:
135,191,5941,2,0,P|143:166|162:142,2,49.5000015106202,2|2|0,0:0|0:0|0:0,0:0:0:0:
39,201,6464,2,0,P|50:149|59:99,1,99.0000030212403,2|2,0:0|0:0,0:0:0:0:
28,23,6987,5,2,0:0:0:0:
43,26,7162,1,2,0:0:0:0:
172,47,7336,2,0,P|147:50|122:53,2,49.5000000000002,2|2|0,0:0|0:0|0:0,0:0:0:0:
158,141,7860,2,0,P|205:150|249:129,1,99.0000000000005,2|2,0:0|0:0,0:0:0:0:
316,47,8383,5,2,0:0:0:0:
301,50,8557,1,2,0:0:0:0:
331,189,8732,2,0,P|336:165|339:141,2,49.5000000000002,2|2|0,0:0|0:0|0:0,0:0:0:0:
241,221,9255,2,0,P|191:225|143:235,1,99.0000000000005,2|2,0:0|0:0,0:0:0:0:
278,304,9778,5,2,0:0:0:0:
245,382,9953,1,2,0:0:0:0:
193,314,10127,2,0,L|162:113,1,198.000000000001,2|0,0:0|0:0,0:0:0:0:
203,9,10999,5,8,0:1:0:0:
228,103,11173,2,0,P|195:110|163:119,1,67.5000025749208,8|0,0:2|0:0,0:0:0:0:
313,0,11522,5,14,0:1:0:0:
426,80,11697,2,0,L|500:98,1,76.5000000000003,2|8,0:0|0:2,0:0:0:0:
440,245,12046,2,0,P|404:180|333:160,1,153.000000000001,2|8,0:0|0:1,0:0:0:0:
269,298,12569,2,0,P|295:271|332:262,1,76.5000000000003,10|2,0:2|0:0,0:0:0:0:
189,384,12918,5,10,0:1:0:0:
119,308,13092,2,0,P|67:315|25:324,1,76.5000000000003,0|8,0:0|0:2,0:0:0:0:
179,202,13441,2,0,P|227:213|258:326,1,153.000000000001,2|8,0:0|0:1,0:0:0:0:
87,221,13964,2,0,P|96:173|101:133,1,76.5000000000003,10|2,0:2|0:0,0:0:0:0:
32,36,14313,5,10,0:1:0:0:
14,145,14487,1,0,0:0:0:0:
194,63,14662,2,0,P|156:58|119:51,1,76.5000000000003,8|2,0:2|0:0,0:0:0:0:
392,34,15011,5,8,0:1:0:0:
271,16,15185,1,8,0:1:0:0:
249,166,15360,2,0,P|284:126|338:122,1,76.5000000000003,10|2,0:2|0:0,0:0:0:0:
492,195,15708,5,10,0:1:0:0:
512,73,15883,1,2,0:0:0:0:
394,151,16057,2,0,L|378:231,1,76.5000000000003,10|2,0:2|0:0,0:0:0:0:
454,336,16406,5,8,0:1:0:0:
349,224,16580,1,8,0:1:0:0:
293,348,16755,2,0,P|238:354|199:325,1,76.5000014591217,10|2,0:2|0:0,0:0:0:0:
202,326,17016,1,8,0:2:0:0:
186,303,17104,6,0,P|148:290|85:312,1,76.5000014591217,14|0,0:1|0:0,0:0:0:0:
34,384,17453,1,8,0:2:0:0:
43,260,17627,2,0,P|30:204|1:110,1,153.000000000001,2|8,0:0|0:1,0:0:0:0:
7,28,18150,1,10,0:2:0:0:
101,106,18325,1,2,0:0:0:0:
231,11,18499,6,0,P|193:18|156:27,1,76.5000000000003,10|0,0:1|0:0,0:0:0:0:
101,106,18848,1,8,0:2:0:0:
146,243,19022,2,0,B|185:230|185:230|212:164|212:164|267:151,1,153.000000000001,2|8,0:0|0:1,0:0:0:0:
391,140,19546,1,10,0:2:0:0:
322,7,19720,1,2,0:0:0:0:
266,230,19894,2,0,L|251:154,1,76.5000014591217,10|0,0:1|0:0,0:0:0:0:
499,88,20243,5,8,0:2:0:0:
391,140,20418,2,0,P|381:177|374:214,1,76.5000014591217,8|8,0:1|0:1,0:0:0:0:
456,284,20766,1,8,0:1:0:0:
335,324,20941,1,8,0:2:0:0:
335,324,21028,1,0,0:0:0:0:
335,324,21115,2,0,P|331:305|327:286,1,38.2500007295609,0|8,0:0|0:2,0:0:0:0:
254,313,21290,6,0,B|169:327|216:374|119:386,1,148.50000453186,12|2,0:1|0:0,0:0:0:0:
93,236,22162,1,0,0:0:0:0:
5,259,22336,2,0,P|23:338|25:361,1,101.250003862381
25,358,22685,6,0,P|68:358|100:342,1,67.5000025749208,14|0,0:1|0:0,0:0:0:0:
93,236,23034,1,10,0:1:0:0:
93,236,23208,1,2,0:0:0:0:
191,277,23383,2,0,P|184:310|179:343,1,67.5000000000002,8|2,0:1|0:0,0:0:0:0:
154,168,23732,2,0,P|201:161|228:153,1,67.5000025749208,10|2,0:1|0:0,0:0:0:0:
305,96,24080,6,0,P|327:128|323:162,1,67.5000025749208,8|2,0:1|0:0,0:0:0:0:
278,228,24429,1,10,0:1:0:0:
278,228,24604,1,2,0:0:0:0:
386,299,24778,2,0,P|353:309|320:316,1,67.5000000000002,8|0,0:1|0:0,0:0:0:0:
432,377,25127,2,0,P|472:357|495:324,1,67.5000000000002,8|2,0:1|0:0,0:0:0:0:
442,228,25476,6,0,P|453:181|463:157,1,67.5000000000002,10|2,0:1|0:0,0:0:0:0:
375,132,25825,1,10,0:1:0:0:
375,132,25999,1,2,0:0:0:0:
512,58,26173,2,0,P|480:69|447:76,1,67.5000000000002,8|2,0:1|0:0,0:0:0:0:
301,7,26522,2,0,P|333:14|365:24,1,67.5000025749208,10|2,0:1|0:0,0:0:0:0:
247,106,26871,6,0,P|202:112|168:123,1,67.5000000000002,8|2,0:1|0:0,0:0:0:0:
89,144,27220,1,10,0:1:0:0:
89,144,27394,1,2,0:0:0:0:
64,50,27569,2,0,L|26:60,2,33.7500000000001,8|0|0,0:1|0:0|0:0,0:0:0:0:
150,27,27918,2,0,P|209:17|241:11,1,67.5000000000002,8|2,0:1|0:0,0:0:0:0:
248,91,28266,6,0,P|225:141|237:178,1,67.5000000000002,10|2,0:1|0:0,0:0:0:0:
332,171,28615,1,10,0:1:0:0:
332,171,28790,1,2,0:0:0:0:
215,234,28964,2,0,L|252:228,2,33.7500000000001,8|0|2,0:1|0:0|0:0,0:0:0:0:
126,215,29313,2,0,P|136:268|138:294,1,67.5000000000002,10|2,0:1|0:0,0:0:0:0:
147,383,29662,6,0,P|116:368|84:361,1,67.5000000000002,8|0,0:1|0:0,0:0:0:0:
48,271,30011,1,10,0:1:0:0:
126,215,30185,2,0,P|135:189|139:159,2,33.7500000000001,2|0|10,0:0|0:0|0:1,0:0:0:0:
176,300,30534,1,0,0:0:0:0:
242,239,30708,2,0,P|232:192|223:151,1,67.5000000000002,10|2,0:1|0:0,0:0:0:0:
129,116,31057,6,0,P|92:134|64:143,1,67.5000000000002,8|0,0:1|0:0,0:0:0:0:
72,52,31406,2,0,P|40:41|10:25,1,67.5000000000002,8|0,0:1|0:0,0:0:0:0:
157,0,31755,2,0,P|152:33|150:59,2,33.7500000000001,8|0|0,0:1|0:0|0:0,0:0:0:0:
219,88,32104,5,8,0:1:0:0:
375,27,32453,1,8,0:1:0:0:
199,238,32801,1,8,0:1:0:0:
365,160,33150,2,0,P|361:184|359:203,2,33.7500000000001,8|0|0,0:1|0:0|0:0,0:0:0:0:
447,138,33499,2,0,P|450:198|437:226,1,67.5000000000002,8|2,0:1|0:0,0:0:0:0:
390,299,33848,6,0,B|425:291|425:291|465:324,2,67.5000025749208,10|2|10,0:1|0:0|0:1,0:0:0:0:
321,355,34371,1,2,0:0:0:0:
311,256,34546,2,0,P|274:267|223:273,1,76.5000000000003,8|2,0:1|0:0,0:0:0:0:
164,346,34894,2,0,P|201:357|252:363,1,76.5000000000003,10|2,0:1|0:0,0:0:0:0:
156,184,35243,2,0,P|145:221|140:259,1,76.5000000000003,8|2,0:1|0:0,0:0:0:0:
261,152,35592,5,10,0:1:0:0:
43,201,35941,1,8,0:1:0:0:
49,31,36290,1,8,0:1:0:0:
148,38,36464,2,0,P|149:5|151:-16,1,38.2500000000001,2|0,0:0|0:0,0:0:0:0:
90,115,36639,6,0,P|133:129|184:116,1,76.5000000000003,10|2,0:1|0:0,0:0:0:0:
236,67,36987,1,10,0:1:0:0:
261,152,37162,2,0,B|358:130|291:106|413:84,1,153.000000000001,2|2,0:0|0:0,0:0:0:0:
472,29,37685,1,10,0:1:0:0:
396,87,37860,1,2,0:0:0:0:
487,126,38034,6,0,P|470:171|473:219,1,76.5000000000003,8|2,0:1|0:0,0:0:0:0:
398,264,38383,2,0,P|395:226|380:191,1,76.5000000000003,10|2,0:1|0:0,0:0:0:0:
283,259,38732,2,0,P|308:250|331:248,2,38.2500000000001,8|0|0,0:1|0:0|0:0,0:0:0:0:
338,331,39080,2,0,P|383:347|423:369,1,76.5000000000003,8|2,0:1|0:0,0:0:0:0:
237,334,39429,6,0,B|138:343|187:384|80:383,1,153.000000000001,14|10,0:1|0:1,0:0:0:0:
41,308,39953,2,0,P|30:255|119:193,1,153.000002918243,2|2,0:0|0:0,0:0:0:0:
186,227,40476,1,10,0:1:0:0:
158,327,40650,1,2,0:0:0:0:
338,331,40825,2,0,P|327:283|318:239,1,76.5000000000003,8|0,0:1|0:0,0:0:0:0:
256,95,41173,2,0,P|263:132|273:169,1,76.5000000000003,10|0,0:1|0:0,0:0:0:0:
78,91,41522,2,0,P|125:102|169:111,1,76.5000000000003,10|0,0:1|0:0,0:0:0:0:
333,255,41871,1,10,0:1:0:0:
326,258,41958,1,0,0:0:0:0:
319,261,42046,1,0,0:0:0:0:
312,264,42133,1,0,0:0:0:0:
305,268,42220,6,0,P|265:253|225:253,1,76.5000000000003,12|0,0:1|0:0,0:0:0:0:
342,361,42569,1,8,0:2:0:0:
443,217,42743,2,0,P|385:164|308:141,1,153.000002918243,12|8,0:1|0:2,0:0:0:0:
469,0,43266,2,0,P|457:86|503:136,1,153.000000000001,12|8,0:1|0:2,0:0:0:0:
365,23,43790,2,0,P|305:44|203:57,1,153.000002918243,12|0,0:1|0:0,0:0:0:0:
139,34,44313,5,8,0:1:0:0:
116,126,44487,2,0,P|156:134|186:145,1,38.2500000000001,8|8,0:1|0:1,0:0:0:0:
54,187,44662,2,0,P|30:147|36:107,1,76.5000000000003,8|8,0:1|0:1,0:0:0:0:
80,274,45011,5,12,0:1:0:0:
151,232,45185,1,0,0:0:0:0:
152,314,45360,1,8,0:1:0:0:
81,360,45534,1,12,0:1:0:0:
322,351,45883,5,8,0:2:0:0:
235,368,46057,2,0,P|248:304|257:268,1,76.5000000000003,8|8,0:1|0:1,0:0:0:0:
270,218,46406,5,12,0:1:0:0:
290,126,46580,1,0,0:0:0:0:
340,268,46755,1,8,0:1:0:0:
364,179,46929,2,0,P|397:160|498:209,1,153.000000000001,12|8,0:1|0:1,0:0:0:0:
420,342,47453,2,0,P|435:310|429:266,1,76.5000000000003,8|8,0:2|0:1,0:0:0:0:
364,179,47801,2,0,P|352:221|346:253,2,76.5000000000003,12|0|8,0:1|0:0|0:1,0:0:0:0:
432,117,48325,1,12,0:1:0:0:
175,0,48673,5,0,0:0:0:0:
248,40,48848,2,0,P|302:49|339:57,1,76.5000000000003,8|8,0:2|0:1,0:0:0:0:
211,151,49197,2,0,P|178:113|45:114,1,191.250000000001,12|0,0:1|0:0,0:0:0:0:
36,129,49720,1,12,0:1:0:0:
265,264,50069,5,8,0:1:0:0:
186,230,50243,2,0,P|162:283|154:309,1,76.5000000000003,8|0,0:2|0:0,0:0:0:0:
90,378,50592,2,0,P|72:292|53:207,1,153.000000000001,12|8,0:1|0:2,0:0:0:0:
36,129,51115,1,12,0:1:0:0:
202,108,51464,6,0,L|255:120,1,38.2500000000001,8|0,0:1|0:0,0:0:0:0:
204,201,51639,2,0,P|168:189|131:182,1,76.5000000000003,8|8,0:2|0:1,0:0:0:0:
112,86,51987,2,0,P|137:40|240:22,1,153.000000000001,12|8,0:1|0:2,0:0:0:0:
309,63,52511,1,12,0:1:0:0:
474,108,52860,5,8,0:1:0:0:
396,195,53034,1,8,0:2:0:0:
387,114,53208,1,8,0:1:0:0:
494,240,53383,6,0,B|426:247|462:293|361:297,1,114.75,12|0,0:1|0:0,0:0:0:0:
386,309,53732,2,0,P|344:301|294:292,1,76.5000000000003,12|0,0:2|0:0,0:0:0:0:
214,264,54080,5,12,0:1:0:0:
117,363,54255,1,8,0:1:0:0:
21,257,54429,2,0,P|63:249|113:240,1,76.5000000000003,12|0,0:2|0:0,0:0:0:0:
212,279,54778,5,12,0:1:0:0:
302,173,54953,1,0,0:0:0:0:
155,67,55127,2,0,P|163:109|172:159,1,76.5000000000003,12|0,0:2|0:0,0:0:0:0:
289,189,55476,6,0,P|344:207|379:201,1,76.5000000000003,12|8,0:1|0:1,0:0:0:0:
410,21,55825,2,0,P|371:22|337:37,1,76.5000014591217,12|0,0:2|0:0,0:0:0:0:
439,134,56173,6,0,P|496:139|531:162,1,76.5000000000003,12|0,0:1|0:0,0:0:0:0:
413,305,56522,2,0,P|364:320|325:335,1,76.5000000000003,12|0,0:2|0:0,0:0:0:0:
216,269,56871,2,0,P|209:231|201:193,1,76.5000000000003,12|8,0:1|0:1,0:0:0:0:
265,28,57220,1,12,0:2:0:0:
182,108,57394,1,0,0:0:0:0:
62,38,57569,6,0,P|93:114|99:134,1,76.5000000000003,12|8,0:1|0:1,0:0:0:0:
32,166,57918,1,12,0:2:0:0:
133,192,58092,1,8,0:1:0:0:
106,288,58266,1,12,0:1:0:0:
8,265,58441,6,0,P|14:283|18:301,2,38.2500007295609,8|8|12,0:1|0:2|0:2,0:0:0:0:
43,384,58790,2,0,P|78:373|106:363,1,38.2500000000001,8|8,0:2|0:2,0:0:0:0:
262,330,58964,6,0,L|102:287,2,161.999995056153,8|2|2,0:2|0:1|0:1,0:0:0:0:
327,268,60708,1,4,0:0:0:0:
241,187,61057,5,4,0:0:0:0:
273,72,61232,1,0,0:0:0:0:
133,15,61406,2,0,P|140:65|146:96,1,76.5000014591217,2|0,0:1|0:0,0:0:0:0:
105,194,61755,6,0,P|48:206|2:218,1,85.4999999999999,12|0,0:1|0:0,0:0:0:0:
126,312,62104,1,8,0:2:0:0:
198,123,62278,2,0,P|245:135|294:145,1,99,2|8,0:1|0:1,0:0:0:0:
214,238,62627,1,2,0:1:0:0:
87,95,62801,1,8,0:2:0:0:
190,0,62976,2,0,L|264:14,1,49.5000015106202,2|0,0:1|0:0,0:0:0:0:
294,145,63150,6,0,P|245:135|198:122,1,99,8|0,0:1|0:0,0:0:0:0:
389,101,63499,2,0,P|429:152|422:199,1,99,10|0,0:2|0:0,0:0:0:0:
303,242,63848,2,0,P|254:232|207:218,1,99,10|0,0:1|0:0,0:0:0:0:
390,272,64197,1,10,0:2:0:0:
318,377,64371,1,0,0:0:0:0:
211,314,64546,6,0,P|158:325|100:349,1,99,10|0,0:1|0:0,0:0:0:0:
97,228,64894,1,10,0:2:0:0:
24,376,65069,2,0,P|3:331|5:282,1,99,2|8,0:1|0:1,0:0:0:0:
54,146,65418,1,2,0:1:0:0:
192,117,65592,1,8,0:2:0:0:
47,10,65766,2,0,P|4:23|-20:30,1,49.5,2|0,0:1|0:0,0:0:0:0:
62,128,65941,6,0,B|110:136|110:136|167:88,1,99,8|0,0:1|0:0,0:0:0:0:
294,0,66290,2,0,P|277:81|272:120,1,99,10|0,0:2|0:0,0:0:0:0:
255,185,66639,1,10,0:1:0:0:
383,65,66813,1,0,0:0:0:0:
485,82,66987,2,0,P|478:131|466:179,1,99,10|0,0:2|0:0,0:0:0:0:
340,282,67336,6,0,P|388:293|436:300,1,99,10|0,0:1|0:0,0:0:0:0:
231,381,67685,2,0,P|244:282|255:184,1,198,8|8,0:2|0:1,0:0:0:0:
255,61,68208,5,0,0:0:0:0:
97,0,68383,2,0,P|143:14|159:59,1,99,10|0,0:2|0:0,0:0:0:0:
0,199,68732,2,0,B|117:204|50:144|193:141,1,198,10|8,0:1|0:2,0:0:0:0:
255,61,69255,1,8,0:1:0:0:
355,96,69429,2,0,P|363:47|376:0,1,99,10|0,0:1|0:0,0:0:0:0:
462,95,69778,2,0,P|454:144|441:192,1,99,8|0,0:2|0:0,0:0:0:0:
309,189,70127,6,0,P|247:217|241:260,1,99,8|0,0:1|0:0,0:0:0:0:
267,346,70476,1,8,0:2:0:0:
131,244,70650,1,2,0:1:0:0:
47,375,70825,2,0,P|107:357|161:348,1,99,8|0,0:1|0:0,0:0:0:0:
52,98,71173,2,0,P|114:126|120:169,1,99,8|0,0:2|0:0,0:0:0:0:
105,258,71522,6,0,P|153:266|202:276,1,99,12|0,0:1|0:0,0:0:0:0:
280,198,71871,1,8,0:2:0:0:
359,367,72046,2,0,B|408:347|438:341|438:341|426:272|419:233,1,148.5,12|0,0:1|0:0,0:0:0:0:
421,257,72394,1,8,0:2:0:0:
393,92,72569,1,8,0:1:0:0:
281,30,72743,5,8,0:1:0:0:
281,30,72830,1,8,0:1:0:0:
281,30,72918,2,0,P|269:96|260:159,1,99,12|0,0:1|0:0,0:0:0:0:
237,280,73266,1,8,0:2:0:0:
64,206,73441,2,0,B|107:178|107:178|161:188,1,99,2|8,0:1|0:1,0:0:0:0:
349,170,73790,1,2,0:1:0:0:
237,280,73964,1,8,0:2:0:0:
371,365,74139,2,0,P|411:373|440:379,1,49.5,2|0,0:1|0:0,0:0:0:0:
494,293,74313,2,0,P|445:283|396:274,1,99,8|0,0:1|0:0,0:0:0:0:
237,280,74662,5,10,0:2:0:0:
163,384,74836,1,8,0:1:0:0:
139,199,75011,2,0,B|93:191|93:191|50:219,1,99,10|8,0:1|0:1,0:0:0:0:
0,305,75360,2,0,P|48:313|96:326,1,99,10|0,0:2|0:0,0:0:0:0:
242,260,75708,6,0,P|264:200|239:142,1,99,10|0,0:1|0:0,0:0:0:0:
203,102,76057,1,10,0:2:0:0:
403,71,76232,2,0,P|324:86|286:96,1,99,2|8,0:1|0:1,0:0:0:0:
203,102,76580,1,2,0:1:0:0:
100,0,76755,1,8,0:2:0:0:
83,195,76929,2,0,L|131:202,1,49.5,2|0,0:1|0:0,0:0:0:0:
0,109,77104,2,0,P|45:91|92:103,1,99,10|0,0:1|0:0,0:0:0:0:
247,191,77453,6,0,P|237:244|231:322,1,148.5,10|0,0:2|0:0,0:0:0:0:
242,346,77801,5,10,0:1:0:0:
377,265,77976,1,8,0:1:0:0:
252,367,78150,5,10,0:2:0:0:
345,177,78325,1,8,0:1:0:0:
240,203,78499,6,0,P|246:153|262:67,1,116.999994644165,14|0,0:1|0:0,0:0:0:0:
280,0,79022,1,8,0:1:0:0:
364,76,79197,1,8,0:2:0:0:
34,131,79546,6,0,P|70:138|95:142,1,58.5000000000003,2|2,0:1|0:1,0:0:0:0:
136,69,79894,2,0,P|83:53|10:51,1,117.000000000001,2|2,0:1|0:1,0:0:0:0:
180,157,80418,1,8,0:1:0:0:
223,41,80592,1,8,0:2:0:0:
285,219,80941,6,0,L|272:296,1,58.5000000000003,0|2,0:0|0:1,0:0:0:0:
208,327,81290,2,0,B|253:362|253:362|338:345,1,117.000000000001,8|0,0:1|0:0,0:0:0:0:
367,275,81813,1,8,0:1:0:0:
405,384,81987,1,8,0:2:0:0:
493,214,82336,6,0,P|477:253|476:282,1,58.5000000000003,2|2,0:1|0:1,0:0:0:0:
410,194,82685,2,0,P|400:141|384:80,1,117.000000000001,2|2,0:1|0:1,0:0:0:0:
346,0,83208,1,8,0:1:0:0:
455,30,83383,1,8,0:2:0:0:
63,117,83732,6,0,P|93:118|122:123,1,58.5000000000003,0|10,0:0|0:1,0:0:0:0:
141,216,84080,2,0,P|74:202|3:204,1,135.000005149842,12|0,0:1|0:0,0:0:0:0:
244,175,84604,1,8,0:1:0:0:
136,312,84778,1,8,0:2:0:0:
219,267,84953,2,0,P|269:289|282:372,1,135,8|0,0:1|0:0,0:0:0:0:
388,239,85476,2,0,P|372:280|362:317,1,67.5000000000002,2|0,0:1|0:0,0:0:0:0:
244,175,85825,6,0,P|305:203|324:208,1,67.5000000000002,2|8,0:1|0:1,0:0:0:0:
429,153,86173,2,0,P|399:136|368:125,1,67.5000000000002,8|0,0:2|0:0,0:0:0:0:
317,0,86522,5,2,0:1:0:0:
229,87,86697,1,2,0:1:0:0:
81,22,86871,2,0,P|96:83|112:154,1,135,12|0,0:1|0:0,0:0:0:0:
137,259,87394,1,8,0:1:0:0:
190,176,87569,5,8,0:2:0:0:
138,364,87743,1,0,0:0:0:0:
282,202,87918,1,0,0:0:0:0:
234,384,88092,1,0,0:0:0:0:
404,290,88266,2,0,B|328:267|328:267|271:307,2,148.50000453186,2|2|2,0:0|0:1|0:1,0:0:0:0:
16,102,89662,6,0,P|66:99|106:123,1,90,14|2,0:1|0:0,0:0:0:0:
159,316,90011,1,8,0:2:0:0:
129,219,90185,2,0,B|230:193|171:156|280:129,1,180,2|8,0:0|0:1,0:0:0:0:
366,5,90708,1,10,0:2:0:0:
279,129,90883,1,2,0:0:0:0:
266,8,91057,1,10,0:1:0:0:
367,129,91232,2,0,P|422:139|463:152,1,90,0|8,0:0|0:2,0:0:0:0:
512,268,91580,6,0,P|441:249|379:349,1,180,2|8,0:0|0:1,0:0:0:0:
289,233,92104,1,10,0:2:0:0:
300,219,92278,1,2,0:0:0:0:
285,342,92453,5,10,0:1:0:0:
184,284,92627,1,0,0:0:0:0:
120,384,92801,2,0,P|70:377|21:377,1,90,8|2,0:2|0:0,0:0:0:0:
164,288,93150,5,8,0:1:0:0:
296,369,93325,1,8,0:1:0:0:
372,246,93499,2,0,P|366:181|363:135,1,90,10|2,0:2|0:0,0:0:0:0:
338,27,93848,5,10,0:1:0:0:
440,104,94022,1,2,0:0:0:0:
323,13,94197,1,10,0:2:0:0:
212,95,94371,2,0,L|156:105,1,45,2|0,0:0|0:0,0:0:0:0:
173,192,94546,2,0,P|228:182|268:178,1,90,8|8,0:1|0:1,0:0:0:0:
240,291,94894,5,10,0:2:0:0:
222,287,94982,1,8,0:2:0:0:
204,283,95069,1,2,0:0:0:0:
186,280,95156,1,0,0:0:0:0:
167,276,95243,6,0,P|119:282|62:301,1,90,14|0,0:1|0:0,0:0:0:0:
24,384,95592,1,8,0:2:0:0:
79,293,95766,2,0,P|69:243|58:195,1,90,2|8,0:0|0:1,0:0:0:0:
51,189,96028,1,8,0:2:0:0:
51,189,96115,1,8,0:1:0:0:
142,133,96290,1,10,0:2:0:0:
27,49,96464,1,2,0:0:0:0:
228,101,96639,6,0,P|205:63|163:48,1,90,10|0,0:1|0:0,0:0:0:0:
176,242,96987,1,8,0:2:0:0:
262,184,97162,1,2,0:0:0:0:
262,184,97249,1,8,3:2:0:0:
262,184,97336,2,0,P|333:171|376:167,1,90,8|8,0:1|0:1,0:0:0:0:
498,152,97685,1,10,0:2:0:0:
414,51,97860,1,2,0:0:0:0:
350,169,98034,6,0,P|363:240|367:283,1,90,10|0,0:1|0:0,0:0:0:0:
344,361,98383,1,8,0:2:0:0:
263,289,98557,2,0,P|197:295|163:326,1,90,2|8,0:0|0:1,0:0:0:0:
135,373,98906,1,8,0:1:0:0:
55,293,99080,1,8,0:2:0:0:
153,209,99255,1,8,0:1:0:0:
57,192,99429,6,0,P|42:134|26:97,1,90,8|12,0:1|0:1,0:0:0:0:
19,91,99691,1,8,0:2:0:0:
19,91,99778,1,8,0:1:0:0:
121,112,99953,2,0,B|223:105|166:62|292:42,1,180,8|8,0:1|0:3,0:0:0:0:
364,8,100476,1,8,0:3:0:0:
340,139,100650,1,8,0:3:0:0:
472,210,100825,6,0,B|335:217|389:305|246:313,1,242.999992584229,12|2,0:1|0:1,0:0:0:0:
100,267,102220,2,0,P|48:308|56:360,2,121.500000000001,0|2|0,0:0|0:1|0:0,0:0:0:0:
192,353,103615,6,0,P|186:313|155:95,1,243.000000000002,2|2,0:1|0:1,0:0:0:0:
146,29,105011,2,0,P|207:37|238:89,2,121.500000000001,0|2|0,0:0|0:1|0:0,0:0:0:0:
45,152,106406,6,0,B|103:162|103:162|170:247|170:247|252:257,1,243.000000000002,2|2,0:1|0:1,0:0:0:0:
327,264,107627,1,2,0:1:0:0:
327,264,107714,1,0,0:0:0:0:
327,264,107801,2,0,P|334:222|488:234,1,243.000000000002,0|2,0:0|0:1,0:0:0:0:
486,305,109022,2,0,L|449:312,1,20.2500000000002,2|0,0:1|0:0,0:0:0:0:
420,338,109197,2,0,P|414:285|408:241,1,81.0000000000008,0|2,0:0|0:1,0:0:0:0:
344,160,109720,5,2,0:1:0:0:
425,82,110069,2,0,P|460:88|483:91,2,40.5000000000004,0|2|2,0:0|0:1|0:1,0:0:0:0:
373,19,110592,2,0,P|342:26|322:29,2,40.5000000000004,0|0|2,0:0|0:0|0:1,0:0:0:0:
338,114,111115,2,0,P|283:103|210:92,1,121.500000000001,2|0,0:1|0:0,0:0:0:0:
156,42,111813,1,0,0:0:0:0:
90,100,111987,6,0,P|122:144|123:166,2,67.5000025749208,14|2|8,0:1|0:0|0:1,0:0:0:0:
5,75,112511,2,0,P|16:135|31:218,1,135.000005149842,10|2,0:1|0:0,0:0:0:0:
60,384,113034,1,8,0:2:0:0:
0,300,113208,2,0,B|73:281|50:322|143:309,1,135.000005149842,2|2,0:0|0:0,0:0:0:0:
186,251,113732,1,8,0:1:0:0:
164,164,113906,1,2,0:0:0:0:
261,295,114080,2,0,P|265:261|270:228,2,67.5000000000002,8|0|8,0:1|0:0|0:2,0:0:0:0:
209,368,114604,5,2,0:0:0:0:
297,380,114778,2,0,P|334:363|369:355,2,67.5000000000002,8|2|8,0:1|0:0|0:1,0:0:0:0:
209,368,115301,2,0,P|201:313|176:222,1,135,2|2,0:0|0:0,0:0:0:0:
118,177,115825,1,8,0:2:0:0:
186,71,115999,1,2,0:0:0:0:
204,153,116173,2,0,P|245:147|292:152,2,67.5000000000002,8|2|8,0:1|0:0|0:1,0:0:0:0:
118,177,116697,2,0,P|110:141|104:121,1,33.7500000000001,2|0,0:0|0:0,0:0:0:0:
91,60,116871,5,8,0:1:0:0:
91,60,116958,1,8,0:2:0:0:
91,60,117046,1,2,0:0:0:0:
5,78,117220,1,8,0:2:0:0:
30,165,117394,2,0,P|33:181|37:197,1,33.7500000000001,2|8,0:0|0:1,0:0:0:0:
22,280,117569,6,0,P|64:282|105:252,1,67.5000000000002,12|2,0:1|0:0,0:0:0:0:
196,153,117918,1,8,0:1:0:0:
167,247,118092,2,0,B|239:274|223:227|319:253,1,135,2|2,0:0|0:0,0:0:0:0:
312,343,118615,2,0,P|278:348|245:352,1,67.5000000000002,8|2,0:2|0:0,0:0:0:0:
385,275,118964,6,0,P|401:331|401:363,1,67.5000000000002,8|2,0:1|0:0,0:0:0:0:
299,248,119313,2,0,P|303:214|315:183,1,67.5000000000002,8|2,0:1|0:0,0:0:0:0:
371,121,119662,5,10,0:1:0:0:
384,118,119749,1,8,0:2:0:0:
397,115,119836,1,8,0:2:0:0:
410,112,119923,1,0,0:0:0:0:
422,107,120011,2,0,P|461:76|489:55,1,67.5000000000002,10|8,0:2|0:1,0:0:0:0:
281,34,120360,6,0,P|296:87|317:207,1,170.999995433807,12|8,0:1|0:2,0:0:0:0:
234,281,120883,2,0,P|181:276|155:168,1,170.999995433807,12|10,0:1|0:2,0:0:0:0:
164,85,121406,2,0,B|73:100|107:139|-7:151,1,170.999995433807,12|10,0:1|0:2,0:0:0:0:
209,258,121929,2,0,P|212:219|220:173,1,85.4999977169037,12|0,0:1|0:0,0:0:0:0:
75,384,122278,1,8,0:2:0:0:
91,296,122453,2,0,P|133:331|176:345,1,85.4999977169037,8|8,0:1|0:2,0:0:0:0:
347,325,122801,5,8,0:1:0:0:
259,345,122976,1,8,0:1:0:0:
330,230,123150,2,0,P|441:259|489:269,1,153.000000000001,12|8,0:1|0:1,0:0:0:0:
209,258,123673,1,0,0:0:0:0:
252,185,123848,2,0,P|236:136|224:107,1,76.5000000000003,8|2,0:2|0:0,0:0:0:0:
358,63,124197,2,0,P|344:98|332:135,1,76.5000000000003,10|2,0:1|0:0,0:0:0:0:
463,174,124546,2,0,P|453:106|440:8,2,153.000000000001,10|8|8,0:1|0:1|0:2,0:0:0:0:
252,285,125592,2,0,P|212:311|181:313,1,76.5000000000003,10|0,0:1|0:0,0:0:0:0:
121,229,125941,6,0,P|190:185|264:199,1,153.000000000001,10|10,0:1|0:1,0:0:0:0:
336,326,126464,1,2,0:0:0:0:
364,241,126639,2,0,P|350:182|335:88,1,153.000000000001,8|8,0:2|0:1,0:0:0:0:
172,10,127336,2,0,P|210:7|247:0,1,76.5000000000003,8|0,0:1|0:0,0:0:0:0:
186,95,127685,2,0,P|148:86|110:84,1,76.5000000000003,8|0,0:1|0:0,0:0:0:0:
38,115,128034,1,8,0:2:0:0:
106,173,128208,1,8,0:1:0:0:
8,267,128383,5,8,0:1:0:0:
22,262,128470,1,0,0:0:0:0:
36,258,128557,1,8,0:1:0:0:
51,255,128644,1,0,0:0:0:0:
67,250,128732,6,0,P|83:292|89:316,1,76.5000000000003,12|0,0:1|0:0,0:0:0:0:
160,245,129080,2,0,P|144:203|138:179,1,67.5000000000002,10|2,0:1|0:0,0:0:0:0:
192,113,129429,2,0,P|230:79|304:85,1,101.25,8|0,0:1|0:0,0:0:0:0:
291,79,129778,1,10,0:1:0:0:
383,101,129953,1,2,0:0:0:0:
316,186,130127,6,0,P|265:174|234:169,1,67.5000000000002,10|0,0:1|0:0,0:0:0:0:
222,331,130476,1,10,0:1:0:0:
264,260,130650,2,0,P|297:266|329:274,1,67.5000000000002,2|8,0:0|0:1,0:0:0:0:
393,352,130999,6,0,L|382:397,1,33.7500000000001,2|0,0:0|0:0,0:0:0:0:
425,274,131173,1,10,0:1:0:0:
419,261,131261,1,8,0:2:0:0:
413,248,131348,1,10,0:2:0:0:
407,235,131435,1,8,0:2:0:0:
401,220,131522,6,0,P|413:157|422:125,1,85.4999977169037,12|8,0:2|0:1,0:0:0:0:
324,31,131871,2,0,P|282:42|240:49,1,85.4999999999999,12|8,0:2|0:1,0:0:0:0:
142,51,132220,5,12,0:1:0:0:
199,159,132394,1,8,0:1:0:0:
81,211,132569,2,0,P|31:221|-14:241,1,85.4999999999999,12|8,0:2|0:1,0:0:0:0:
125,56,132918,5,12,0:1:0:0:
188,169,133092,1,8,0:1:0:0:
300,137,133266,2,0,P|351:139|396:156,1,85.4999999999999,12|8,0:2|0:1,0:0:0:0:
235,278,133615,2,0,P|170:269|126:247,1,85.4999999999999,12|8,0:1|0:1,0:0:0:0:
348,248,133964,2,0,P|348:291|336:332,1,85.4999999999999,12|8,0:2|0:1,0:0:0:0:
188,169,134313,6,0,P|198:118|214:24,1,128.25,12|0,0:1|0:0,0:0:0:0:
223,30,134662,2,0,P|268:23|311:42,1,85.4999999999999,12|8,0:2|0:1,0:0:0:0:
65,121,135011,2,0,P|47:60|35:19,1,85.4999999999999,12|8,0:1|0:1,0:0:0:0:
18,305,135360,5,12,0:2:0:0:
96,216,135534,1,8,0:1:0:0:
145,352,135708,5,12,0:1:0:0:
93,195,135883,1,0,0:0:0:0:
225,264,136057,2,0,L|212:224,3,42.7499999999999,8|8|8|8,0:1|0:1|0:1|0:1,0:0:0:0:
288,199,136406,2,0,L|301:239,3,42.7499999999999,8|0|8|0,0:1|0:0|0:1|0:0,0:0:0:0:
284,324,136755,5,8,0:1:0:0:
400,255,136929,1,8,0:1:0:0:
400,255,137016,1,8,0:2:0:0:
400,255,137104,2,0,P|413:197|464:21,2,233.999989288331,12|2|12,0:2|0:1|0:1,0:0:0:0:
427,369,138848,1,4,0:2:0:0:
238,309,139197,6,0,L|226:271,1,33.7500012874604,0|0,3:0|0:0,0:0:0:0:
297,215,139371,2,0,L|311:270,1,33.7500000000001,0|0,3:0|0:0,0:0:0:0:
206,190,139546,2,0,P|192:137|164:66,1,101.25,2|0,0:1|0:0,0:0:0:0:
165,74,139894,6,0,P|91:77|51:118,1,99.0000030212403,12|0,0:1|0:0,0:0:0:0:
117,266,140243,1,8,0:2:0:0:
206,190,140418,2,0,P|281:169|320:167,1,99,2|8,0:1|0:1,0:0:0:0:
364,100,140766,1,2,0:1:0:0:
473,210,140941,1,8,0:2:0:0:
496,0,141115,2,0,L|441:9,1,49.5,2|0,0:1|0:0,0:0:0:0:
365,115,141290,2,0,P|427:104|466:98,1,99,8|0,0:1|0:0,0:0:0:0:
488,214,141639,6,0,P|474:288|462:352,1,99,10|0,0:2|0:0,0:0:0:0:
369,360,141987,2,0,P|359:311|350:262,1,99,10|0,0:1|0:0,0:0:0:0:
301,167,142336,2,0,P|241:124|140:153,1,148.5,10|0,0:2|0:0,0:0:0:0:
151,139,142685,6,0,B|104:172|104:172|31:155,1,99,10|0,0:1|0:0,0:0:0:0:
209,7,143034,1,10,0:2:0:0:
321,70,143208,2,0,P|305:136|300:177,1,99,2|8,0:1|0:1,0:0:0:0:
188,235,143557,1,2,0:1:0:0:
317,288,143732,1,8,0:2:0:0:
200,378,143906,2,0,L|208:329,1,49.5,2|0,0:1|0:0,0:0:0:0:
111,284,144080,2,0,P|85:334|92:383,1,99,8|0,0:1|0:0,0:0:0:0:
317,288,144429,6,0,P|386:271|438:267,1,99,10|0,0:2|0:0,0:0:0:0:
512,250,144778,1,10,0:1:0:0:
452,364,144953,1,0,0:0:0:0:
421,186,145127,2,0,P|408:131|396:88,1,99,10|0,0:2|0:0,0:0:0:0:
282,37,145476,6,0,P|205:47|187:78,1,99,10|0,0:1|0:0,0:0:0:0:
99,122,145825,2,0,P|177:146|261:239,1,198,8|8,0:2|0:1,0:0:0:0:
212,382,146348,1,0,0:0:0:0:
187,286,146522,2,0,P|120:300|84:308,1,99,10|0,0:2|0:0,0:0:0:0:
309,378,146871,2,0,P|359:354|365:195,1,198,10|8,0:1|0:2,0:0:0:0:
347,124,147394,1,8,0:1:0:0:
489,0,147569,2,0,P|475:60|469:104,1,99,10|0,0:1|0:0,0:0:0:0:
359,141,147918,2,0,P|351:92|339:44,1,99,8|0,0:2|0:0,0:0:0:0:
225,11,148266,6,0,P|194:72|271:163,1,198,8|8,0:1|0:2,0:0:0:0:
345,281,148790,1,2,0:1:0:0:
345,281,148877,1,0,0:0:0:0:
345,281,148964,2,0,P|291:266|249:257,1,99,8|0,0:1|0:0,0:0:0:0:
139,374,149313,2,0,P|187:363|234:350,1,99,8|0,0:2|0:0,0:0:0:0:
150,188,149662,6,0,P|151:265|189:305,1,99.0000030212403,12|0,0:1|0:0,0:0:0:0:
249,257,150011,1,8,0:2:0:0:
231,145,150185,2,0,P|180:100|76:120,1,148.5,12|0,0:1|0:0,0:0:0:0:
87,114,150534,1,8,0:2:0:0:
232,21,150708,1,8,0:1:0:0:
362,172,150883,5,8,0:1:0:0:
362,172,150970,1,8,0:1:0:0:
362,172,151057,2,0,P|342:106|346:58,1,99,12|0,0:1|0:0,0:0:0:0:
453,1,151406,1,8,0:2:0:0:
512,141,151580,2,0,P|494:205|488:244,1,99,2|8,0:1|0:1,0:0:0:0:
495,350,151929,5,2,0:1:0:0:
379,258,152104,1,8,0:2:0:0:
281,384,152278,2,0,L|346:376,1,49.5,2|0,0:1|0:0,0:0:0:0:
257,287,152453,2,0,P|192:297|140:306,1,99,8|0,0:1|0:0,0:0:0:0:
70,206,152801,6,0,P|46:148|53:99,1,99,10|8,0:2|0:1,0:0:0:0:
216,9,153150,2,0,P|283:26|321:34,1,99,10|8,0:1|0:1,0:0:0:0:
177,187,153499,2,0,P|160:120|152:82,1,99,10|0,0:2|0:0,0:0:0:0:
301,178,153848,6,0,P|282:245|269:305,1,99,10|0,0:1|0:0,0:0:0:0:
371,370,154197,1,10,0:2:0:0:
491,261,154371,2,0,P|441:228|389:232,1,99,2|8,0:1|0:1,0:0:0:0:
301,178,154720,1,2,0:1:0:0:
437,73,154894,1,8,0:2:0:0:
273,0,155069,2,0,L|283:61,1,49.5,2|0,0:1|0:0,0:0:0:0:
208,112,155243,2,0,B|171:76|171:76|189:13,1,99,10|0,0:1|0:0,0:0:0:0:
13,182,155592,6,0,L|154:199,1,148.5,14|0,0:2|0:0,0:0:0:0:
175,200,155941,5,10,0:1:0:0:
83,351,156115,1,8,0:1:0:0:
195,204,156290,5,10,0:2:0:0:
249,384,156464,1,8,0:1:0:0:
247,277,156639,6,0,L|406:253,1,135.000005149842,14|8,0:1|0:1,0:0:0:0:
469,243,157162,1,0,0:0:0:0:
400,345,157336,1,8,0:2:0:0:
380,256,157511,2,0,P|369:208|359:174,1,67.5000000000002,10|10,0:1|0:1,0:0:0:0:
294,141,157860,1,10,0:1:0:0:
372,93,158034,2,0,P|421:100|452:126,2,67.5000000000002,10|0|10,0:1|0:0|0:1,0:0:0:0:
294,141,158557,1,2,0:1:0:0:
230,71,158732,6,0,P|178:90|144:97,1,67.5000000000002,8|2,0:2|0:1,0:0:0:0:
231,164,159080,2,0,P|263:154|294:142,1,67.5000000000002,8|2,0:1|0:1,0:0:0:0:
58,152,159429,6,0,P|118:181|136:258,1,135,8|8,0:1|0:1,0:0:0:0:
71,293,159953,1,0,0:0:0:0:
148,328,160127,2,0,P|193:327|217:330,1,67.5000000000002,8|2,0:2|0:1,0:0:0:0:
286,243,160476,2,0,P|252:246|218:244,1,67.5000000000002,10|2,0:1|0:1,0:0:0:0:
322,353,160825,6,0,P|360:298|421:290,1,101.25,10|0,0:1|0:0,0:0:0:0:
402,281,161173,2,0,P|441:305|454:338,1,67.5000000000002,10|2,0:1|0:1,0:0:0:0:
359,198,161522,1,8,0:2:0:0:
476,50,161871,1,8,0:1:0:0:
272,15,162220,6,0,P|340:24|395:34,1,99.0000030212403,8|0,0:1|0:0,0:0:0:0:
265,125,162569,1,8,0:1:0:0:
180,44,162743,1,8,0:1:0:0:
56,127,162918,2,0,P|117:143|163:156,1,99,8|0,0:2|0:0,0:0:0:0:
284,117,163266,5,8,0:1:0:0:
187,29,163441,1,8,0:1:0:0:
218,214,163615,2,0,P|226:274|230:318,1,99,8|0,0:1|0:0,0:0:0:0:
378,371,163964,6,0,P|441:357|497:350,1,99,8|8,0:1|0:1,0:0:0:0:
414,271,164313,2,0,P|365:282|316:289,1,99,8|0,0:2|0:0,0:0:0:0:
218,214,164662,1,8,0:1:0:0:
269,94,164836,5,8,0:2:0:0:
269,94,164923,1,8,0:2:0:0:
269,94,165011,1,8,0:2:0:0:
382,0,165185,1,8,0:1:0:0:
409,177,165360,2,0,P|480:177|516:179,1,99,8|8,0:2|0:1,0:0:0:0:
385,274,165708,5,8,0:2:0:0:
294,205,165883,1,8,0:1:0:0:
296,384,166057,1,8,0:2:0:0:
180,186,166232,1,8,0:1:0:0:
165,384,166406,2,0,P|156:323|141:249,2,121.499996292114,2|2|2,0:1|0:1|0:1,0:0:0:0:
358,285,167801,6,0,P|280:297|251:309,1,90,12|0,0:1|0:0,0:0:0:0:
459,143,168150,2,0,P|471:186|474:231,1,90,8|0,0:2|0:0,0:0:0:0:
440,315,168499,1,8,0:1:0:0:
440,315,168586,1,0,0:0:0:0:
440,315,168673,1,8,0:1:0:0:
369,200,168848,2,0,P|376:148|382:89,1,90,8|0,0:2|0:0,0:0:0:0:
208,0,169197,5,8,0:1:0:0:
141,83,169371,2,0,P|207:91|242:113,1,90,0|8,0:0|0:2,0:0:0:0:
276,197,169720,1,0,0:0:0:0:
167,175,169894,1,8,0:1:0:0:
167,175,169981,1,0,0:0:0:0:
167,175,170068,1,8,0:1:0:0:
205,290,170243,2,0,P|134:262|99:254,1,90,8|0,0:2|0:0,0:0:0:0:
12,229,170592,6,0,P|31:289|39:321,1,90,10|0,0:1|0:0,0:0:0:0:
70,166,170941,2,0,P|66:97|14:40,1,135,8|0,0:2|0:0,0:0:0:0:
8,33,171290,2,0,P|58:25|110:5,1,90,10|8,0:1|0:1,0:0:0:0:
275,62,171639,2,0,P|210:50|160:92,1,135,8|0,0:2|0:0,0:0:0:0:
159,114,171987,2,0,P|182:155|191:211,1,90,10|0,0:1|0:0,0:0:0:0:
177,316,172336,1,8,0:2:0:0:
296,257,172511,5,0,0:0:0:0:
296,257,172598,1,0,0:0:0:0:
296,257,172685,2,0,P|359:272|391:256,1,90,10|8,0:1|0:1,0:0:0:0:
486,169,173034,1,8,0:2:0:0:
374,68,173208,5,8,0:2:0:0:
374,68,173296,1,8,0:2:0:0:
374,68,173383,2,0,P|386:135|394:196,1,90,10|2,0:1|0:1,0:0:0:0:
296,257,173732,1,10,0:2:0:0:
256,91,173906,2,0,L|186:107,1,45,2|0,0:1|0:0,0:0:0:0:
177,191,174080,2,0,L|272:168,1,90,8|10,0:1|0:1,0:0:0:0:
136,34,174429,1,10,0:2:0:0:
28,127,174604,5,2,0:1:0:0:
28,127,174691,1,0,0:0:0:0:
28,127,174778,2,0,P|91:120|127:152,1,90,8|2,0:1|0:1,0:0:0:0:
79,226,175127,2,0,L|23:217,1,45,10|0,0:2|0:0,0:0:0:0:
20,297,175301,2,0,L|64:304,1,45,10|8,0:1|0:1,0:0:0:0:
147,298,175476,2,0,L|154:253,2,45,8|8|8,0:1|0:1|0:1,0:0:0:0:
136,382,175825,1,8,0:2:0:0:
251,296,175999,5,0,0:0:0:0:
251,296,176086,1,0,0:0:0:0:
251,296,176173,2,0,P|263:199|274:96,1,180,10|8,0:1|0:2,0:0:0:0:
290,4,176697,1,0,0:0:0:0:
461,86,176871,2,0,P|401:90|349:101,1,90,10|8,0:1|0:1,0:0:0:0:
185,153,177220,2,0,P|110:153|65:102,1,135,8|0,0:2|0:0,0:0:0:0:
68,90,177569,5,10,0:1:0:0:
160,64,177743,1,0,0:0:0:0:
21,193,177918,2,0,P|37:243|50:293,1,90,8|8,0:2|0:1,0:0:0:0:
140,336,178179,1,8,0:1:0:0:
140,336,178266,2,0,P|196:336|232:303,1,90,10|8,0:2|0:1,0:0:0:0:
183,239,178615,2,0,L|126:253,3,45,8|0|8|8,0:1|0:0|0:1|0:1,0:0:0:0:
301,224,178964,6,0,P|301:169|259:108,1,90,14|2,0:1|0:1,0:0:0:0:
176,107,179313,1,10,0:2:0:0:
328,16,179487,2,0,L|393:29,1,45,2|0,0:1|0:0,0:0:0:0:
287,137,179662,1,8,0:1:0:0:
241,35,179836,1,10,0:1:0:0:
430,96,180011,1,10,0:2:0:0:
381,177,180185,6,0,P|401:248|433:360,1,180,2|2,0:1|0:1,0:0:0:0:
316,274,180708,2,0,L|258:258,1,45,10|0,0:2|0:0,0:0:0:0:
226,338,180883,2,0,B|266:369|266:369|336:357,1,90,2|8,0:1|0:1,0:0:0:0:
228,158,181232,6,0,L|217:202,1,45,8|0,0:1|0:0,0:0:0:0:
133,214,181406,1,8,0:2:0:0:
112,223,181493,1,0,0:0:0:0:
91,231,181580,1,0,0:0:0:0:
70,240,181668,1,0,0:0:0:0:
51,251,181755,6,0,P|67:322|104:341,1,90,8|2,0:1|0:1,0:0:0:0:
133,214,182104,1,10,0:2:0:0:
79,94,182278,1,2,0:1:0:0:
32,166,182453,1,8,0:1:0:0:
177,71,182627,1,10,0:1:0:0:
177,71,182714,1,0,0:0:0:0:
177,71,182801,1,10,0:2:0:0:
261,168,182976,6,0,P|256:217|250:283,1,90,2|8,0:1|0:1,0:0:0:0:
386,172,183325,1,2,0:1:0:0:
330,89,183499,1,10,0:2:0:0:
494,16,183673,2,0,L|472:199,1,180,2|10,0:1|0:1,0:0:0:0:
403,261,184197,6,0,L|468:273,1,45,10|0,0:2|0:0,0:0:0:0:
486,356,184371,2,0,L|441:347,1,45,10|8,0:2|0:2,0:0:0:0:
342,339,184546,5,14,0:1:0:0:
342,339,184633,1,0,0:0:0:0:
342,339,184720,1,2,0:1:0:0:
261,217,184894,1,10,0:2:0:0:
172,363,185069,2,0,P|216:370|271:381,1,90,2|8,0:1|0:1,0:0:0:0:
173,273,185418,5,2,0:1:0:0:
80,359,185592,1,10,0:2:0:0:
40,234,185766,2,0,P|24:175|9:133,1,90,2|10,0:1|0:2,0:0:0:0:
0,137,186028,1,0,0:0:0:0:
0,137,186115,1,2,0:1:0:0:
70,15,186290,1,10,0:2:0:0:
129,180,186464,2,0,L|111:127,1,45,8|0,0:1|0:0,0:0:0:0:
193,71,186639,2,0,P|236:113|238:151,1,90,10|2,0:2|0:1,0:0:0:0:
161,268,186987,5,10,0:2:0:0:
259,215,187162,1,2,0:1:0:0:
336,324,187336,2,0,P|402:335|512:361,1,180,14|8,0:2|0:1,0:0:0:0:
508,87,187860,2,0,P|428:122|421:244,1,180,14|8,0:1|0:1,0:0:0:0:
154,120,188383,2,0,B|263:151|200:191|328:221,1,180,14|8,0:1|0:1,0:0:0:0:
405,205,188906,5,2,0:1:0:0:
374,364,189080,1,8,0:1:0:0:
255,239,189255,2,0,L|266:163,1,45,2|0,0:1|0:0,0:0:0:0:
233,383,189429,1,10,0:1:0:0:
233,383,189516,1,0,0:0:0:0:
233,383,189604,1,2,0:1:0:0:
163,271,189778,2,0,P|101:282|63:288,1,90,10|2,0:1|0:1,0:0:0:0:
57,301,190040,1,0,0:0:0:0:
57,301,190127,5,14,0:1:0:0:
113,128,190301,1,10,0:1:0:0:
0,214,190476,1,10,0:1:0:0:
31,63,190650,2,0,P|84:23|195:67,1,180,2|10,0:1|0:1,0:0:0:0:
223,151,191173,2,0,L|281:142,1,45,10|0,0:2|0:0,0:0:0:0:
415,228,191348,2,0,L|194:257,1,180,14|8,0:1|0:1,0:0:0:0:
492,322,191871,2,0,P|519:228|481:132,1,180,2|8,0:1|0:1,0:0:0:0:
499,22,192394,6,0,L|488:88,1,45,8|0,0:1|0:0,0:0:0:0:
405,74,192569,1,2,0:1:0:0:
405,74,192656,1,0,0:0:0:0:
405,74,192743,2,0,L|412:29,1,45,8|8,0:2|0:2,0:0:0:0:
303,113,192918,6,0,P|335:248|340:274,1,135.000005149842,12|0,0:2|0:0,0:0:0:0:
392,332,193441,1,12,0:2:0:0:
161,153,193790,1,12,0:2:0:0:
29,372,194139,2,0,B|110:358|63:329|173:315,1,135.000005149842,12|0,0:2|0:0,0:0:0:0:
206,243,194662,6,0,P|248:255|276:258,1,67.5000025749208
161,153,195011,2,0,L|105:169,1,33.7500012874604,8|0,0:1|0:0,0:0:0:0:
74,232,195185,2,0,L|106:241,1,33.7500012874604,8|8,0:2|0:1,0:0:0:0:
259,167,195360,5,8,0:1:0:0:
251,144,195447,1,0,0:0:0:0:
244,121,195534,1,8,0:1:0:0:
237,98,195621,1,8,0:1:0:0:
230,74,195708,2,0,P|261:40|327:41,1,101.250003862381,12|0,0:2|0:0,0:0:0:0:
332,49,196057,5,0,0:0:0:0:
365,210,196232,1,12,0:2:0:0:
161,153,196580,1,12,0:2:0:0:
203,384,196929,2,0,P|205:331|305:307,1,168.750006437302,12|0,0:2|0:0,0:0:0:0:
316,324,197453,5,8,0:2:0:0:
316,324,197540,1,0,0:0:0:0:
316,324,197627,2,0,L|370:349,1,33.7500012874604,8|0,0:2|0:0,0:0:0:0:
486,248,197801,6,0,L|441:258,1,33.7500012874604,8|0,0:2|0:0,0:0:0:0:
358,157,197976,2,0,L|401:169,1,33.7500012874604,8|0,0:2|0:0,0:0:0:0:
459,99,198150,1,8,0:2:0:0:
356,248,198325,1,8,0:1:0:0:
260,158,198499,6,0,P|206:184|178:212,1,67.5000025749208,12|0,0:1|0:0,0:0:0:0:
141,253,198848,2,0,P|122:224|110:193,1,67.5000025749208,8|0,0:1|0:0,0:0:0:0:
46,134,199197,2,0,P|74:115|105:103,1,67.5000025749208,8|0,0:1|0:0,0:0:0:0:
165,39,199546,2,0,P|183:67|195:98,1,67.5000025749208,10|0,0:2|0:0,0:0:0:0:
210,252,199894,6,0,P|176:245|143:242,1,67.5000025749208,10|0,0:1|0:0,0:0:0:0:
276,162,200243,2,0,P|282:128|285:95,1,67.5000025749208,8|0,0:1|0:0,0:0:0:0:
366,228,200592,2,0,P|399:234|432:237,1,67.5000025749208,10|0,0:1|0:0,0:0:0:0:
300,318,200941,2,0,P|293:351|290:384,1,67.5000025749208,10|0,0:2|0:0,0:0:0:0:
512,276,201290,6,0,P|513:216|489:169,1,90,14|0,0:2|0:0,0:0:0:0:
408,142,201639,1,0,0:0:0:0:
494,27,201813,2,0,P|397:42|304:55,1,180,12|0,0:2|0:0,0:0:0:0:
202,27,202336,2,0,P|186:88|241:154,1,135,12|0,0:2|0:0,0:0:0:0:
244,150,202685,1,12,0:2:0:0:
41,367,203383,5,8,0:2:0:0:
111,300,203557,1,0,0:0:0:0:
111,300,203644,1,8,0:2:0:0:
111,300,203732,2,0,L|122:343,3,24.7500007553101,8|0|8|8,0:2|0:0|0:2|0:2,0:0:0:0:
83,213,204080,6,0,P|116:177|195:182,1,99.0000030212403,12|8,0:1|0:1,0:0:0:0:
239,255,204429,1,8,0:2:0:0:
193,52,204604,2,0,L|209:121,1,49.5000015106202,8|0,0:1|0:0,0:0:0:0:
326,282,204778,2,0,P|325:225|285:171,1,99.0000030212403,8|8,0:2|0:1,0:0:0:0:
239,255,205127,5,8,0:2:0:0:
399,144,205301,1,8,0:1:0:0:
409,362,205476,2,0,P|423:299|435:261,1,99.0000030212403,12|8,0:2|0:1,0:0:0:0:
481,102,205825,6,0,P|420:56|366:59,1,99.0000030212403,8|8,0:2|0:1,0:0:0:0:
242,97,206173,2,0,P|236:44|225:-7,1,99.0000030212403,8|8,0:2|0:1,0:0:0:0:
90,116,206522,2,0,P|96:169|107:220,1,99.0000030212403,8|8,0:2|0:1,0:0:0:0:
177,300,206871,6,0,P|111:315|60:342,1,99.0000030212403,12|8,0:2|0:1,0:0:0:0:
242,384,207220,1,8,0:2:0:0:
259,170,207394,2,0,L|195:163,1,49.5000015106202,8|0,0:1|0:0,0:0:0:0:
265,270,207569,2,0,L|390:289,1,99.0000030212403,8|8,0:2|0:1,0:0:0:0:
511,317,207918,5,8,0:2:0:0:
415,202,208092,1,8,0:1:0:0:
510,84,208266,6,0,P|493:43|483:7,1,67.5000025749208,12|8,0:2|0:1,0:0:0:0:
415,202,208615,2,0,P|413:131|418:99,1,90,12|8,0:2|0:1,0:0:0:0:
265,270,208964,2,0,P|266:205|305:88,1,175.499991966248,12|0,0:2|0:0,0:0:0:0:
323,87,209313,5,12,0:2:0:0:
151,23,209487,5,8,0:1:0:0:
151,23,209575,1,0,0:0:0:0:
151,23,209662,2,0,P|163:76|173:132,1,99.0000030212403,12|8,0:2|0:1,0:0:0:0:
0,259,210011,2,0,B|42:230|42:230|123:245,1,99.0000030212403,8|8,0:2|0:1,0:0:0:0:
146,349,210360,5,8,0:2:0:0:
176,203,210534,1,8,0:1:0:0:
256,384,210708,5,8,0:2:0:0:
288,226,210882,1,8,0:1:0:0:
498,235,211057,6,0,P|438:263|398:260,1,99.0000030212403,12|8,0:2|0:1,0:0:0:0:
342,162,211406,5,8,0:2:0:0:
512,123,211580,1,8,0:1:0:0:
310,54,211755,5,8,0:2:0:0:
485,17,211929,1,8,0:1:0:0:
244,185,212104,6,0,P|232:128|220:80,1,99.0000030212403,8|8,0:2|0:1,0:0:0:0:
0,18,212453,5,12,0:2:0:0:
35,206,212627,1,8,0:1:0:0:
99,1,212801,5,8,0:2:0:0:
130,191,212975,1,8,0:1:0:0:
303,68,213150,6,0,P|238:68|192:90,1,99.0000030212403,8|8,0:2|0:1,0:0:0:0:
326,160,213499,1,8,0:2:0:0:
433,27,213673,1,8,0:1:0:0:
490,223,213848,6,0,P|473:274|469:300,1,49.5000015106202,12|0,0:2|0:0,0:0:0:0:
398,242,214022,2,0,P|414:190|418:164,1,49.5000015106202,8|8,0:1|0:1,0:0:0:0:
473,136,214197,1,8,0:2:0:0:
336,308,214371,2,0,B|279:318|279:318|229:284,1,99.0000030212403,8|8,0:1|0:2,0:0:0:0:
141,167,214720,2,0,P|128:122|119:89,1,49.5000015106202,8|0,0:1|0:0,0:0:0:0:
212,208,214894,1,8,0:2:0:0:
97,286,215069,5,8,0:1:0:0:
97,286,215156,1,8,0:1:0:0:
97,286,215243,2,0,P|47:278|6:272,1,85.4999977169037,12|0,0:2|0:0,0:0:0:0:
164,364,215592,2,0,P|181:302|194:271,1,85.4999977169037,12|0,0:2|0:0,0:0:0:0:
60,193,215941,2,0,P|46:131|35:105,1,85.4999977169037,12|0,0:2|0:0,0:0:0:0:
183,0,216290,2,0,P|168:40|160:82,1,85.4999977169037,12|0,0:2|0:0,0:0:0:0:
279,190,216639,2,0,P|345:184|384:186,1,85.4999977169037,12|0,0:2|0:0,0:0:0:0:
213,143,216987,6,0,P|184:198|192:243,1,85.4999977169037,12|0,0:2|0:0,0:0:0:0:
345,83,217336,2,0,P|330:22|322:-20,1,85.4999977169037,12|0,0:2|0:0,0:0:0:0:
381,269,217685,1,12,0:2:0:0:
435,120,217860,1,0,0:0:0:0:
511,311,218034,6,0,P|465:313|418:338,1,85.4999977169037,12|8,0:2|0:2,0:0:0:0:
424,349,218296,1,0,0:0:0:0:
424,349,218383,1,8,0:2:0:0:
254,133,218557,2,0,L|265:206,1,42.7499988584519,8|0,0:2|0:0,0:0:0:0:
381,269,218732,2,0,L|363:163,1,85.4999977169037,8|8,0:2|0:2,0:0:0:0:
129,295,219080,5,8,0:2:0:0:
125,317,219167,1,0,0:0:0:0:
121,339,219254,1,8,0:2:0:0:
117,361,219342,1,0,0:0:0:0:
113,378,219429,2,0,P|190:361|242:346,2,121.499996292114,12|0|0,0:2|0:0|0:0,0:0:0:0:
258,336,220825,6,0,P|228:302|225:258,1,90,14|2,0:1|0:0,0:0:0:0:
364,378,221173,1,8,0:2:0:0:
309,193,221348,2,0,P|314:214|320:236,1,45,2|0,0:0|0:0,0:0:0:0:
417,298,221522,2,0,P|426:221|433:172,1,90,8|8,0:1|0:1,0:0:0:0:
477,21,221871,2,0,B|421:63|421:63|472:134,1,135,10|0,0:2|0:0,0:0:0:0:
474,132,222220,6,0,B|357:139|425:179|294:194,1,180,10|8,0:1|0:2,0:0:0:0:
138,114,222743,2,0,P|120:61|114:36,1,45,2|0,0:0|0:0,0:0:0:0:
230,92,222918,1,8,0:1:0:0:
153,207,223092,1,8,0:1:0:0:
25,66,223266,2,0,P|35:133|62:165,1,90,10|2,0:2|0:0,0:0:0:0:
153,207,223615,5,10,0:1:0:0:
1,249,223790,1,0,0:0:0:0:
36,374,223964,2,0,P|78:360|122:348,1,90,8|2,0:2|0:0,0:0:0:0:
326,302,224313,6,0,P|332:280|340:258,1,45,8|0,0:1|0:0,0:0:0:0:
270,154,224487,1,8,0:1:0:0:
199,275,224662,2,0,P|210:318|224:361,1,90,10|2,0:2|0:0,0:0:0:0:
512,183,225011,5,10,0:1:0:0:
369,219,225185,1,2,0:0:0:0:
423,368,225360,2,0,P|423:323|448:281,1,90,10|2,0:2|0:0,0:0:0:0:
465,275,225621,1,8,0:2:0:0:
465,275,225708,2,0,P|450:185|440:125,1,135,8|0,0:1|0:0,0:0:0:0:
434,120,226057,6,0,L|478:114,1,45,10|0,0:2|0:0,0:0:0:0:
484,14,226232,2,0,L|427:21,1,45,2|0,0:0|0:0,0:0:0:0:
305,0,226406,2,0,P|313:53|323:121,1,90,14|0,0:1|0:0,0:0:0:0:
333,188,226755,1,8,0:2:0:0:
156,47,226929,2,0,P|225:91|233:133,1,90,2|8,0:0|0:1,0:0:0:0:
227,117,227191,1,0,0:0:0:0:
227,117,227278,1,8,0:1:0:0:
81,215,227453,1,10,0:2:0:0:
45,43,227627,1,2,0:0:0:0:
333,188,227801,6,0,P|319:246|309:303,1,90,10|0,0:1|0:0,0:0:0:0:
317,302,228063,1,0,0:0:0:0:
317,302,228150,1,8,0:2:0:0:
201,277,228325,2,0,P|149:277|102:304,1,90,2|8,0:0|0:1,0:0:0:0:
43,345,228673,1,8,0:1:0:0:
174,365,228848,1,10,0:2:0:0:
64,206,229022,1,2,0:0:0:0:
194,41,229197,6,0,P|171:123|230:185,1,180,14|8,0:1|0:1,0:0:0:0:
363,203,229720,2,0,P|439:159|524:175,1,135,14|0,0:1|0:0,0:0:0:0:
505,166,230069,5,8,0:1:0:0:
339,311,230243,1,8,0:1:0:0:
290,93,230418,1,14,0:1:0:0:
256,192,230592,12,0,233383,0:0:0:0:
