osu file format v14

[General]
AudioFilename: audio.mp3
AudioLeadIn: 0
PreviewTime: 192844
Countdown: 0
SampleSet: Soft
StackLeniency: 0.4
Mode: 0
LetterboxInBreaks: 0
WidescreenStoryboard: 1

[Editor]
DistanceSpacing: 0.9
BeatDivisor: 4
GridSize: 4
TimelineZoom: 1.3

[Metadata]
Title:TRUE STORY
TitleUnicode:TRUE STORY
Artist:Haruna Luna
ArtistUnicode:春奈るな
Creator:P A N
Version:Normal
Source:AKIBA'S TRIP2
Tags:p_a_n opening akihabara アキバズトリップ2 simple- japanese op jpop j-pop video game akibas
BeatmapID:4006325
BeatmapSetID:1778366

[Difficulty]
HPDrainRate:3
CircleSize:3.1
OverallDifficulty:5
ApproachRate:5.5
SliderMultiplier:1.2
SliderTickRate:1

[Events]
//Background and Video events
0,0,"GCh2wN6EQziTRRDex7x4Y6wc.jpg",0,0
//Break Periods
2,103629,110862
2,170792,177658
//Storyboard Layer 0 (Background)
//Storyboard Layer 1 (Fail)
//Storyboard Layer 2 (Pass)
//Storyboard Layer 3 (Foreground)
//Storyboard Layer 4 (Overlay)
//Storyboard Sound Samples

[TimingPoints]
360,348.837209302326,4,2,1,25,1,0
360,-125,4,2,1,25,0,0
11522,-100,4,2,1,65,0,0
22685,-111.111111111111,4,2,1,50,0,0
42220,-100,4,2,1,60,0,0
60708,-100,4,2,1,40,0,0
61406,-100,4,2,1,60,0,0
61755,-90.9090909090909,4,2,1,75,0,1
72394,-90.9090909090909,4,2,1,75,0,0
72918,-90.9090909090909,4,2,1,75,0,1
78499,-100,4,2,1,70,0,1
88266,-100,4,2,1,70,0,0
89313,-100,4,2,1,40,0,0
89662,-100,4,2,1,65,0,0
111987,-100,4,2,1,60,0,0
123150,-111.111111111111,4,2,1,50,0,0
131522,-100,4,2,1,60,0,0
137453,-100,4,2,1,40,0,0
138499,-100,4,2,1,60,0,0
138848,-100,4,2,1,40,0,0
139894,-90.9090909090909,4,2,1,75,0,1
150534,-90.9090909090909,4,2,1,75,0,0
151057,-90.9090909090909,4,2,1,75,0,1
156639,-100,4,2,1,70,0,1
162220,-100,4,2,1,75,0,1
166406,-100,4,2,1,75,0,0
167801,-100,4,2,1,65,0,0
192918,-100,4,2,1,70,0,1
202685,-100,4,2,1,70,0,0
204080,-100,4,2,1,75,0,1
215243,-100,4,2,1,80,0,1
218034,-100,4,2,1,40,0,1
218208,-100,4,2,1,45,0,1
218383,-100,4,2,1,50,0,1
218557,-100,4,2,1,55,0,1
218732,-100,4,2,1,60,0,1
218906,-100,4,2,1,65,0,1
219080,-100,4,2,1,70,0,1
219255,-100,4,2,1,75,0,1
219429,-100,4,2,1,80,0,0
220825,-100,4,2,1,65,0,0

[Colours]
Combo1 : 255,70,70
Combo2 : 255,255,128
Combo3 : 117,0,234
Combo4 : 255,241,185

[HitObjects]
257,64,360,5,2,0:0:0:0:
257,64,534,1,2,0:0:0:0:
362,72,883,2,0,P|408:94|435:143,1,96,2|2,0:0|0:0,0:0:0:0:
444,182,1406,1,2,0:0:0:0:
433,290,1755,1,2,0:0:0:0:
433,290,1929,1,2,0:0:0:0:
338,338,2278,2,0,L|232:331,1,96,2|2,0:0|0:0,0:0:0:0:
189,328,2801,1,2,0:0:0:0:
116,258,3150,5,2,0:0:0:0:
116,258,3325,1,2,0:0:0:0:
97,154,3673,2,0,P|105:102|142:67,1,96,2|2,0:0|0:0,0:0:0:0:
183,52,4197,1,2,0:0:0:0:
288,49,4546,2,0,L|308:-12,2,48,2|2|2,0:0|0:0|0:0,0:0:0:0:
301,100,5069,1,2,0:0:0:0:
367,181,5418,2,0,L|354:229,2,48,2|2|2,0:0|0:0|0:0,0:0:0:0:
410,150,5941,6,0,P|466:203|347:351,1,288,2|2,0:0|0:0,0:0:0:0:
268,362,7336,2,0,B|201:333|205:243|205:243|209:152|115:111,1,288,2|2,0:0|0:0,0:0:0:0:
39,158,8732,6,0,P|48:68|236:69,1,288,2|2,0:0|0:0,0:0:0:0:
303,102,10127,2,0,B|364:122|396:71|396:71|449:144|399:215,1,240,2|8,0:0|0:1,0:0:0:0:
394,240,11173,1,8,0:2:0:0:
337,332,11522,5,14,0:1:0:0:
233,347,11871,1,8,0:2:0:0:
233,347,12046,2,0,P|173:320|148:264,1,120,2|8,0:0|0:1,0:0:0:0:
126,224,12569,1,10,0:2:0:0:
131,116,12918,1,10,0:1:0:0:
232,165,13266,1,8,0:2:0:0:
232,165,13441,2,0,P|290:182|360:157,1,120,2|8,0:0|0:1,0:0:0:0:
388,132,13964,1,10,0:2:0:0:
335,37,14313,5,10,0:1:0:0:
227,26,14662,2,0,P|192:27|168:41,1,60,8|2,0:2|0:0,0:0:0:0:
131,76,15011,2,0,L|141:201,1,120,8|10,0:1|0:2,0:0:0:0:
109,299,15708,2,0,P|140:307|171:302,1,60,10|2,0:1|0:0,0:0:0:0:
218,321,16057,2,0,P|244:302|260:275,1,60,10|2,0:2|0:0,0:0:0:0:
312,270,16406,2,0,P|314:238|304:208,1,60,8|8,0:1|0:1,0:0:0:0:
286,161,16755,1,10,0:2:0:0:
311,56,17104,5,14,0:1:0:0:
423,66,17453,1,8,0:2:0:0:
423,66,17627,2,0,P|453:113|450:192,1,120,2|8,0:0|0:1,0:0:0:0:
441,228,18150,1,10,0:2:0:0:
356,295,18499,1,10,0:1:0:0:
266,244,18848,1,8,0:2:0:0:
266,244,19022,2,0,B|207:236|207:236|145:259,1,120,2|8,0:0|0:1,0:0:0:0:
117,300,19546,1,10,0:2:0:0:
41,222,19894,6,0,P|23:164|41:98,1,120,10|8,0:1|0:2,0:0:0:0:
69,66,20418,1,8,0:1:0:0:
69,66,20592,1,8,0:1:0:0:
168,24,20941,1,8,0:2:0:0:
229,112,21290,2,0,L|293:103,2,60,12|2|2,0:1|0:0|0:0,0:0:0:0:
194,153,21813,1,2,0:0:0:0:
398,296,22685,6,0,L|407:349,2,53.9999983520508,14|0|10,0:1|0:0|0:1,0:0:0:0:
418,252,23208,1,2,0:0:0:0:
336,199,23557,2,0,L|342:135,1,53.9999983520508,2|10,0:0|0:1,0:0:0:0:
346,96,23906,1,2,0:0:0:0:
268,38,24255,2,0,L|197:41,1,53.9999983520508,2|10,0:0|0:1,0:0:0:0:
167,28,24604,2,0,P|105:38|69:132,1,161.999995056153,2|8,0:0|0:1,0:0:0:0:
77,218,25476,6,0,L|14:215,2,53.9999983520508,10|2|10,0:1|0:0|0:1,0:0:0:0:
108,255,25999,1,2,0:0:0:0:
186,313,26348,2,0,L|242:307,1,53.9999983520508,2|10,0:0|0:1,0:0:0:0:
284,326,26697,1,2,0:0:0:0:
380,308,27046,2,0,P|402:287|410:258,1,53.9999983520508,2|10,0:0|0:1,0:0:0:0:
454,249,27394,2,0,P|471:168|431:96,1,161.999995056153,2|8,0:0|0:1,0:0:0:0:
343,72,28266,6,0,L|347:17,2,53.9999983520508,10|2|10,0:1|0:0|0:1,0:0:0:0:
306,104,28790,1,2,0:0:0:0:
337,196,29139,2,0,L|335:249,1,53.9999983520508,2|10,0:0|0:1,0:0:0:0:
362,289,29487,2,0,P|310:331|256:329,1,107.999996704102,2|0,0:0|0:0,0:0:0:0:
231,362,30011,2,0,P|206:352|184:327,1,53.9999983520508,10|2,0:1|0:0,0:0:0:0:
162,291,30360,1,10,0:1:0:0:
140,197,30708,2,0,L|193:189,1,53.9999983520508,10|2,0:1|0:0,0:0:0:0:
223,150,31057,5,8,0:1:0:0:
311,110,31406,1,8,0:1:0:0:
404,136,31755,1,8,0:1:0:0:
446,223,32104,1,8,0:1:0:0:
421,316,32453,1,8,0:1:0:0:
333,357,32802,1,8,0:1:0:0:
240,331,33151,1,8,0:1:0:0:
198,244,33500,1,8,0:1:0:0:
223,150,33848,6,0,P|194:145|159:153,2,53.9999983520508,10|2|10,0:1|0:0|0:1,0:0:0:0:
268,168,34371,1,2,0:0:0:0:
353,213,34720,2,0,P|383:218|410:210,1,53.9999983520508,2|10,0:0|0:1,0:0:0:0:
448,188,35069,1,2,0:0:0:0:
460,91,35418,2,0,L|400:85,1,53.9999983520508,2|10,0:0|0:1,0:0:0:0:
371,52,35766,2,0,L|353:221,1,161.999995056153,2|8,0:0|0:1,0:0:0:0:
292,289,36639,6,0,L|290:344,2,53.9999983520508,10|2|10,0:1|0:0|0:1,0:0:0:0:
257,254,37162,1,2,0:0:0:0:
166,289,37511,2,0,L|105:280,1,53.9999983520508,2|10,0:0|0:1,0:0:0:0:
74,251,37860,1,2,0:0:0:0:
55,156,38208,2,0,P|51:120|58:96,1,53.9999983520508,2|10,0:0|0:1,0:0:0:0:
40,56,38557,2,0,L|206:71,1,161.999995056153,2|8,0:0|0:1,0:0:0:0:
256,149,39429,6,0,L|374:141,1,107.999996704102,14|10,0:1|0:1,0:0:0:0:
397,105,39953,1,2,0:0:0:0:
451,184,40301,2,0,L|446:244,1,53.9999983520508,2|10,0:0|0:1,0:0:0:0:
464,283,40650,2,0,P|407:294|353:275,1,107.999996704102,2|0,0:0|0:0,0:0:0:0:
339,236,41173,1,10,0:1:0:0:
267,169,41522,1,10,0:1:0:0:
170,175,41871,1,10,0:1:0:0:
111,269,42220,6,0,P|161:301|227:299,1,120,12|8,0:1|0:2,0:0:0:0:
253,343,42743,2,0,P|309:325|350:273,1,120,12|8,0:1|0:2,0:0:0:0:
401,278,43266,2,0,P|423:223|410:158,1,120,12|8,0:1|0:2,0:0:0:0:
435,114,43790,2,0,P|364:29|231:43,1,240,12|8,0:1|0:1,0:0:0:0:
203,71,44662,1,8,0:1:0:0:
101,106,45011,6,0,P|67:163|84:236,1,120,12|8,0:1|0:1,0:0:0:0:
97,262,45534,1,12,0:1:0:0:
183,327,45883,2,0,L|165:385,2,60,8|8|8,0:2|0:1|0:1,0:0:0:0:
235,315,46406,2,0,P|264:257|241:177,1,120,12|8,0:1|0:1,0:0:0:0:
246,150,46929,2,0,P|243:87|281:42,1,120,12|8,0:1|0:1,0:0:0:0:
325,18,47453,1,8,0:2:0:0:
429,42,47801,6,0,L|423:173,1,120,12|8,0:1|0:1,0:0:0:0:
456,205,48325,2,0,P|392:193|343:218,1,120,12|0,0:1|0:0,0:0:0:0:
334,269,48848,1,8,0:2:0:0:
258,346,49197,2,0,P|227:293|233:227,1,120,12|8,0:1|0:1,0:0:0:0:
254,188,49720,1,12,0:1:0:0:
225,83,50069,2,0,P|253:79|284:83,2,60,8|8|0,0:1|0:2|0:0,0:0:0:0:
173,65,50592,6,0,B|115:78|115:78|46:151,1,120,12|8,0:1|0:2,0:0:0:0:
45,168,51115,1,12,0:1:0:0:
72,272,51464,2,0,L|61:332,2,60,8|8|8,0:1|0:2|0:1,0:0:0:0:
124,256,51987,2,0,P|184:268|245:240,1,120,12|8,0:1|0:2,0:0:0:0:
276,209,52511,1,12,0:1:0:0:
244,105,52860,2,0,L|181:109,2,60,8|8|8,0:1|0:2|0:1,0:0:0:0:
289,75,53383,6,0,B|348:65|348:65|411:81,1,120,12|12,0:1|0:2,0:0:0:0:
391,186,54080,2,0,B|436:224|436:224|464:283,1,120,12|12,0:1|0:2,0:0:0:0:
396,365,54778,2,0,P|334:355|292:309,1,120,12|12,0:1|0:2,0:0:0:0:
197,363,55476,2,0,P|164:309|173:247,1,120,12|12,0:1|0:2,0:0:0:0:
68,215,56173,5,12,0:1:0:0:
80,107,56522,1,12,0:2:0:0:
156,30,56871,1,12,0:1:0:0:
265,18,57220,1,12,0:2:0:0:
342,93,57569,2,0,L|406:91,1,60,12|8,0:1|0:1,0:0:0:0:
455,80,57918,1,12,0:2:0:0:
440,296,58615,2,0,P|404:298|375:288,1,60,12|8,0:2|0:2,0:0:0:0:
328,277,58964,6,0,B|305:233|240:228|224:257|193:270|192:311|232:331|157:377|123:358|92:364|67:336|43:337|20:332|0:283|0:223|21:203|59:172,1,480,8|2,0:2|0:1,0:0:0:0:
80,97,60708,1,4,0:0:0:0:
185,73,61057,1,4,0:0:0:0:
198,303,61755,6,0,P|270:313|330:281,1,132.00000402832,12|8,0:1|0:2,0:0:0:0:
380,297,62278,2,0,P|404:272|417:238,1,66.0000020141602,2|8,0:1|0:1,0:0:0:0:
470,220,62627,2,0,P|474:186|462:147,1,66.0000020141602,2|8,0:1|0:2,0:0:0:0:
445,105,62976,1,2,0:1:0:0:
445,105,63150,1,8,0:1:0:0:
353,29,63499,1,10,0:2:0:0:
235,13,63848,1,10,0:1:0:0:
118,37,64197,1,10,0:2:0:0:
50,135,64546,6,0,L|64:268,1,132.00000402832,10|10,0:1|0:2,0:0:0:0:
82,322,65069,2,0,P|123:326|156:316,1,66.0000020141602,2|8,0:1|0:1,0:0:0:0:
203,338,65418,2,0,P|237:326|263:296,1,66.0000020141602,2|8,0:1|0:2,0:0:0:0:
290,257,65766,1,2,0:1:0:0:
290,257,65941,1,8,0:1:0:0:
242,148,66290,1,10,0:2:0:0:
274,33,66639,1,10,0:1:0:0:
390,11,66987,1,10,0:2:0:0:
500,54,67336,6,0,L|491:191,1,132.00000402832,10|8,0:1|0:2,0:0:0:0:
435,290,68034,2,0,P|403:291|369:275,1,66.0000020141602,8|0,0:1|0:0,0:0:0:0:
331,234,68383,1,10,0:2:0:0:
262,136,68732,2,0,P|193:124|129:176,1,132.00000402832,10|8,0:1|0:2,0:0:0:0:
93,186,69255,1,8,0:1:0:0:
93,186,69429,2,0,L|101:272,1,66.0000020141602,10|0,0:1|0:0,0:0:0:0:
76,307,69778,1,8,0:2:0:0:
177,369,70127,6,0,P|228:328|237:250,1,132.00000402832,8|8,0:1|0:2,0:0:0:0:
228,211,70650,1,2,0:1:0:0:
228,211,70825,1,8,0:1:0:0:
163,111,71173,1,8,0:2:0:0:
243,23,71522,1,12,0:1:0:0:
362,56,71871,1,8,0:2:0:0:
362,56,72046,2,0,L|354:197,1,132.00000402832,12|8,0:1|0:2,0:0:0:0:
385,238,72569,1,8,0:1:0:0:
322,338,72918,6,0,P|250:358|181:331,1,132.00000402832,12|8,0:1|0:2,0:0:0:0:
151,303,73441,2,0,L|156:222,1,66.0000020141602,2|8,0:1|0:1,0:0:0:0:
193,191,73790,2,0,L|186:123,1,66.0000020141602,2|8,0:1|0:2,0:0:0:0:
153,82,74139,1,2,0:1:0:0:
153,82,74313,1,8,0:1:0:0:
245,7,74662,1,10,0:2:0:0:
363,11,75011,1,10,0:1:0:0:
448,93,75360,1,10,0:2:0:0:
414,206,75708,6,0,L|278:172,1,132.00000402832,10|10,0:1|0:2,0:0:0:0:
230,195,76232,2,0,P|194:200|156:187,1,66.0000020141602,2|8,0:1|0:1,0:0:0:0:
130,144,76580,2,0,P|97:135|65:140,1,66.0000020141602,2|8,0:1|0:2,0:0:0:0:
22,182,76929,1,2,0:1:0:0:
22,182,77104,1,10,0:1:0:0:
28,300,77453,1,10,0:2:0:0:
132,355,77801,1,10,0:1:0:0:
248,333,78150,1,10,0:2:0:0:
309,244,78499,6,0,P|254:220|191:240,2,120,14|0|8,0:1|0:0|0:2,0:0:0:0:
354,282,79371,1,2,0:1:0:0:
354,282,79546,2,0,L|430:276,1,60,2|2,0:1|0:1,0:0:0:0:
454,241,79894,1,2,0:1:0:0:
458,133,80243,2,0,L|458:72,2,60,2|8|8,0:1|0:1|0:2,0:0:0:0:
407,151,80766,2,0,P|337:157|289:128,1,120,2|2,0:1|0:1,0:0:0:0:
257,94,81290,6,0,B|199:89|199:89|133:118,2,120,8|0|8,0:1|0:0|0:2,0:0:0:0:
337,165,82336,2,0,L|332:234,1,60,2|2,0:1|0:1,0:0:0:0:
299,268,82685,1,2,0:1:0:0:
201,313,83034,1,2,0:1:0:0:
201,313,83208,2,0,P|174:313|137:290,1,60,8|8,0:1|0:2,0:0:0:0:
119,250,83557,2,0,B|135:190|135:190|125:128,1,120,2|10,0:1|0:1,0:0:0:0:
89,92,84080,6,0,L|219:102,1,120,12|0,0:1|0:0,0:0:0:0:
286,22,84778,2,0,L|357:29,1,60,8|8,0:2|0:1,0:0:0:0:
386,63,85127,1,0,0:0:0:0:
445,153,85476,1,2,0:1:0:0:
421,258,85825,1,2,0:1:0:0:
321,300,86173,1,8,0:2:0:0:
215,275,86522,2,0,P|195:258|182:226,1,60,2|2,0:1|0:1,0:0:0:0:
256,192,86871,12,2,88267,0:0:0:0:
170,95,89662,5,14,0:1:0:0:
274,139,90011,1,8,0:2:0:0:
274,139,90185,2,0,P|295:196|275:273,1,120,2|8,0:0|0:1,0:0:0:0:
253,297,90709,1,10,0:2:0:0:
155,343,91058,1,10,0:1:0:0:
62,287,91406,1,8,0:2:0:0:
62,287,91580,2,0,B|45:227|45:227|61:162,1,120,2|8,0:0|0:1,0:0:0:0:
78,120,92104,1,10,0:2:0:0:
166,57,92453,5,10,0:1:0:0:
261,106,92801,2,0,P|280:116|301:155,1,60,8|2,0:2|0:0,0:0:0:0:
298,202,93150,2,0,B|330:254|330:254|394:276,1,120,8|10,0:1|0:2,0:0:0:0:
456,190,93848,2,0,P|459:157|451:128,1,60,10|2,0:1|0:0,0:0:0:0:
456,77,94197,2,0,P|432:53|405:40,1,60,10|2,0:2|0:0,0:0:0:0:
363,12,94546,2,0,P|329:14|302:27,1,60,8|8,0:1|0:1,0:0:0:0:
263,59,94894,1,10,0:2:0:0:
315,153,95244,5,14,0:1:0:0:
250,239,95592,1,8,0:2:0:0:
250,239,95766,2,0,P|200:276|124:273,1,120,2|8,0:0|0:1,0:0:0:0:
91,263,96290,1,10,0:2:0:0:
47,164,96639,1,10,0:1:0:0:
98,70,96988,1,8,0:2:0:0:
98,70,97162,2,0,L|229:83,1,120,2|8,0:0|0:1,0:0:0:0:
267,60,97685,2,0,L|348:51,1,60,10|2,0:2|0:0,0:0:0:0:
366,89,98034,6,0,P|381:145|368:206,1,120,10|8,0:1|0:2,0:0:0:0:
320,301,98732,1,8,0:1:0:0:
212,309,99081,1,8,0:2:0:0:
138,229,99430,2,0,L|159:166,2,60,8|12|8,0:1|0:1|0:1,0:0:0:0:
110,277,99953,1,8,0:1:0:0:
110,277,100127,2,0,P|69:269|46:244,1,60,8|8,0:2|0:3,0:0:0:0:
44,205,100476,2,0,P|29:182|25:142,1,60,8|8,0:3|0:3,0:0:0:0:
43,99,100825,1,12,0:1:0:0:
323,254,111987,6,0,L|390:249,2,60,14|2|8,0:1|0:0|0:1,0:0:0:0:
284,290,112510,1,10,0:1:0:0:
176,287,112860,2,0,P|141:270|126:246,1,60,2|8,0:0|0:2,0:0:0:0:
102,207,113208,1,2,0:0:0:0:
126,101,113557,2,0,L|206:109,1,60,2|8,0:0|0:1,0:0:0:0:
230,76,113906,2,0,B|302:82|302:82|332:71|332:71|425:81,1,180,2|8,0:0|0:2,0:0:0:0:
419,186,114778,6,0,P|459:181|489:158,2,60,8|2|8,0:1|0:0|0:1,0:0:0:0:
368,167,115301,1,2,0:0:0:0:
260,171,115650,2,0,P|225:179|199:196,1,60,2|8,0:0|0:2,0:0:0:0:
166,230,115999,1,2,0:0:0:0:
97,313,116348,2,0,P|71:284|59:247,1,60,2|8,0:0|0:1,0:0:0:0:
59,210,116697,2,0,L|-11:217,2,60,2|8|2,0:0|0:1|0:0,0:0:0:0:
70,156,117220,1,8,0:2:0:0:
134,69,117569,6,0,P|128:40|133:2,2,60,12|2|8,0:1|0:0|0:1,0:0:0:0:
167,111,118092,1,2,0:0:0:0:
223,202,118441,2,0,P|227:231|222:267,1,60,2|8,0:0|0:2,0:0:0:0:
211,314,118790,2,0,P|261:349|330:334,1,120,2|2,0:0|0:0,0:0:0:0:
360,309,119313,2,0,L|429:316,1,60,8|2,0:1|0:0,0:0:0:0:
468,291,119662,1,10,0:1:0:0:
468,182,120011,2,0,L|400:183,1,60,10|8,0:2|0:1,0:0:0:0:
362,212,120360,6,0,P|330:162|331:95,1,120,12|8,0:1|0:2,0:0:0:0:
284,71,120883,2,0,P|234:103|167:102,1,120,12|10,0:1|0:2,0:0:0:0:
150,152,121406,2,0,P|182:202|181:269,1,120,12|10,0:1|0:2,0:0:0:0:
228,293,121929,2,0,P|278:261|345:262,1,120,12|8,0:1|0:2,0:0:0:0:
429,316,122627,2,0,L|423:384,2,60,8|8|8,0:2|0:1|0:1,0:0:0:0:
448,271,123150,6,0,L|440:159,1,107.999996704102,12|8,0:1|0:1,0:0:0:0:
433,66,123848,1,8,0:2:0:0:
339,37,124197,2,0,L|287:48,1,53.9999983520508,10|2,0:1|0:0,0:0:0:0:
267,93,124546,2,0,P|210:109|157:91,1,107.999996704102,10|8,0:1|0:1,0:0:0:0:
90,32,125243,1,8,0:2:0:0:
42,117,125592,1,10,0:1:0:0:
62,212,125941,6,0,P|90:258|161:276,1,107.999996704102,10|10,0:1|0:1,0:0:0:0:
182,253,126464,1,2,0:0:0:0:
182,253,126639,2,0,B|236:239|236:239|295:252,1,107.999996704102,8|8,0:2|0:1,0:0:0:0:
344,328,127336,2,0,P|378:282|376:231,1,107.999996704102,8|8,0:1|0:1,0:0:0:0:
338,144,128034,1,8,0:2:0:0:
338,144,128208,2,0,P|365:135|399:142,2,53.9999983520508,8|8|8,0:1|0:1|0:1,0:0:0:0:
298,172,128732,6,0,P|244:151|218:101,1,107.999996704102,12|10,0:1|0:1,0:0:0:0:
217,60,129255,1,2,0:0:0:0:
120,52,129604,2,0,L|48:44,2,53.9999983520508,2|10|2,0:0|0:1|0:0,0:0:0:0:
95,94,130127,2,0,B|80:143|80:143|93:214,1,107.999996704102,10|10,0:1|0:1,0:0:0:0:
98,247,130650,1,2,0:0:0:0:
152,327,130999,2,0,P|125:340|90:342,2,53.9999983520508,2|10|10,0:0|0:1|0:2,0:0:0:0:
195,294,131522,6,0,B|253:281|253:281|325:294,1,120,12|12,0:2|0:2,0:0:0:0:
405,347,132220,2,0,B|410:287|410:287|445:223,1,120,12|12,0:1|0:2,0:0:0:0:
505,148,132918,2,0,B|450:124|450:124|399:71,1,120,12|12,0:1|0:2,0:0:0:0:
349,0,133616,2,0,B|309:44|309:44|243:76,1,120,12|12,0:1|0:2,0:0:0:0:
172,140,134313,5,12,0:1:0:0:
255,209,134662,1,12,0:2:0:0:
195,300,135011,1,12,0:1:0:0:
272,372,135360,1,12,0:2:0:0:
375,340,135708,2,0,P|392:310|397:272,1,60,12|0,0:1|0:0,0:0:0:0:
444,258,136057,2,0,P|438:224|416:191,1,60,8|8,0:1|0:1,0:0:0:0:
438,148,136406,2,0,P|411:124|374:114,1,60,8|8,0:1|0:1,0:0:0:0:
361,68,136755,2,0,P|326:66|290:81,1,60,8|8,0:1|0:1,0:0:0:0:
259,108,137104,5,12,0:2:0:0:
214,206,137453,2,0,P|155:232|157:107,1,240,4|4,0:2|0:2,0:0:0:0:
203,18,138499,1,12,0:1:0:0:
259,108,138848,2,0,B|318:136|374:101|374:101|437:65|509:119,1,240,4|2,0:2|0:1,0:0:0:0:
500,222,139894,6,0,P|492:296|439:334,1,132.00000402832,12|8,0:1|0:2,0:0:0:0:
394,353,140418,2,0,L|326:341,1,66.0000020141602,2|8,0:1|0:1,0:0:0:0:
271,353,140766,2,0,L|224:299,1,66.0000020141602,2|8,0:1|0:2,0:0:0:0:
174,291,141115,1,2,0:1:0:0:
174,291,141289,1,8,0:1:0:0:
102,196,141638,1,10,0:2:0:0:
115,77,141987,1,10,0:1:0:0:
212,8,142336,1,10,0:2:0:0:
305,81,142685,6,0,P|322:139|289:217,1,132.00000402832,10|10,0:1|0:2,0:0:0:0:
246,231,143208,2,0,P|226:264|226:303,1,66.0000020141602,2|8,0:1|0:1,0:0:0:0:
244,346,143557,2,0,L|314:360,1,66.0000020141602,2|8,0:1|0:2,0:0:0:0:
367,384,143905,1,2,0:1:0:0:
367,384,144080,1,8,0:1:0:0:
457,306,144429,1,10,0:2:0:0:
487,191,144778,1,10,0:1:0:0:
463,74,145126,1,10,0:2:0:0:
355,22,145476,6,0,B|306:40|306:40|288:65|288:65|234:91,1,132.00000402832,10|8,0:1|0:2,0:0:0:0:
157,168,146173,2,0,L|228:177,1,66.0000020141602,8|0,0:1|0:0,0:0:0:0:
265,218,146522,1,10,0:2:0:0:
260,336,146871,2,0,P|198:375|125:363,1,132.00000402832,10|8,0:1|0:2,0:0:0:0:
93,347,147394,1,8,0:1:0:0:
93,347,147569,2,0,L|98:268,1,66.0000020141602,10|0,0:1|0:0,0:0:0:0:
70,228,147917,1,8,0:2:0:0:
42,112,148266,6,0,P|86:57|152:51,1,132.00000402832,8|8,0:1|0:2,0:0:0:0:
205,68,148789,1,2,0:1:0:0:
205,68,148964,1,8,0:1:0:0:
281,158,149312,1,8,0:2:0:0:
211,254,149661,1,12,0:1:0:0:
297,336,150011,1,8,0:2:0:0:
297,336,150185,2,0,P|376:350|425:319,1,132.00000402832,12|8,0:1|0:2,0:0:0:0:
452,277,150708,1,8,0:1:0:0:
446,158,151057,6,0,P|398:104|332:91,1,132.00000402832,12|8,0:1|0:2,0:0:0:0:
289,117,151580,2,0,L|212:113,1,66.0000020141602,2|8,0:1|0:1,0:0:0:0:
178,74,151929,2,0,L|111:81,1,66.0000020141602,2|8,0:1|0:2,0:0:0:0:
62,110,152278,1,2,0:1:0:0:
62,110,152452,1,8,0:1:0:0:
30,224,152801,1,10,0:2:0:0:
98,321,153150,1,10,0:1:0:0:
216,332,153499,1,10,0:2:0:0:
286,236,153848,6,0,P|268:163|293:102,1,132.00000402832,10|10,0:1|0:2,0:0:0:0:
276,52,154371,2,0,P|302:38|342:38,1,66.0000020141602,2|8,0:1|0:1,0:0:0:0:
397,33,154720,2,0,L|447:90,1,66.0000020141602,2|8,0:1|0:2,0:0:0:0:
501,103,155068,1,2,0:1:0:0:
501,103,155243,1,10,0:1:0:0:
406,175,155592,1,14,0:2:0:0:
505,239,155940,1,10,0:1:0:0:
407,306,156289,1,10,0:2:0:0:
317,244,156639,6,0,P|290:181|304:124,2,120,14|8|8,0:1|0:1|0:2,0:0:0:0:
356,288,157511,1,10,0:1:0:0:
356,288,157685,2,0,L|320:341,1,60,10|10,0:1|0:1,0:0:0:0:
271,356,158034,1,10,0:1:0:0:
169,320,158383,2,0,L|134:372,2,60,10|2|8,0:1|0:1|0:2,0:0:0:0:
127,285,158906,2,0,P|98:229|106:159,1,120,2|2,0:1|0:1,0:0:0:0:
116,121,159429,6,0,B|161:117|161:117|193:124|193:124|241:118,2,120,8|8|8,0:1|0:1|0:2,0:0:0:0:
53,209,160476,2,0,L|57:279,1,60,10|2,0:1|0:1,0:0:0:0:
45,321,160825,2,0,P|102:359|158:349,1,120,10|10,0:1|0:1,0:0:0:0:
200,331,161348,2,0,P|235:328|258:337,1,60,2|8,0:1|0:2,0:0:0:0:
306,360,161697,2,0,B|322:316|322:316|318:234,1,120,2|2,0:1|0:1,0:0:0:0:
273,212,162220,6,0,B|252:182|252:182|253:89,1,120,8|8,0:1|0:1,0:0:0:0:
187,12,162918,2,0,L|127:6,1,60,8|0,0:2|0:0,0:0:0:0:
80,32,163267,1,8,0:1:0:0:
15,118,163616,1,8,0:1:0:0:
73,208,163965,1,8,0:1:0:0:
177,179,164313,1,8,0:2:0:0:
190,71,164662,2,0,L|256:74,1,60,8|8,0:1|0:2,0:0:0:0:
256,192,165011,12,2,166406,0:1:0:0:
256,192,167801,5,12,0:1:0:0:
256,192,167976,12,10,170592,0:1:0:0:
143,281,178964,6,0,L|84:287,2,60,14|2|10,0:1|0:1|0:2,0:0:0:0:
180,241,179487,1,2,0:1:0:0:
272,296,179836,2,0,L|336:289,1,60,10|10,0:1|0:2,0:0:0:0:
374,255,180185,1,2,0:1:0:0:
461,191,180534,2,0,P|467:166|459:127,1,60,2|10,0:1|0:2,0:0:0:0:
447,80,180883,1,2,0:1:0:0:
341,57,181232,2,0,L|310:-11,2,60,8|8|0,0:1|0:2|0:0,0:0:0:0:
321,109,181755,5,8,0:1:0:0:
321,109,181929,2,0,L|350:175,1,60,2|10,0:1|0:2,0:0:0:0:
329,215,182278,1,2,0:1:0:0:
271,306,182627,2,0,P|241:310|212:304,1,60,10|10,0:1|0:2,0:0:0:0:
166,274,182976,1,2,0:1:0:0:
60,298,183325,2,0,P|37:277|23:251,1,60,2|10,0:1|0:2,0:0:0:0:
17,197,183674,1,2,0:1:0:0:
73,105,184022,2,0,L|40:41,2,60,10|10|10,0:1|0:2|0:2,0:0:0:0:
116,137,184546,6,0,P|151:141|184:130,1,60,14|2,0:1|0:1,0:0:0:0:
220,104,184894,1,10,0:2:0:0:
220,104,185069,2,0,P|282:99|337:135,1,120,2|2,0:1|0:1,0:0:0:0:
409,201,185766,2,0,P|353:230|288:219,1,120,2|2,0:1|0:1,0:0:0:0:
250,197,186290,1,10,0:2:0:0:
217,96,186639,2,0,P|196:75|166:62,1,60,10|2,0:2|0:1,0:0:0:0:
133,22,186987,2,0,P|99:25|72:38,1,60,10|2,0:2|0:1,0:0:0:0:
27,61,187336,6,0,L|37:183,1,120,14|8,0:2|0:1,0:0:0:0:
9,227,187860,2,0,P|24:287|75:322,1,120,14|8,0:1|0:1,0:0:0:0:
107,358,188383,2,0,P|167:361|229:329,1,120,14|8,0:1|0:1,0:0:0:0:
249,290,188906,1,2,0:1:0:0:
273,187,189255,1,2,0:1:0:0:
273,187,189429,2,0,L|177:196,2,80,10|2|2,0:1|0:0|0:0,0:0:0:0:
311,147,190127,5,14,0:1:0:0:
410,105,190476,1,10,0:1:0:0:
410,105,190650,2,0,P|448:149|451:226,1,120,2|10,0:1|0:1,0:0:0:0:
446,263,191173,1,10,0:2:0:0:
446,263,191348,2,0,B|361:249|314:313|314:313|273:370|209:364|165:365|140:326|164:287|148:261|206:244|230:257,1,420,14|2,0:1|0:1,0:0:0:0:
239,148,192918,5,12,0:2:0:0:
128,153,193266,1,0,0:0:0:0:
128,153,193441,2,0,P|105:96|121:35,1,120,12|12,0:2|0:2,0:0:0:0:
218,2,194139,2,0,B|228:60|293:125|311:28|390:85|447:153|350:175|384:239|452:260|508:261,1,420,12|8,0:2|0:1,0:0:0:0:
468,362,195708,5,12,0:2:0:0:
360,356,196057,1,0,0:0:0:0:
360,356,196232,2,0,P|304:311|280:241,1,120,12|12,0:2|0:2,0:0:0:0:
280,160,196929,2,0,P|231:84|152:140,1,180,12|8,0:2|0:2,0:0:0:0:
98,200,197801,1,8,0:2:0:0:
98,200,197976,2,0,L|106:275,1,60,8|8,0:2|0:2,0:0:0:0:
164,349,198499,6,0,P|231:357|289:318,1,120,12|8,0:1|0:1,0:0:0:0:
353,257,199197,2,0,P|322:236|308:207,1,60,8|0,0:1|0:0,0:0:0:0:
299,163,199546,1,10,0:2:0:0:
227,82,199894,2,0,P|280:54|346:69,1,120,10|8,0:1|0:1,0:0:0:0:
390,80,200418,1,0,0:0:0:0:
390,80,200592,2,0,L|397:160,1,60,10|0,0:1|0:0,0:0:0:0:
431,180,200941,1,10,0:2:0:0:
428,287,201290,6,0,P|382:331|271:316,1,180,14|12,0:2|0:2,0:0:0:0:
144,223,202336,1,12,0:2:0:0:
141,114,202685,1,12,0:2:0:0:
234,57,203034,1,8,0:2:0:0:
234,57,203208,2,0,P|179:13|59:43,1,180,0|8,0:0|0:2,0:0:0:0:
26,123,204080,5,12,0:1:0:0:
13,230,204429,1,8,0:2:0:0:
74,319,204778,1,8,0:2:0:0:
176,354,205127,1,8,0:2:0:0:
282,337,205476,1,12,0:2:0:0:
359,261,205825,2,0,P|398:303|477:312,2,120,8|8|8,0:2|0:2|0:2,0:0:0:0:
284,182,206871,5,12,0:2:0:0:
363,108,207220,1,8,0:2:0:0:
437,186,207569,1,8,0:2:0:0:
460,137,207743,2,0,P|464:79|419:23,1,120,8|8,0:1|0:1,0:0:0:0:
378,13,208266,1,12,0:2:0:0:
272,33,208615,1,12,0:2:0:0:
165,48,208964,1,12,0:2:0:0:
58,66,209313,1,12,0:2:0:0:
129,147,209662,5,12,0:2:0:0:
235,162,210011,1,8,0:2:0:0:
342,176,210360,1,8,0:2:0:0:
448,192,210708,1,8,0:2:0:0:
390,283,211057,1,12,0:2:0:0:
283,298,211406,1,8,0:2:0:0:
176,313,211755,1,8,0:2:0:0:
69,331,212104,1,8,0:2:0:0:
9,240,212453,5,12,0:2:0:0:
9,132,212801,1,8,0:2:0:0:
87,57,213150,1,8,0:2:0:0:
193,40,213499,1,8,0:2:0:0:
293,78,213848,2,0,L|281:221,1,120,12|8,0:2|0:2,0:0:0:0:
248,239,214371,2,0,L|256:308,1,60,8|8,0:1|0:2,0:0:0:0:
289,340,214720,2,0,P|322:355|357:353,1,60,8|8,0:1|0:2,0:0:0:0:
401,343,215069,1,8,0:1:0:0:
401,343,215243,5,12,0:2:0:0:
480,270,215592,1,12,0:2:0:0:
479,161,215941,1,12,0:2:0:0:
418,71,216290,1,12,0:2:0:0:
317,31,216639,1,12,0:2:0:0:
210,48,216987,1,12,0:2:0:0:
131,121,217336,1,12,0:2:0:0:
109,226,217685,1,12,0:2:0:0:
150,325,218034,6,0,P|176:331|211:327,1,60,12|8,0:2|0:2,0:0:0:0:
256,353,218383,2,0,P|277:336|296:307,1,60,8|8,0:2|0:2,0:0:0:0:
349,301,218732,2,0,P|350:274|340:240,1,60,8|8,0:2|0:2,0:0:0:0:
367,195,219080,2,0,P|347:176|315:162,1,60,8|8,0:2|0:2,0:0:0:0:
293,114,219429,2,0,P|217:88|45:292,1,360,12|0,0:2|0:0,0:0:0:0:
90,355,220825,5,14,0:1:0:0:
200,339,221174,1,8,0:2:0:0:
200,339,221348,2,0,B|250:304|250:304|268:243,1,120,2|8,0:0|0:1,0:0:0:0:
276,193,221872,1,10,0:2:0:0:
209,108,222221,1,10,0:1:0:0:
279,26,222569,1,8,0:2:0:0:
279,26,222743,2,0,P|351:22|395:58,1,120,2|8,0:0|0:1,0:0:0:0:
423,89,223267,1,10,0:2:0:0:
461,189,223616,5,10,0:1:0:0:
433,293,223964,2,0,P|416:323|389:337,1,60,8|2,0:2|0:0,0:0:0:0:
341,346,224313,2,0,B|300:334|300:334|262:337|262:337|205:322,1,120,8|10,0:1|0:2,0:0:0:0:
134,265,225011,2,0,P|130:230|137:201,1,60,10|2,0:1|0:0,0:0:0:0:
119,154,225360,2,0,P|143:128|169:115,1,60,10|2,0:2|0:0,0:0:0:0:
187,68,225708,2,0,P|222:70|249:82,1,60,8|8,0:1|0:1,0:0:0:0:
298,70,226057,2,0,P|318:98|327:126,1,60,10|2,0:2|0:0,0:0:0:0:
333,175,226407,5,14,0:1:0:0:
293,277,226756,1,8,0:2:0:0:
293,277,226929,2,0,P|357:288|411:257,1,120,2|8,0:0|0:1,0:0:0:0:
444,227,227453,1,10,0:2:0:0:
483,126,227802,1,10,0:1:0:0:
424,41,228151,1,8,0:2:0:0:
424,41,228325,2,0,B|365:33|365:33|303:56,1,120,2|8,0:0|0:1,0:0:0:0:
257,73,228849,1,10,0:2:0:0:
156,34,229197,6,0,P|147:93|175:144,1,120,14|8,0:1|0:1,0:0:0:0:
199,192,229720,2,0,L|330:185,1,120,14|8,0:1|0:1,0:0:0:0:
369,162,230243,1,8,0:1:0:0:
369,162,230418,1,14,0:1:0:0:
256,192,230592,12,0,233383,0:0:0:0:
