osu file format v14

[General]
AudioFilename: audio.mp3
AudioLeadIn: 0
PreviewTime: 53258
Countdown: 0
SampleSet: Soft
StackLeniency: 0.7
Mode: 0
LetterboxInBreaks: 0
WidescreenStoryboard: 0

[Editor]
Bookmarks: 94609,95015
DistanceSpacing: 3
BeatDivisor: 4
GridSize: 16
TimelineZoom: 2.5

[Metadata]
Title:Stella Breeze
TitleUnicode:ステラブリーズ
Artist:Haruna Luna
ArtistUnicode:春奈るな
Creator:chucentry
Version:Signal
Source:冴えない彼女の育てかた♭
Tags:Heroine no Sodatekata Flat season 2 saekano How to Raise a Boring Girlfriend opening tv size A-1 Pictures
BeatmapID:1271741
BeatmapSetID:602063

[Difficulty]
HPDrainRate:6
CircleSize:4
OverallDifficulty:7
ApproachRate:9
SliderMultiplier:1.7
SliderTickRate:1

[Events]
//Background and Video events
0,0,"bg.jpg",0,0
//Break Periods
2,88728,94009
2,191507,200637
//Storyboard Layer 0 (Background)
//Storyboard Layer 1 (Fail)
//Storyboard Layer 2 (Pass)
//Storyboard Layer 3 (Foreground)
//Storyboard Sound Samples

[TimingPoints]
151,405.405405405405,4,2,1,50,1,0
1367,-125,4,2,1,50,0,0
1772,-100,4,2,1,60,0,0
15150,-125,4,2,1,40,0,0
27718,-100,4,2,1,40,0,0
45556,-166.666666666667,4,2,1,40,0,0
46772,-90.9090909090909,4,2,1,50,0,0
47178,-90.9090909090909,4,2,1,60,0,0
52042,-90.9090909090909,4,2,1,70,0,0
52853,405.405405405405,4,2,1,40,1,0
53258,-166.666666666667,4,2,1,40,0,0
53562,-166.666666666667,4,2,1,5,0,0
53663,-181.818181818182,4,2,1,30,0,0
53967,-181.818181818182,4,2,1,5,0,0
54069,-200,4,2,1,20,0,0
54373,-200,4,2,1,5,0,0
54474,-83.3333333333333,4,2,1,80,0,1
65623,-83.3333333333333,4,2,1,80,0,0
67447,-83.3333333333333,4,2,1,80,0,1
80420,-100,4,2,1,60,0,0
86907,-100,4,2,1,50,0,0
87717,-100,4,2,1,30,0,0
88528,-100,4,2,1,15,0,0
94609,-125,4,2,1,50,0,0
94999,405.405405405405,4,2,1,40,1,0
95607,-125,4,2,1,40,0,0
107971,-100,4,2,1,60,0,0
125809,-166.666666666667,4,2,1,60,0,0
127026,-90.909090909091,4,2,1,60,0,0
133129,405.405405405405,4,2,1,60,1,0
133534,-166.666666666667,4,2,1,40,0,0
133939,-181.818181818182,4,2,1,50,0,0
134345,-200,4,2,1,60,0,0
134750,-83.3333333333333,4,2,1,80,0,1
145899,-83.3333333333333,4,2,1,80,0,0
147723,-83.3333333333333,4,2,1,80,0,1
160595,-83.3333333333333,4,2,1,80,0,0
160696,-100,4,2,1,60,0,1
160797,-100,4,2,1,60,0,0
201237,-166.666666666667,4,2,1,30,0,0
202656,-100,4,2,1,60,0,0
204074,-166.666666666667,4,2,1,60,0,0
204460,-83.3333333333333,4,2,1,80,0,1
215608,-83.3333333333333,4,2,1,80,0,0
217432,-83.3333333333333,4,2,1,80,0,1
230405,-83.3333333333333,4,2,1,80,0,0
238534,-83.3333333333333,4,2,1,50,0,0
241777,-83.3333333333333,4,2,1,30,0,0

[HitObjects]
153,111,1367,6,0,P|152:157|116:206,1,102,10|0,0:3|0:0,0:0:0:0:
20,239,1772,6,0,P|77:233|163:309,1,170,4|8,0:0|0:0,0:0:0:0:
251,231,2380,2,0,P|269:272|264:330,1,85
121,202,2786,2,0,P|113:161|123:104,1,85,0|8,0:0|0:0,0:0:0:0:
314,37,3191,2,0,P|310:57|304:78,1,42.5
191,155,3394,6,0,B|280:125|260:194|361:150,1,170,2|8,0:0|0:0,0:0:0:0:
465,196,4002,1,0,0:0:0:0:
329,270,4205,1,8,0:0:0:0:
329,270,4306,1,0,0:0:0:0:
329,270,4407,1,0,0:0:0:0:
378,135,4610,1,8,0:0:0:0:
439,289,4813,1,0,0:0:0:0:
284,340,5015,6,0,P|247:269|294:196,2,170,2|8|0,0:0|0:0|0:0,0:0:0:0:
439,289,6029,1,2,0:0:0:0:
378,135,6232,1,8,0:0:0:0:
329,270,6434,1,2,0:0:0:0:
215,219,6637,6,0,P|212:173|206:125,1,85,2|0,0:0|0:0,0:0:0:0:
339,94,7042,2,0,P|382:113|453:118,1,85,8|0,0:0|0:0,0:0:0:0:
458,102,7346,1,0,0:0:0:0:
458,102,7448,2,8,L|466:51,2,42.5
400,237,7853,1,8,0:0:0:0:
274,154,8056,1,8,0:0:0:0:
274,154,8157,1,8,0:0:0:0:
274,154,8259,6,0,B|213:147|213:147|170:165|170:165|106:157,1,170,4|8,0:0|0:0,0:0:0:0:
235,237,8867,1,0,0:0:0:0:
49,328,9069,2,0,P|109:312|178:328,1,127.5
203,346,9475,1,8,0:0:0:0:
129,235,9678,1,0,0:0:0:0:
278,274,9880,6,0,L|290:182,1,85,2|0,0:0|0:0,0:0:0:0:
429,93,10286,2,0,L|418:195,1,85,8|0,0:0|0:0,0:0:0:0:
322,53,10691,1,8,0:0:0:0:
322,53,10792,1,0,0:0:0:0:
322,53,10894,1,0,0:0:0:0:
288,189,11096,1,8,0:0:0:0:
185,75,11299,1,0,0:0:0:0:
185,75,11400,1,0,0:0:0:0:
185,75,11502,6,0,P|125:60|39:115,1,170,2|8,0:0|0:0,0:0:0:0:
132,207,12110,1,0,0:0:0:0:
132,207,12211,1,0,0:0:0:0:
132,207,12313,2,0,L|131:165,2,42.5,8|0|0,0:0|0:0|0:0,0:0:0:0:
185,75,12718,1,8,0:0:0:0:
39,116,12921,1,0,0:0:0:0:
75,260,13123,6,0,P|136:285|208:222,1,170,2|8,0:0|0:0,0:0:0:0:
311,142,13732,1,8,0:0:0:0:
311,142,13833,1,8,0:0:0:0:
311,142,13934,2,0,L|302:202,1,42.5,8|0,0:0|0:0,0:0:0:0:
364,325,14137,5,8,0:0:0:0:
313,294,14238,1,0,0:0:0:0:
257,296,14339,1,8,0:0:0:0:
211,328,14441,1,0,0:0:0:0:
165,359,14542,1,8,0:0:0:0:
109,362,14643,1,0,0:0:0:0:
61,334,14745,6,0,L|58:244,1,85,4|0,0:0|0:0,0:0:0:0:
121,97,15150,6,0,L|196:119,1,68,8|0,0:0|0:0,0:0:0:0:
144,252,15556,2,0,L|125:176,1,68
267,155,15961,2,0,L|210:208,1,68,10|0,0:0|0:0,0:0:0:0:
352,118,16367,6,0,L|356:200,1,68,2|0,0:0|0:0,0:0:0:0:
276,69,16772,1,8,0:0:0:0:
438,155,16975,2,0,L|442:237,1,68
317,277,17380,1,0,0:0:0:0:
352,118,17583,1,8,0:0:0:0:
244,198,17786,1,0,0:0:0:0:
244,198,17887,1,0,0:0:0:0:
244,198,17988,6,0,L|176:193,1,68,2|0,0:0|0:0,0:0:0:0:
75,231,18394,1,8,0:0:0:0:
65,115,18596,1,0,0:0:0:0:
132,309,18799,1,0,0:0:0:0:
176,193,19001,1,0,0:0:0:0:
126,341,19205,1,8,0:0:0:0:
75,231,19407,1,0,0:0:0:0:
205,263,19610,6,0,P|249:218|235:144,1,136,2|8,0:0|0:0,0:0:0:0:
121,78,20218,1,0,0:0:0:0:
121,78,20319,1,0,0:0:0:0:
121,78,20421,2,0,L|108:158,1,68
263,12,20826,2,0,L|276:92,1,68,8|0,0:0|0:0,0:0:0:0:
357,198,21232,6,0,P|313:168|229:180,1,136,2|8,0:0|0:0,0:0:0:0:
273,79,21840,1,0,0:0:0:0:
143,212,22042,2,0,L|148:140,1,68
283,245,22448,2,0,L|269:313,1,68,8|0,0:0|0:0,0:0:0:0:
325,153,22853,6,0,L|413:147,1,68,2|0,0:0|0:0,0:0:0:0:
221,197,23259,1,8,0:0:0:0:
248,29,23461,2,0,L|244:113,1,68
346,61,23867,1,0,0:0:0:0:
143,103,24069,1,8,0:0:0:0:
277,180,24272,1,0,0:0:0:0:
150,271,24475,6,0,L|156:194,1,68,2|0,0:0|0:0,0:0:0:0:
244,96,24880,1,8,0:0:0:0:
60,214,25083,2,0,L|66:137,1,68
244,96,25488,1,0,0:0:0:0:
155,203,25691,1,8,0:0:0:0:
141,49,25894,1,0,0:0:0:0:
280,170,26096,6,0,L|322:157,3,34,2|0|0|0,0:0|0:0|0:0|0:0,0:0:0:0:
155,203,26502,2,0,L|113:190,3,34,2|0|0|0,0:0|0:0|0:0|0:0,0:0:0:0:
246,252,26907,1,8,0:0:0:0:
248,274,27008,1,8,0:0:0:0:
250,297,27109,1,8,0:0:0:0:
352,200,27313,1,8,0:0:0:0:
354,177,27414,1,8,0:0:0:0:
357,155,27515,1,8,0:0:0:0:
397,280,27718,6,0,P|327:235|245:251,1,170,6|8,0:0|0:0,0:0:0:0:
80,254,28326,1,0,0:0:0:0:
242,124,28529,1,0,0:0:0:0:
172,321,28732,1,0,0:0:0:0:
150,161,28934,1,8,0:0:0:0:
95,357,29137,1,0,0:0:0:0:
245,250,29340,6,0,L|252:131,1,85,2|0,0:0|0:0,0:0:0:0:
126,247,29745,1,8,0:0:0:0:
343,215,29948,2,0,L|350:96,1,85,0|8,0:0|0:0,0:0:0:0:
348,108,30252,1,0,0:0:0:0:
349,87,30353,1,0,0:0:0:0:
444,185,30556,1,8,0:0:0:0:
351,45,30759,1,0,0:0:0:0:
249,106,30961,6,0,L|245:190,1,85,2|0,0:0|0:0,0:0:0:0:
351,45,31367,1,8,0:0:0:0:
157,137,31569,2,0,L|153:221,1,85
75,111,31975,1,0,0:0:0:0:
249,275,32178,2,0,L|245:190,1,85,8|0,0:0|0:0,0:0:0:0:
111,327,32583,5,2,0:0:0:0:
157,137,32786,1,2,0:0:0:0:
249,275,32988,1,8,0:0:0:0:
64,210,33191,2,0,L|57:105,1,85,0|8,0:0|0:0,0:0:0:0:
56,85,33495,1,0,0:0:0:0:
56,85,33596,1,0,0:0:0:0:
259,197,33799,2,0,P|216:191|160:194,1,85,8|0,0:0|0:0,0:0:0:0:
60,276,34103,1,0,0:0:0:0:
60,276,34205,6,0,P|123:236|218:282,1,170,4|8,0:0|0:0,0:0:0:0:
137,343,34813,1,0,0:0:0:0:
286,333,35015,2,0,L|293:234,1,85
154,131,35421,2,0,L|159:215,1,85,8|0,0:0|0:0,0:0:0:0:
381,215,35826,6,0,P|323:156|242:165,1,170,2|8,0:0|0:0,0:0:0:0:
291,248,36434,1,0,0:0:0:0:
173,116,36637,2,0,P|160:155|164:197,1,85
318,118,37042,2,0,P|322:76|308:36,1,85,8|0,0:0|0:0,0:0:0:0:
99,242,37448,6,0,P|170:280|236:234,1,170,2|8,0:0|0:0,0:0:0:0:
313,316,38056,1,0,0:0:0:0:
384,209,38259,2,0,L|379:118,1,85
235,234,38664,1,8,0:0:0:0:
229,85,38867,1,8,0:0:0:0:
229,85,38968,1,8,0:0:0:0:
229,85,39069,6,8,L|237:27,3,42.5,10|8|8|8,0:0|0:0|0:0|0:0,0:0:0:0:
148,151,39475,2,8,L|153:193,3,42.5
235,234,39880,1,10,0:0:0:0:
323,119,40083,1,8,0:0:0:0:
372,138,40184,1,8,0:0:0:0:
405,178,40285,1,8,0:0:0:0:
413,231,40387,1,8,0:0:0:0:
394,279,40488,2,0,L|330:293,1,42.5,8|8,0:0|0:0,0:0:0:0:
159,347,40691,5,10,0:0:0:0:
159,347,41299,2,0,L|157:209,1,127.5,2|0,0:3|0:0,0:0:0:0:
156,140,41705,1,2,0:0:0:0:
282,301,41907,2,0,L|369:287,1,85,8|0,0:0|0:0,0:0:0:0:
73,238,42313,5,10,0:0:0:0:
73,238,42921,1,2,0:2:0:0:
174,236,43123,2,0,L|280:231,1,85,8|0,0:0|0:0,0:0:0:0:
362,196,43529,5,8,0:0:0:0:
117,338,43732,1,2,0:0:0:0:
174,236,43934,6,0,B|193:173|193:173|166:105,2,127.5,2|2|10,0:0|0:0|0:3,0:0:0:0:
26,177,44745,2,0,B|69:167|69:167|108:177,1,85
212,311,45150,1,8,0:0:0:0:
212,311,45252,1,8,0:0:0:0:
212,311,45353,1,8,0:0:0:0:
212,311,45455,1,8,0:0:0:0:
212,311,45556,6,0,P|173:287|106:293,1,101.999996887207,4|0,0:0|0:0,0:0:0:0:
319,237,46367,6,0,P|353:216|411:221,1,76.4999976654053,4|0,0:0|0:0,0:0:0:0:
381,301,46772,6,0,L|376:349,1,46.7500014266968,8|0,0:3|0:3,0:3:0:0:
233,210,46975,2,0,L|237:256,1,46.7500014266968,8|0,0:3|0:3,0:3:0:0:
356,122,47178,5,12,0:0:0:0:
157,61,47380,1,2,0:0:0:0:
379,124,47583,5,8,0:0:0:0:
114,200,47786,1,2,0:0:0:0:
356,270,47988,5,8,0:0:0:0:
86,196,48191,1,2,0:0:0:0:
379,124,48394,5,8,0:0:0:0:
177,326,48596,1,2,0:0:0:0:
157,83,48799,5,8,0:0:0:0:
178,353,49001,1,2,0:0:0:0:
379,124,49205,5,8,0:0:0:0:
105,215,49407,1,2,0:0:0:0:
334,308,49610,5,8,0:0:0:0:
77,207,49813,1,2,0:0:0:0:
316,208,50015,5,8,0:0:0:0:
71,331,50218,1,2,0:0:0:0:
95,115,50421,5,8,0:0:0:0:
117,75,50522,1,8,0:0:0:0:
158,53,50623,1,8,0:0:0:0:
204,58,50725,1,8,0:0:0:0:
239,88,50826,1,8,0:0:0:0:
267,121,50928,1,8,0:0:0:0:
312,134,51029,1,8,0:0:0:0:
355,118,51131,1,8,0:0:0:0:
385,84,51232,6,8,L|390:24,1,46.7500014266968
235,146,51434,2,8,L|239:193,1,46.7500014266968
411,251,51637,6,8,L|364:255,1,46.7500014266968
265,329,51840,2,8,L|215:318,1,46.7500014266968
91,242,52042,6,0,L|81:97,2,140.25000428009,12|8|8,0:0|0:0|0:0,0:0:0:0:
203,164,52853,5,8,0:0:0:0:
203,164,53258,6,0,L|206:242,1,76.4999976654053,2|0,0:0|0:0,0:0:0:0:
196,147,53663,6,0,L|184:224,1,70.1250021400452,2|0,0:0|0:0,0:0:0:0:
189,130,54069,6,0,L|162:203,1,63.75,2|0,0:0|0:0,0:0:0:0:
81,288,54474,6,2,B|161:254|153:319|239:273,1,152.999995330811,6|2,0:0|0:0,0:0:0:0:
299,220,54880,1,8,0:0:0:0:
99,145,55082,1,0,0:0:0:0:
82,140,55183,1,0,0:0:0:0:
65,135,55284,1,8,0:0:0:0:
320,237,55488,2,2,L|420:219,1,101.999996887207,2|10,0:0|0:0,0:0:0:0:
128,353,55893,1,0,0:0:0:0:
134,49,56096,6,2,P|198:123|173:207,1,152.999995330811
151,247,56501,1,8,0:0:0:0:
334,144,56704,1,0,0:0:0:0:
269,337,56907,1,8,0:0:0:0:
266,311,57008,1,0,0:0:0:0:
264,286,57109,1,0,0:0:0:0:
393,81,57312,2,0,P|417:126|406:190,1,101.999996887207,8|0,0:0|0:0,0:0:0:0:
138,151,57717,6,2,B|243:96|231:184|333:143,1,203.999993774414,2|10,0:0|0:0,0:0:0:0:
194,211,58325,1,0,0:0:0:0:
191,236,58426,1,0,0:0:0:0:
189,261,58527,1,0,0:0:0:0:
284,68,58731,1,0,0:0:0:0:
305,255,58934,1,8,0:0:0:0:
138,151,59136,1,2,0:0:0:0:
305,255,59339,6,2,B|371:258|429:243|429:243|405:285,1,152.999995330811
345,348,59744,2,0,P|297:335|245:328,1,101.999996887207,8|0,0:0|0:0,0:0:0:0:
83,272,60150,1,8,0:0:0:0:
83,296,60251,1,8,0:0:0:0:
84,321,60352,1,8,0:0:0:0:
168,191,60555,1,8,0:0:0:0:
211,165,60656,1,8,0:0:0:0:
260,171,60757,1,8,0:0:0:0:
297,205,60859,1,8,0:0:0:0:
305,255,60961,6,2,L|320:81,1,152.999995330811,6|2,0:0|0:0,0:0:0:0:
399,166,61366,1,8,0:0:0:0:
211,263,61569,1,0,0:0:0:0:
399,166,61771,2,0,L|507:153,1,101.999996887207,2|0,0:0|0:0,0:0:0:0:
238,25,62177,2,0,P|228:79|224:151,1,101.999996887207,8|0,0:0|0:0,0:0:0:0:
399,292,62582,6,2,B|333:254|319:314|244:279,1,152.999995330811
175,250,62988,1,8,0:0:0:0:
355,357,63190,1,0,0:0:0:0:
277,176,63393,1,8,0:0:0:0:
278,193,63494,1,0,0:0:0:0:
280,210,63595,1,0,0:0:0:0:
434,117,63798,2,0,P|397:89|333:83,1,101.999996887207,8|0,0:0|0:0,0:0:0:0:
71,187,64204,6,2,L|172:196,1,101.999996887207
357,166,64609,1,8,0:0:0:0:
270,328,64812,2,2,P|279:277|280:226,1,101.999996887207
395,79,65217,5,2,0:0:0:0:
161,159,65420,1,8,0:0:0:0:
409,260,65623,6,2,B|313:215|314:300|208:243,1,203.999993774414,6|2,0:0|0:0,0:0:0:0:
83,139,66231,1,8,0:0:0:0:
268,24,66434,1,8,0:0:0:0:
281,38,66535,1,8,0:0:0:0:
295,52,66636,2,8,L|302:117,1,50.9999984436036
154,190,66839,2,8,L|168:138,1,50.9999984436036
316,295,67042,5,8,0:0:0:0:
365,300,67143,1,8,0:0:0:0:
408,275,67244,1,8,0:0:0:0:
426,228,67346,1,8,0:0:0:0:
412,180,67447,6,2,B|329:141|352:202|252:167,1,152.999995330811,6|2,0:0|0:0,0:0:0:0:
191,123,67852,1,8,0:0:0:0:
353,63,68055,2,0,L|303:73,1,50.9999984436036,2|0,0:0|0:0,0:0:0:0:
83,194,68258,2,0,L|185:207,1,101.999996887207,2|0,0:0|0:0,0:0:0:0:
365,238,68663,1,8,0:0:0:0:
191,123,68866,1,0,0:0:0:0:
311,302,69069,6,2,P|406:312|448:242,1,152.999995330811
447,225,69474,1,8,0:0:0:0:
314,114,69677,2,0,L|317:164,1,50.9999984436036,2|0,0:0|0:0,0:0:0:0:
202,321,69880,2,0,L|208:271,1,50.9999984436036,8|0,0:0|0:0,0:0:0:0:
160,158,70082,1,0,0:0:0:0:
365,238,70285,2,0,L|484:220,1,101.999996887207,8|0,0:0|0:0,0:0:0:0:
202,321,70690,6,2,P|126:311|38:301,1,152.999995330811
17,226,71096,2,0,P|72:230|138:222,1,101.999996887207,8|0,0:0|0:0,0:0:0:0:
292,182,71501,2,0,L|284:233,1,50.9999984436036,8|0,0:0|0:0,0:0:0:0:
160,158,71704,2,0,L|153:54,1,101.999996887207,0|8,0:0|0:0,0:0:0:0:
17,226,72109,1,2,0:0:0:0:
224,305,72312,6,2,B|323:346|318:262|432:318,1,203.999993774414,6|10,0:0|0:0,0:0:0:0:
292,182,72920,1,8,0:0:0:0:
292,182,73021,1,8,0:0:0:0:
292,182,73123,2,0,L|300:132,1,50.9999984436036,8|0,0:0|0:0,0:0:0:0:
315,29,73325,1,2,0:0:0:0:
149,140,73528,6,0,L|142:89,1,50.9999984436036,12|0,0:0|0:0,0:0:0:0:
89,263,73731,2,0,L|119:303,1,50.9999984436036,12|0,0:0|0:0,0:0:0:0:
359,308,73934,6,2,P|325:245|203:244,1,203.999993774414,6|10,0:0|0:0,0:0:0:0:
257,330,74542,1,0,0:0:0:0:
336,206,74744,1,8,0:0:0:0:
337,189,74845,1,0,0:0:0:0:
339,172,74946,1,0,0:0:0:0:
359,308,75150,1,8,0:0:0:0:
229,147,75352,1,0,0:0:0:0:
128,313,75555,6,2,B|74:344|29:317|29:317|24:261|76:209,1,203.999993774414,2|10,0:0|0:0,0:0:0:0:
144,60,76163,1,8,0:0:0:0:
154,71,76265,1,8,0:0:0:0:
164,82,76366,2,0,L|242:71,1,50.9999984436036,8|0,0:0|0:0,0:0:0:0:
331,185,76569,2,0,L|253:174,1,50.9999984436036,8|0,0:0|0:0,0:0:0:0:
139,232,76771,1,8,0:0:0:0:
365,341,76974,5,8,0:0:0:0:
365,341,77075,1,0,0:0:0:0:
365,341,77177,6,2,B|333:305|295:306|295:306|276:338|236:343|236:343|208:345|160:331,1,203.999993774414,4|8,0:0|0:0,0:0:0:0:
115,151,77785,1,0,0:0:0:0:
115,151,77886,1,0,0:0:0:0:
115,151,77988,1,8,0:0:0:0:
226,264,78190,1,0,0:0:0:0:
60,335,78393,1,8,0:0:0:0:
191,184,78596,1,0,0:0:0:0:
191,184,78697,1,0,0:0:0:0:
191,184,78798,6,2,P|251:180|305:297,1,203.999993774414,2|10,0:0|0:0,0:0:0:0:
340,82,79407,1,2,0:0:0:0:
226,264,79609,1,8,0:0:0:0:
103,111,79812,5,8,0:0:0:0:
110,106,79913,1,8,0:0:0:0:
117,101,80015,2,8,L|181:107,1,50.9999984436036
350,184,80217,2,8,L|286:190,1,50.9999984436036
59,295,80420,6,2,P|105:288|159:289,1,85,6|2,0:0|0:0,0:0:0:0:
350,184,80825,1,8,0:0:0:0:
229,64,81028,2,2,B|264:158|189:141|232:240,1,170,6|2,0:0|0:0,0:0:0:0:
150,336,81636,1,8,0:0:0:0:
429,334,81839,6,2,P|395:277|280:288,1,170,6|2,0:0|0:0,0:0:0:0:
387,105,82447,1,8,0:0:0:0:
105,165,82650,6,2,B|165:159|165:159|211:183|211:183|280:180,1,170,6|2,0:0|0:0,0:0:0:0:
453,225,83258,1,8,0:0:0:0:
466,186,83359,1,8,0:0:0:0:
457,145,83461,1,8,0:0:0:0:
427,115,83562,1,8,0:0:0:0:
387,105,83663,6,2,L|291:97,1,85,6|2,0:0|0:0,0:0:0:0:
112,185,84069,1,8,0:0:0:0:
254,340,84271,2,2,B|280:272|247:220|247:220|274:167,1,170,6|2,0:0|0:0,0:0:0:0:
204,47,84880,1,8,0:0:0:0:
114,295,85082,6,2,P|183:311|169:241,1,170,6|2,0:0|0:0,0:0:0:0:
37,237,85690,1,8,0:0:0:0:
330,174,85893,1,6,0:0:0:0:
256,192,85994,12,2,88528,0:0:0:0:
430,277,94609,6,0,B|387:253|387:253|330:265,1,102,2|0,0:0|0:0,0:0:0:0:
288,337,94999,6,0,L|305:152,1,170,4|8,0:0|0:0,0:0:0:0:
313,79,95607,1,0,0:0:0:0:
221,202,95809,1,0,0:0:0:0:
179,75,96012,1,0,0:0:0:0:
303,167,96215,1,8,0:0:0:0:
244,30,96417,1,0,0:0:0:0:
303,167,96620,6,0,L|390:162,1,68,2|0,0:0|0:0,0:0:0:0:
221,202,97026,1,8,0:0:0:0:
244,30,97228,2,0,L|250:126,1,68
327,262,97634,1,0,0:0:0:0:
221,202,97836,1,8,0:0:0:0:
378,95,98039,1,2,0:0:0:0:
378,95,98140,1,0,0:0:0:0:
378,95,98242,6,0,P|373:131|368:190,1,68,2|0,0:0|0:0,0:0:0:0:
339,267,98647,1,8,0:0:0:0:
221,202,98850,1,0,0:0:0:0:
363,282,99053,1,0,0:0:0:0:
228,284,99256,1,0,0:0:0:0:
387,297,99458,1,8,0:0:0:0:
275,352,99661,1,0,0:0:0:0:
111,332,99863,6,0,P|98:276|151:213,1,136,2|8,0:0|0:0,0:0:0:0:
263,163,100471,1,0,0:0:0:0:
263,163,100573,1,0,0:0:0:0:
263,163,100674,2,0,L|271:115,2,34
178,285,101080,1,8,0:0:0:0:
60,205,101282,1,0,0:0:0:0:
60,205,101384,1,0,0:0:0:0:
60,205,101485,6,0,P|97:151|168:146,1,136,2|8,0:0|0:0,0:0:0:0:
266,84,102093,1,0,0:0:0:0:
344,164,102296,2,0,P|335:207|327:246,1,68
221,241,102701,2,0,P|230:284|238:323,1,68,8|0,0:0|0:0,0:0:0:0:
349,344,103107,6,0,P|409:335|432:329,1,68,2|0,0:0|0:0,0:0:0:0:
476,224,103512,2,0,P|415:217|391:217,1,68,8|0,0:0|0:0,0:0:0:0:
167,300,103917,2,0,P|227:306|251:306,1,68
294,180,104323,1,8,0:0:0:0:
166,107,104526,2,0,L|171:159,1,34
372,162,104728,6,0,P|331:109|265:108,1,136,2|8,0:0|0:0,0:0:0:0:
79,252,105336,2,0,P|202:239|231:236,1,136
314,292,105944,1,8,0:0:0:0:
201,154,106147,1,0,0:0:0:0:
355,179,106350,6,0,L|409:165,3,34,2|0|0|0,0:0|0:0|0:0|0:0,0:0:0:0:
201,154,106755,2,0,L|173:105,3,34,2|0|0|0,0:0|0:0|0:0|0:0,0:0:0:0:
272,278,107161,1,8,0:0:0:0:
274,300,107262,1,8,0:0:0:0:
276,323,107363,1,8,0:0:0:0:
124,231,107566,1,8,0:0:0:0:
126,208,107667,1,8,0:0:0:0:
128,186,107768,1,8,0:0:0:0:
359,242,107971,6,0,P|299:185|218:198,1,170,4|8,0:0|0:0,0:0:0:0:
99,150,108580,1,0,0:0:0:0:
175,337,108782,1,0,0:0:0:0:
30,256,108985,1,0,0:0:0:0:
218,197,109188,1,8,0:0:0:0:
75,341,109390,1,0,0:0:0:0:
99,150,109593,6,0,P|104:196|109:251,1,85,2|0,0:0|0:0,0:0:0:0:
192,75,109998,1,8,0:0:0:0:
328,192,110201,2,0,P|285:192|243:197,1,85
222,212,110505,1,0,0:0:0:0:
203,230,110607,1,0,0:0:0:0:
397,336,110809,2,0,P|407:294|413:241,1,85,8|0,0:0|0:0,0:0:0:0:
399,96,111215,6,0,P|362:45|256:42,1,170,2|8,0:0|0:0,0:0:0:0:
161,98,111823,1,0,0:0:0:0:
287,198,112026,2,0,P|295:156|306:115,1,85
162,214,112431,2,0,P|173:254|181:296,1,85,8|0,0:0|0:0,0:0:0:0:
352,343,112836,5,2,0:0:0:0:
287,198,113039,1,0,0:0:0:0:
181,376,113242,1,8,0:0:0:0:
369,329,113444,1,0,0:0:0:0:
189,263,113647,2,0,L|140:257,2,42.5,2|0|0,0:0|0:0|0:0,0:0:0:0:
369,236,114053,1,8,0:0:0:0:
379,233,114154,1,8,0:0:0:0:
389,231,114255,2,0,P|395:205|402:175,1,42.5,8|0,0:0|0:0,0:0:0:0:
305,94,114458,6,0,B|242:80|242:80|205:103|205:103|122:93,1,170,4|8,0:0|0:0,0:0:0:0:
189,263,115066,2,0,B|237:257|280:254,1,85
399,189,115471,1,0,0:0:0:0:
215,128,115674,1,8,0:0:0:0:
399,189,115877,2,0,L|461:173,1,42.5,2|0,0:0|0:0,0:0:0:0:
320,327,116080,6,0,P|238:328|188:262,1,170,2|8,0:0|0:0,0:0:0:0:
321,210,116688,1,0,0:0:0:0:
142,108,116890,1,2,0:0:0:0:
144,136,116991,1,2,0:0:0:0:
147,164,117092,1,2,0:0:0:0:
285,110,117296,2,0,P|297:67|303:23,1,85,8|0,0:0|0:0,0:0:0:0:
84,241,117701,6,0,P|149:195|239:213,1,170,2|8,0:0|0:0,0:0:0:0:
330,156,118309,1,0,0:0:0:0:
239,22,118512,2,0,P|234:66|223:113,1,85
84,241,118917,2,0,P|78:198|77:156,1,85,8|0,0:0|0:0,0:0:0:0:
195,225,119323,5,8,0:0:0:0:
234,210,119424,1,8,0:0:0:0:
275,217,119525,1,8,0:0:0:0:
308,244,119627,1,8,0:0:0:0:
322,283,119728,2,0,L|310:372,1,85,8|8,0:0|0:0,0:0:0:0:
415,268,120032,1,8,0:0:0:0:
427,243,120134,2,0,L|414:183,1,42.5,8|0,0:0|0:0,0:0:0:0:
272,133,120336,5,8,0:0:0:0:
230,128,120437,1,8,0:0:0:0:
191,145,120538,1,8,0:0:0:0:
166,179,120640,1,8,0:0:0:0:
161,221,120742,2,0,L|168:297,1,42.5,8|0,0:0|0:0,0:0:0:0:
100,71,120944,5,12,0:0:0:0:
100,71,121553,6,0,L|107:216,1,127.5,2|0,0:3|0:0,0:0:0:0:
109,278,121958,1,2,0:0:0:0:
307,172,122161,2,0,L|297:266,1,85,8|0,0:0|0:0,0:0:0:0:
205,35,122566,5,8,0:0:0:0:
205,35,123174,1,8,0:0:0:0:
96,32,123377,2,0,L|100:124,1,85,2|0,0:0|0:0,0:0:0:0:
88,307,123782,5,8,0:0:0:0:
255,145,123985,1,8,0:0:0:0:
191,233,124188,6,0,B|250:256|250:256|311:239,2,127.5,2|0|0,0:0|0:0|0:0,0:0:0:0:
105,177,124998,2,0,B|89:218|89:218|91:262,1,85,2|0,0:0|0:0,0:0:0:0:
240,351,125404,1,8,0:0:0:0:
240,351,125505,1,8,0:0:0:0:
240,351,125607,1,8,0:0:0:0:
240,351,125708,1,8,0:0:0:0:
240,351,125809,6,0,P|256:304|269:244,1,101.999996887207,12|0,0:0|0:0,0:0:0:0:
355,89,126620,2,0,P|360:139|371:179,1,76.4999976654053,4|0,0:0|0:0,0:0:0:0:
382,195,127026,1,8,0:3:0:0:
381,241,127127,1,8,0:3:0:0:
350,274,127228,1,8,0:3:0:0:
304,279,127330,1,8,0:3:0:0:
267,252,127431,5,12,0:0:0:0:
284,42,127634,1,2,0:0:0:0:
186,329,127836,5,8,0:0:0:0:
169,119,128039,1,2,0:0:0:0:
65,253,128242,5,8,0:0:0:0:
124,33,128445,1,2,0:0:0:0:
272,251,128647,5,8,0:0:0:0:
48,273,128850,1,2,0:0:0:0:
291,264,129053,5,8,0:0:0:0:
139,48,129255,1,2,0:0:0:0:
366,164,129458,5,8,0:0:0:0:
88,236,129660,1,2,0:0:0:0:
415,278,129863,5,8,0:0:0:0:
213,74,130065,1,2,0:0:0:0:
415,278,130269,5,8,0:0:0:0:
88,236,130471,1,2,0:0:0:0:
293,201,130674,5,8,0:0:0:0:
325,154,130775,1,8,0:0:0:0:
315,98,130876,1,8,0:0:0:0:
268,65,130978,1,8,0:0:0:0:
213,74,131080,2,8,L|204:137,1,46.7500014266968
88,236,131282,2,8,L|83:189,1,46.7500014266968
197,295,131485,5,8,0:0:0:0:
240,332,131586,1,8,0:0:0:0:
297,336,131687,1,8,0:0:0:0:
344,304,131789,1,8,0:0:0:0:
362,249,131890,2,8,L|356:192,1,46.7500014266968
213,74,132093,2,8,L|204:131,1,46.7500014266968
388,25,132296,5,8,0:0:0:0:
274,254,132600,1,8,0:0:0:0:
498,172,132904,1,8,0:0:0:0:
312,118,133129,5,12,0:0:0:0:
312,118,133534,6,0,L|314:25,1,76.4999976654053,2|0,0:0|0:0,0:0:0:0:
332,137,133939,6,0,L|349:55,1,70.1250021400452,2|0,0:0|0:0,0:0:0:0:
345,156,134345,6,0,L|372:91,1,63.75,2|0,0:0|0:0,0:0:0:0:
407,249,134750,6,0,P|369:209|273:217,1,152.999995330811,6|0,0:0|0:0,0:0:0:0:
187,187,135156,2,0,L|199:297,1,101.999996887207,8|0,0:0|0:0,0:0:0:0:
246,84,135561,1,0,0:0:0:0:
65,181,135764,1,0,0:0:0:0:
267,70,135966,2,0,P|323:66|376:60,1,101.999996887207,8|0,0:0|0:0,0:0:0:0:
140,28,136372,6,0,B|108:129|186:113|154:229,1,203.999993774414,2|8,0:0|0:0,0:0:0:0:
312,150,136980,1,0,0:0:0:0:
239,337,137183,1,0,0:0:0:0:
235,303,137284,1,0,0:0:0:0:
231,269,137385,1,0,0:0:0:0:
367,302,137588,2,0,P|418:289|474:279,1,101.999996887207,8|0,0:0|0:0,0:0:0:0:
312,150,137993,6,0,P|238:148|152:138,1,152.999995330811,2|0,0:0|0:0,0:0:0:0:
88,190,138399,1,8,0:0:0:0:
239,67,138601,1,0,0:0:0:0:
264,63,138702,1,0,0:0:0:0:
289,59,138803,1,0,0:0:0:0:
204,235,139007,1,0,0:0:0:0:
413,157,139210,2,0,P|365:155|311:149,1,101.999996887207,8|0,0:0|0:0,0:0:0:0:
77,129,139615,6,0,P|126:62|243:70,1,203.999993774414,2|8,0:0|0:0,0:0:0:0:
155,254,140223,1,0,0:0:0:0:
350,246,140426,1,8,0:0:0:0:
344,278,140527,1,8,0:0:0:0:
340,312,140628,1,8,0:0:0:0:
226,204,140831,1,8,0:0:0:0:
183,176,140932,1,8,0:0:0:0:
133,176,141033,1,8,0:0:0:0:
91,204,141135,1,8,0:0:0:0:
70,250,141237,6,0,L|67:82,1,152.999995330811,4|0,0:0|0:0,0:0:0:0:
112,23,141642,1,8,0:0:0:0:
264,126,141845,1,0,0:0:0:0:
153,263,142047,2,0,L|147:154,1,101.999996887207
194,39,142453,1,8,0:0:0:0:
348,121,142656,1,0,0:0:0:0:
348,121,142757,1,0,0:0:0:0:
348,121,142858,6,0,P|286:151|263:264,1,152.999995330811,2|0,0:0|0:0,0:0:0:0:
265,265,143264,1,8,0:0:0:0:
188,129,143466,1,0,0:0:0:0:
350,211,143669,1,8,0:0:0:0:
383,207,143770,1,0,0:0:0:0:
417,203,143871,1,0,0:0:0:0:
295,83,144074,2,0,L|288:143,1,50.9999984436036,8|0,0:0|0:0,0:0:0:0:
186,303,144277,2,0,L|183:252,1,50.9999984436036
86,132,144480,6,0,P|137:131|188:129,1,101.999996887207,2|0,0:0|0:0,0:0:0:0:
350,211,144885,1,8,0:0:0:0:
190,353,145088,2,0,P|184:300|182:247,1,101.999996887207
265,89,145493,1,0,0:0:0:0:
68,236,145696,1,8,0:0:0:0:
261,297,145899,6,0,B|325:281|325:281|384:311|384:311|457:291,1,203.999993774414,4|0,0:0|0:0,0:0:0:0:
389,122,146507,1,8,0:0:0:0:
188,251,146710,1,8,0:0:0:0:
181,266,146811,1,8,0:0:0:0:
175,282,146912,2,8,L|180:332,1,50.9999984436036
303,157,147115,2,8,L|295:207,1,50.9999984436036
51,203,147318,6,8,L|125:201,1,50.9999984436036
253,43,147520,2,8,L|178:44,1,50.9999984436036
76,116,147723,6,0,B|130:112|130:112|169:131|169:131|238:123,1,152.999995330811,4|0,0:0|0:0,0:0:0:0:
306,110,148129,1,8,0:0:0:0:
152,209,148331,2,0,L|91:199,1,50.9999984436036
313,247,148534,2,0,P|367:238|433:226,1,101.999996887207
165,302,148939,1,8,0:0:0:0:
306,110,149142,1,0,0:0:0:0:
68,42,149345,6,0,B|82:109|82:109|51:160|51:160|66:234,1,203.999993774414,2|8,0:0|0:0,0:0:0:0:
313,247,149953,2,0,P|286:239|252:230,1,50.9999984436036
127,337,150156,2,0,P|134:310|144:275,1,50.9999984436036,8|0,0:0|0:0,0:0:0:0:
164,143,150358,1,0,0:0:0:0:
313,247,150561,2,0,P|369:241|425:236,1,101.999996887207,8|0,0:0|0:0,0:0:0:0:
240,87,150966,6,0,P|166:56|72:127,1,203.999993774414,2|8,0:0|0:0,0:0:0:0:
339,135,151574,2,0,P|348:82|359:31,1,101.999996887207
167,148,151980,2,0,P|173:198|177:249,1,101.999996887207,0|8,0:0|0:0,0:0:0:0:
392,294,152385,2,0,P|382:267|371:238,1,50.9999984436036
118,308,152588,6,0,P|188:331|260:234,1,203.999993774414,2|8,0:0|0:0,0:0:0:0:
331,86,153196,2,8,L|332:156,1,50.9999984436036
177,249,153399,2,8,L|173:198,1,50.9999984436036
202,55,153601,1,8,0:0:0:0:
393,322,153804,5,8,0:0:0:0:
344,360,153905,1,8,0:0:0:0:
283,352,154006,1,8,0:0:0:0:
248,301,154108,1,8,0:0:0:0:
260,240,154210,6,0,B|355:273|355:200|473:254,2,203.999993774414,4|8|0,0:0|0:0|0:0,0:0:0:0:
149,197,155223,1,0,0:0:0:0:
302,64,155426,2,0,P|304:116|307:174,1,101.999996887207,8|0,0:0|0:0,0:0:0:0:
140,342,155831,6,0,B|102:298|105:227|149:196|149:196|167:218|194:248,1,203.999993774414,2|8,0:0|0:0,0:0:0:0:
327,348,156439,1,0,0:0:0:0:
333,337,156540,1,0,0:0:0:0:
340,325,156642,2,0,L|353:253,1,50.9999984436036
219,111,156845,2,0,L|221:161,1,50.9999984436036
420,208,157047,2,0,P|376:184|312:189,1,101.999996887207,8|0,0:0|0:0,0:0:0:0:
32,301,157453,6,0,B|97:288|97:288|165:312|165:312|239:303,1,203.999993774414,2|8,0:0|0:0,0:0:0:0:
96,169,158061,1,0,0:0:0:0:
92,188,158162,1,0,0:0:0:0:
90,208,158263,1,0,0:0:0:0:
262,183,158466,1,0,0:0:0:0:
93,368,158669,1,8,0:0:0:0:
345,323,158872,5,8,0:0:0:0:
345,323,158973,1,8,0:0:0:0:
345,323,159074,2,0,L|273:308,1,50.9999984436036,8|0,0:0|0:0,0:0:0:0:
90,208,159277,2,0,L|162:197,1,50.9999984436036
358,170,159480,1,8,0:0:0:0:
284,26,159683,5,8,0:0:0:0:
284,26,159784,1,8,0:0:0:0:
284,26,159885,2,8,L|276:91,1,50.9999984436036
140,200,160088,2,8,L|139:150,1,50.9999984436036
358,170,160291,6,8,L|287:163,1,50.9999984436036
91,279,160493,2,8,L|141:287,1,50.9999984436036
405,278,160696,6,0,B|345:269|345:269|305:291|305:291|242:279,1,170,4|8,0:0|0:0,0:0:0:0:
291,187,161304,1,0,0:0:0:0:
439,97,161507,1,0,0:0:0:0:
405,278,161710,2,0,P|401:235|396:193,1,85,0|8,0:0|0:0,0:0:0:0:
254,43,162115,1,0,0:0:0:0:
254,43,162216,1,0,0:0:0:0:
254,43,162318,6,0,P|207:85|214:186,1,170,2|8,0:0|0:0,0:0:0:0:
405,278,162926,1,8,0:0:0:0:
390,276,163027,1,8,0:0:0:0:
376,274,163128,2,0,L|301:293,1,42.5,8|0,0:0|0:0,0:0:0:0:
427,154,163331,1,0,0:0:0:0:
477,340,163534,2,0,P|486:296|492:245,1,85,8|0,0:0|0:0,0:0:0:0:
473,87,163838,1,0,0:0:0:0:
473,87,163939,6,0,P|411:73|348:153,1,170,2|8,0:0|0:0,0:0:0:0:
209,50,164547,1,8,0:0:0:0:
211,72,164648,1,8,0:0:0:0:
214,94,164750,2,0,L|201:165,1,42.5,8|0,0:0|0:0,0:0:0:0:
86,246,164953,1,0,0:0:0:0:
110,94,165156,1,8,0:0:0:0:
227,269,165358,1,8,0:0:0:0:
227,269,165460,1,8,0:0:0:0:
227,269,165561,6,0,L|301:264,1,42.5,8|0,0:0|0:0,0:0:0:0:
397,212,165764,2,0,L|387:301,1,85,2|8,0:0|0:3,0:0:0:0:
266,88,166169,2,8,L|260:29,2,42.5,8|8|8,0:3|0:3|0:3,0:3:0:0:
479,178,166574,5,8,0:3:0:0:
444,134,166675,1,8,0:3:0:0:
390,120,166776,1,8,0:3:0:0:
339,142,166878,1,8,0:3:0:0:
293,176,166980,1,8,0:3:0:0:
238,178,167081,1,8,0:3:0:0:
195,146,167183,6,0,B|156:120|156:120|160:258,1,170,4|8,0:0|0:0,0:0:0:0:
397,212,167791,1,0,0:0:0:0:
266,88,167993,1,0,0:0:0:0:
239,288,168196,1,0,0:0:0:0:
417,196,168399,1,8,0:0:0:0:
195,146,168601,1,0,0:0:0:0:
353,20,168804,6,0,P|374:56|377:124,1,85,2|0,0:0|0:0,0:0:0:0:
305,245,169108,1,2,0:0:0:0:
290,222,169210,2,0,P|278:181|283:139,1,85,2|0,0:0|0:0,0:0:0:0:
417,196,169514,1,2,0:0:0:0:
435,227,169615,2,0,P|430:270|419:306,1,42.5,2|0,0:0|0:0,0:0:0:0:
294,332,169818,1,0,0:0:0:0:
380,98,170020,1,8,0:0:0:0:
453,258,170223,1,0,0:0:0:0:
327,191,170426,5,2,0:0:0:0:
290,164,170527,1,2,0:0:0:0:
246,158,170628,1,2,0:0:0:0:
203,171,170730,1,2,0:0:0:0:
171,202,170831,1,2,0:0:0:0:
155,243,170933,1,2,0:0:0:0:
121,269,171034,1,2,0:0:0:0:
76,269,171135,1,2,0:0:0:0:
43,241,171237,6,8,L|28:189,1,42.5
136,68,171439,2,8,L|127:131,1,42.5
260,287,171642,6,8,L|251:224,1,42.5
364,76,171845,2,8,L|357:117,1,42.5
426,249,172047,6,0,L|341:244,1,85,4|0,0:0|0:0,0:0:0:0:
99,196,172453,5,8,0:0:0:0:
393,52,172656,1,6,0:0:0:0:
244,348,173061,6,0,B|230:308|230:308|250:269|250:269|231:236|231:236|251:198|251:198|241:153,1,212.5,2|0,0:0|0:0,0:0:0:0:
141,183,173669,5,8,0:0:0:0:
335,156,173872,1,8,0:0:0:0:
323,104,173973,1,8,0:0:0:0:
285,68,174074,1,8,0:0:0:0:
234,60,174176,1,8,0:0:0:0:
186,81,174277,1,8,0:0:0:0:
275,268,174480,5,8,0:0:0:0:
291,268,174581,1,8,0:0:0:0:
309,269,174682,1,8,0:0:0:0:
326,269,174784,1,8,0:0:0:0:
353,290,174885,6,0,L|213:276,1,127.5,8|0,0:3|0:0,0:0:0:0:
145,315,175291,6,0,B|140:271|140:271|151:226,1,85,4|0,0:0|0:0,0:0:0:0:
244,65,175696,1,8,0:0:0:0:
267,202,175899,1,0,0:0:0:0:
112,129,176101,1,0,0:0:0:0:
276,52,176304,1,0,0:0:0:0:
172,193,176507,2,0,P|174:240|176:288,1,85,8|0,0:0|0:0,0:0:0:0:
435,221,176912,6,0,P|352:212|263:201,1,170,2|8,0:0|0:0,0:0:0:0:
390,118,177520,1,0,0:0:0:0:
333,290,177723,1,8,0:0:0:0:
333,300,177824,1,0,0:0:0:0:
334,311,177925,1,0,0:0:0:0:
242,125,178128,2,0,P|208:151|184:200,1,85,8|0,0:0|0:0,0:0:0:0:
107,274,178534,5,2,0:0:0:0:
266,201,178737,1,0,0:0:0:0:
61,157,178939,1,8,0:0:0:0:
180,331,179142,1,0,0:0:0:0:
242,125,179345,1,0,0:0:0:0:
147,225,179547,1,0,0:0:0:0:
307,304,179750,2,0,L|420:280,1,85,8|0,0:0|0:0,0:0:0:0:
306,152,180156,6,0,P|218:146|96:137,1,170,2|8,0:0|0:0,0:0:0:0:
147,225,180764,1,0,0:0:0:0:
259,59,180966,1,0,0:0:0:0:
39,135,181169,1,10,0:0:0:0:
235,191,181372,1,8,0:0:0:0:
133,23,181574,1,8,0:3:0:0:
133,23,181676,1,8,0:3:0:0:
133,23,181777,6,0,L|137:208,1,170,4|8,0:0|0:0,0:0:0:0:
213,301,182385,1,0,0:0:0:0:
296,221,182588,2,0,L|308:126,1,85
136,192,182993,1,8,0:0:0:0:
224,325,183196,1,0,0:0:0:0:
379,210,183399,6,0,P|347:155|247:157,1,170,2|8,0:0|0:0,0:0:0:0:
175,88,184007,1,0,0:0:0:0:
285,305,184210,1,2,0:0:0:0:
285,305,184311,1,0,0:0:0:0:
285,305,184412,2,0,L|297:210,1,85,0|8,0:0|0:0,0:0:0:0:
221,30,184818,2,0,L|226:73,1,42.5
345,150,185020,6,0,B|263:110|263:177|181:141,1,170,4|8,0:0|0:0,0:0:0:0:
36,41,185628,1,0,0:0:0:0:
97,228,185831,2,0,B|95:183|93:134,1,85
218,245,186237,2,0,B|211:292|205:329,1,85,8|0,0:0|0:0,0:0:0:0:
289,153,186642,6,0,P|337:151|390:149,1,85,2|0,0:0|0:0,0:0:0:0:
477,271,187047,2,0,P|434:268|392:265,1,85,8|0,0:0|0:0,0:0:0:0:
457,103,187453,1,8,0:0:0:0:
457,103,187554,1,8,0:0:0:0:
457,103,187656,1,8,0:0:0:0:
295,237,187858,2,0,P|291:195|289:152,1,85,8|0,0:0|0:0,0:0:0:0:
158,31,188264,5,8,0:0:0:0:
162,65,188365,1,8,0:0:0:0:
165,99,188466,1,8,0:0:0:0:
169,132,188568,1,8,0:0:0:0:
172,166,188669,2,8,L|162:230,1,42.5
67,341,188872,2,8,L|62:298,1,42.5
254,329,189074,5,8,0:0:0:0:
305,337,189175,1,8,0:0:0:0:
354,318,189276,1,8,0:0:0:0:
386,276,189378,1,8,0:0:0:0:
393,224,189480,6,8,P|399:199|406:169,1,42.5
251,129,189683,6,8,P|247:102|241:72,1,42.5,8|0,0:0|0:0,0:0:0:0:
147,311,190291,5,4,0:0:0:0:
441,168,201237,6,0,B|393:164|357:211|357:211|345:128|279:160|279:160|289:188|290:216,1,254.999992218018,2|0,0:0|0:0,0:3:0:0:
222,358,202656,6,0,L|216:222,1,127.5,4|0,0:0|0:0,0:0:0:0:
216,200,203061,5,8,0:0:0:0:
437,250,203264,1,8,0:0:0:0:
123,317,203466,1,8,0:0:0:0:
148,97,203669,5,8,0:0:0:0:
222,358,203872,1,8,0:0:0:0:
337,224,204074,6,0,P|342:185|349:136,1,76.4999976654053,2|0,0:0|0:0,0:0:0:0:
249,247,204480,6,0,P|184:269|110:219,1,152.999995330811,4|0,0:0|0:0,0:0:0:0:
34,189,204885,2,0,P|37:243|41:303,1,101.999996887207,8|0,0:0|0:0,0:0:0:0:
157,128,205290,1,8,0:0:0:0:
157,128,205392,1,0,0:0:0:0:
157,128,205493,1,0,0:0:0:0:
249,247,205696,2,0,P|301:240|358:235,1,101.999996887207,8|0,0:0|0:0,0:0:0:0:
239,77,206101,6,0,P|189:42|97:63,1,152.999995330811,2|0,0:0|0:0,0:0:0:0:
44,126,206507,2,0,B|54:179|64:238,1,101.999996887207,8|0,0:0|0:0,0:0:0:0:
311,139,206912,1,8,0:0:0:0:
314,115,207013,1,0,0:0:0:0:
318,93,207114,1,0,0:0:0:0:
165,269,207317,2,0,P|219:265|282:261,1,101.999996887207,8|0,0:0|0:0,0:0:0:0:
430,179,207723,6,0,L|415:306,1,101.999996887207,2|0,0:0|0:0,0:0:0:0:
318,93,208128,1,8,0:0:0:0:
172,254,208331,1,0,0:0:0:0:
168,261,208432,1,0,0:0:0:0:
165,269,208534,2,0,L|180:396,1,101.999996887207
43,306,208939,1,8,0:0:0:0:
298,233,209142,1,0,0:0:0:0:
174,78,209345,6,0,B|152:144|152:144|182:195|182:195|162:278,1,203.999993774414,4|8,0:0|0:0,0:0:0:0:
247,126,209952,1,0,0:0:0:0:
350,344,210155,2,0,L|359:281,1,50.9999984436036,8|0,0:0|0:0,0:0:0:0:
384,173,210358,1,8,0:0:0:0:
218,321,210561,1,8,0:0:0:0:
173,343,210662,1,8,0:0:0:0:
124,333,210763,1,8,0:0:0:0:
92,294,210865,1,8,0:0:0:0:
92,244,210966,6,0,P|91:190|90:120,1,101.999996887207,4|0,0:0|0:0,0:0:0:0:
260,24,211371,2,0,P|253:74|246:125,1,101.999996887207,8|0,0:0|0:0,0:0:0:0:
164,268,211777,1,0,0:0:0:0:
357,184,211980,1,0,0:0:0:0:
148,285,212182,2,0,P|94:281|43:277,1,101.999996887207,8|0,0:0|0:0,0:0:0:0:
288,142,212588,6,0,P|348:104|421:133,1,152.999995330811,2|0,0:0|0:0,0:0:0:0:
500,96,212993,2,0,L|488:212,1,101.999996887207,8|0,0:0|0:0,0:0:0:0:
370,356,213398,2,0,L|366:303,1,50.9999984436036,8|0,0:0|0:0,0:0:0:0:
357,184,213601,1,0,0:0:0:0:
271,345,213804,1,8,0:0:0:0:
481,281,214007,1,0,0:0:0:0:
253,117,214209,6,0,L|262:231,1,101.999996887207,2|0,0:0|0:0,0:0:0:0:
370,356,214615,1,8,0:0:0:0:
155,258,214817,1,0,0:0:0:0:
159,233,214918,1,0,0:0:0:0:
164,208,215019,1,8,0:0:0:0:
214,351,215223,5,0,0:0:0:0:
170,78,215425,1,8,0:0:0:0:
391,207,215628,6,0,B|318:194|318:194|264:216|264:216|187:205,1,203.999993774414,4|0,0:0|0:0,3:0:0:0:
45,315,216236,1,8,0:0:0:0:
214,351,216439,1,8,0:0:0:0:
214,351,216540,1,8,0:0:0:0:
214,351,216642,2,8,L|222:292,1,50.9999984436036
97,144,216844,2,8,L|98:198,1,50.9999984436036
259,138,217047,6,8,L|198:130,1,50.9999984436036
45,315,217250,2,8,L|106:310,1,50.9999984436036
356,234,217452,6,0,B|290:224|290:224|230:255|230:255|158:248,1,203.999993774414,4|8,0:0|0:0,0:0:0:0:
347,127,218061,1,0,0:0:0:0:
363,124,218162,1,0,0:0:0:0:
380,121,218263,1,8,0:0:0:0:
160,165,218466,1,0,0:0:0:0:
381,238,218669,2,0,P|435:219|487:198,1,101.999996887207
302,328,219074,6,0,P|266:289|164:289,1,152.999995330811,2|0,0:0|0:0,0:0:0:0:
82,243,219480,2,0,L|96:345,1,101.999996887207,8|0,0:0|0:0,0:0:0:0:
254,198,219885,1,8,0:0:0:0:
257,172,219986,1,0,0:0:0:0:
260,147,220087,1,0,0:0:0:0:
52,59,220290,2,0,P|105:55|169:51,1,101.999996887207,8|0,0:0|0:0,0:0:0:0:
361,17,220696,6,0,P|353:69|343:143,1,101.999996887207,2|0,0:0|0:0,0:0:0:0:
422,248,221101,1,8,0:0:0:0:
260,147,221304,1,0,0:0:0:0:
441,256,221507,2,0,L|511:242,1,50.9999984436036,8|0,0:0|0:0,0:0:0:0:
245,130,221709,2,0,P|192:125|118:120,1,101.999996887207,0|8,0:0|0:0,0:0:0:0:
339,62,222115,1,0,0:0:0:0:
314,256,222318,6,0,B|292:311|238:317|238:317|195:292|198:223,1,203.999993774414,2|8,0:0|0:0,0:0:0:0:
402,143,222925,1,8,0:0:0:0:
403,168,223026,1,8,0:0:0:0:
405,193,223127,1,8,0:0:0:0:
406,219,223229,1,8,0:0:0:0:
408,244,223330,1,8,0:0:0:0:
262,161,223534,1,8,0:0:0:0:
202,141,223635,1,8,0:0:0:0:
142,161,223736,1,8,0:0:0:0:
106,211,223838,1,8,0:0:0:0:
106,274,223939,6,0,L|86:69,2,203.999993774414,6|8|0,0:0|0:0|0:0,0:0:0:0:
315,330,224952,1,0,0:0:0:0:
197,229,225155,2,0,L|189:349,1,101.999996887207,8|0,0:0|0:0,0:0:0:0:
378,249,225561,6,0,P|369:176|359:65,1,152.999995330811,2|0,0:0|0:0,0:0:0:0:
370,53,225966,1,8,0:0:0:0:
220,130,226169,1,0,0:0:0:0:
448,180,226371,1,8,0:0:0:0:
461,174,226472,1,0,0:0:0:0:
475,171,226573,1,0,0:0:0:0:
323,60,226777,1,8,0:0:0:0:
226,182,226979,1,0,0:0:0:0:
226,182,227081,1,0,0:0:0:0:
226,182,227182,6,0,P|148:175|62:166,1,152.999995330811,2|0,0:0|0:0,0:0:0:0:
31,155,227588,1,8,0:0:0:0:
148,282,227790,1,0,0:0:0:0:
148,282,227892,1,0,0:0:0:0:
148,282,227993,2,0,L|222:274,1,50.9999984436036,8|0,0:0|0:0,0:0:0:0:
307,201,228196,2,0,L|357:210,1,50.9999984436036
466,287,228398,1,8,0:0:0:0:
353,80,228601,1,0,0:0:0:0:
354,107,228702,1,0,0:0:0:0:
356,135,228803,5,8,0:0:0:0:
223,326,229007,1,2,0:0:0:0:
489,288,229209,1,12,0:0:0:0:
242,111,229412,5,8,0:0:0:0:
242,111,229513,1,8,0:0:0:0:
242,111,229615,2,0,L|258:231,1,101.999996887207,8|0,0:0|0:0,0:0:0:0:
390,359,230020,1,8,0:0:0:0:
360,315,230121,1,8,0:0:0:0:
315,294,230222,1,8,0:0:0:0:
265,296,230324,1,8,0:0:0:0:
222,322,230425,5,8,0:0:0:0:
462,249,230628,1,2,0:0:0:0:
153,183,230831,1,8,0:0:0:0:
306,91,231034,6,0,L|315:294,1,203.999993774414,4|0,0:0|0:0,0:0:0:0:
153,183,231642,1,8,0:0:0:0:
413,4,231844,6,0,L|422:207,1,203.999993774414,4|0,0:0|0:0,0:0:0:0:
260,39,232452,1,8,0:0:0:0:
121,280,232656,6,0,P|64:227|93:108,1,203.999993774414,4|0,0:0|0:0,0:0:0:0:
354,267,233263,1,8,0:0:0:0:
307,286,233364,1,8,0:0:0:0:
258,277,233465,1,8,0:0:0:0:
222,242,233567,1,8,0:0:0:0:
211,193,233669,6,0,L|207:78,1,101.999996887207,4|0,0:0|0:0,0:0:0:0:
121,280,234074,1,8,0:0:0:0:
314,196,234277,2,0,P|378:190|429:306,1,203.999993774414,4|0,0:0|0:0,0:0:0:0:
319,81,234885,1,8,0:0:0:0:
161,262,235088,6,0,B|228:246|228:246|289:279|289:279|357:266,1,203.999993774414,4|0,0:0|0:0,0:0:0:0:
175,57,235696,1,8,0:0:0:0:
112,357,235898,1,4,0:0:0:0:
256,192,236000,8,2,241777,0:0:0:0:
