osu file format v14

[General]
AudioFilename: audio.mp3
AudioLeadIn: 0
PreviewTime: 53200
Countdown: 0
SampleSet: None
StackLeniency: 0.5
Mode: 0
LetterboxInBreaks: 0
WidescreenStoryboard: 1

[Editor]
Bookmarks: 14686,27659,40632,47119,51983,54416,80362
DistanceSpacing: 1
BeatDivisor: 4
GridSize: 32
TimelineZoom: 1

[Metadata]
Title:Stella Breeze (TV Size)
TitleUnicode:ステラブリーズ (TV Size)
Artist:Haruna Luna
ArtistUnicode:春奈るな
Creator:ibroko
Version:Normal
Source:冴えない彼女の育てかた♭
Tags:anime Saenai Heroine no Sodatekata Flat japanese Sakura Blossom
BeatmapID:1921046
BeatmapSetID:912325

[Difficulty]
HPDrainRate:4
CircleSize:3
OverallDifficulty:2
ApproachRate:4
SliderMultiplier:0.999999999999999
SliderTickRate:1

[Events]
//Background and Video events
0,0,"679017.jpg",0,0
//Break Periods
//Storyboard Layer 0 (Background)
//Storyboard Layer 1 (Fail)
//Storyboard Layer 2 (Pass)
//Storyboard Layer 3 (Foreground)
//Storyboard Sound Samples

[TimingPoints]
92,405.405405405405,4,3,1,45,1,0
1713,-100,4,3,1,70,0,0
14686,-100,4,3,1,55,0,0
15091,-111.111111111111,4,3,1,55,0,0
26848,-100,4,3,0,60,0,0
27659,-100,4,3,1,60,0,0
39010,-100,4,3,1,60,0,0
40632,-100,4,3,1,65,0,0
47119,-100,4,3,1,70,0,0
51983,-100,4,3,1,80,0,0
52794,405.405405405405,4,3,1,55,1,0
54415,-100,4,3,1,85,0,0
80361,-100,4,3,1,80,0,0
80969,-100,4,3,1,80,0,0
86848,-100,4,3,1,50,0,0
87658,-100,4,3,1,30,0,0
88469,-100,4,3,1,10,0,0
89077,-100,4,3,1,5,0,0

[Colours]
Combo1 : 165,245,75
Combo2 : 245,233,139
Combo3 : 174,94,94
Combo4 : 255,89,89

[HitObjects]
37,56,1713,6,0,L|149:51,1,99.9999999999999
186,54,2321,1,0,0:0:0:0:
236,54,2524,2,0,P|248:99|246:123,1,50
225,146,2929,2,0,P|213:191|215:215,1,50
233,240,3335,1,0,0:0:0:0:
307,306,3740,1,0,0:0:0:0:
373,231,4146,2,0,L|376:170,1,50
347,139,4551,2,0,L|344:78,1,50
334,39,4956,6,0,P|401:31|439:51,1,99.9999999999999
452,87,5564,1,0,0:0:0:0:
436,134,5767,2,0,P|424:179|426:203,1,50
447,226,6173,2,0,P|459:271|457:295,1,50
416,300,6578,1,0,0:0:0:0:
319,327,6983,1,0,0:0:0:0:
219,313,7389,2,0,L|216:252,1,50
245,221,7794,2,0,L|248:160,1,50
244,120,8200,5,0,0:0:0:0:
169,53,8605,1,0,0:0:0:0:
89,113,9010,2,0,L|91:162,1,50
120,205,9416,2,0,L|117:254,1,50
112,305,9821,1,0,0:0:0:0:
203,345,10227,1,0,0:0:0:0:
249,327,10429,1,0,0:0:0:0:
297,315,10632,2,0,L|294:265,1,50
323,223,11037,2,0,L|325:173,1,50
323,122,11443,6,0,L|209:116,1,99.9999999999999
173,119,12051,1,0,0:0:0:0:
123,124,12254,2,0,L|122:190,2,50
117,24,13064,1,0,0:0:0:0:
45,94,13470,1,0,0:0:0:0:
49,193,13875,1,0,0:0:0:0:
91,218,14078,2,0,L|91:168,2,50
94,267,14686,5,0,0:0:0:0:
182,281,15091,2,0,L|291:277,2,89.999997253418
91,279,16308,1,0,0:0:0:0:
144,206,16713,1,0,0:0:0:0:
144,160,16916,2,0,P|136:95|116:55,2,89.999997253418
105,182,17929,1,0,0:0:0:0:
108,272,18335,6,0,L|-1:268,2,89.999997253418
197,283,19551,2,0,P|197:316|188:349,2,67.4999979400635
187,238,20362,1,0,0:0:0:0:
217,153,20767,1,0,0:0:0:0:
301,121,21173,5,0,0:0:0:0:
386,150,21578,1,0,0:0:0:0:
413,185,21781,2,0,P|430:235|418:273,1,89.999997253418
330,282,22591,2,0,P|320:325|337:366,1,89.999997253418
380,355,23200,1,0,0:0:0:0:
425,351,23402,1,0,0:0:0:0:
442,262,23808,1,0,0:0:0:0:
440,217,24010,2,0,L|383:204,1,44.999998626709
350,207,24416,6,0,L|245:225,1,89.999997253418
213,234,25024,1,0,0:0:0:0:
123,239,25429,1,0,0:0:0:0:
60,174,25835,1,0,0:0:0:0:
58,129,26037,2,0,L|65:77,2,44.999998626709
86,224,26848,2,0,L|95:273,1,50
135,302,27254,2,0,L|144:351,1,50
192,338,27659,1,0,0:0:0:0:
