osu file format v14

[General]
AudioFilename: audio.mp3
AudioLeadIn: 0
PreviewTime: 53242
Countdown: 0
SampleSet: Soft
StackLeniency: 0.6
Mode: 0
LetterboxInBreaks: 0
WidescreenStoryboard: 0

[Editor]
DistanceSpacing: 1
BeatDivisor: 2
GridSize: 16
TimelineZoom: 1

[Metadata]
Title:Stella Breeze (TV Size)
TitleUnicode:ステラブリーズ (TV Size)
Artist:Haruna Luna
ArtistUnicode:春奈るな
Creator:Venix
Version:Nitrous' Easy
Source:冴えない彼女の育てかた♭
Tags:Saenai Heroine no Sodatekata Curi [C_u_r_i] Alphabet Bara- Bara Hazu- Hazu Chalwa -Nitrous Nitrous Left opening light novel Krfawy
BeatmapID:1283138
BeatmapSetID:606266

[Difficulty]
HPDrainRate:3
CircleSize:2.5
OverallDifficulty:2
ApproachRate:3
SliderMultiplier:0.899999999999999
SliderTickRate:1

[Events]
//Background and Video events
0,0,"tak bym z nim zrobil.jpg",0,0
Video,0,"optc.flv"
//Break Periods
//Storyboard Layer 0 (Background)
//Storyboard Layer 1 (Fail)
//Storyboard Layer 2 (Pass)
//Storyboard Layer 3 (Foreground)
//Storyboard Sound Samples

[TimingPoints]
1756,405.405405405405,4,2,1,70,1,0
14728,-100,4,2,1,60,0,0
27701,-100,4,2,1,70,0,0
53242,-100,4,2,1,50,0,0
54458,405.405405405405,4,2,1,80,1,1
54458,-100,4,2,1,80,0,1
80403,-100,4,2,1,80,0,0
88512,-100,4,2,1,5,0,0

[Colours]
Combo1 : 255,255,128
Combo2 : 82,10,231
Combo3 : 255,111,111
Combo4 : 104,106,204

[HitObjects]
53,121,1756,6,0,B|108:109|134:84|134:84|171:100|236:99,1,180,4|2,0:0|0:0,0:0:0:0:
308,73,2972,1,0,1:0:0:0:
389,111,3377,2,0,P|399:155|389:216,1,89.9999999999999,2|0,0:0|1:0,0:0:0:0:
332,264,4188,2,0,L|233:258,1,89.9999999999999,2|0,0:0|1:0,0:0:0:0:
152,249,4999,6,0,B|119:179|185:140|146:63,1,180,2|2,0:0|0:0,0:0:0:0:
227,25,6215,1,0,1:0:0:0:
291,87,6620,2,0,P|337:98|384:86,1,89.9999999999999,2|0,0:0|1:0,0:0:0:0:
439,155,7431,2,0,P|420:195|421:240,1,89.9999999999999,2|0,0:0|1:0,0:0:0:0:
487,302,8242,6,0,B|370:286|370:286|301:296,1,180,4|2,0:0|0:0,0:0:0:0:
221,323,9458,1,0,1:0:0:0:
135,293,9864,2,0,B|144:233|144:233|120:175|120:175|128:106,1,180,2|2,0:0|0:0,0:0:0:0:
192,57,11080,1,0,1:0:0:0:
258,117,11485,6,0,P|305:131|397:111,2,135,2|0|0,0:0|1:0|1:0,0:0:0:0:
192,54,13107,2,0,P|146:47|92:60,1,89.9999999999999,2|0,0:0|1:0,0:0:0:0:
21,91,13918,2,0,L|27:193,1,89.9999999999999,2|0,0:0|1:0,0:0:0:0:
72,257,14728,5,4,0:0:0:0:
144,202,15134,2,0,P|191:164|333:191,1,180,0|0,1:0|1:0,0:0:0:0:
387,206,16350,2,0,L|385:316,1,89.9999999999999,2|0,0:0|1:0,0:0:0:0:
474,283,17161,2,0,L|476:173,1,89.9999999999999,2|0,0:0|1:0,0:0:0:0:
442,109,17972,5,2,0:0:0:0:
356,135,18377,2,0,B|294:133|294:133|246:101|246:101|176:95,1,180,0|0,1:0|1:0,0:0:0:0:
107,140,19593,2,0,P|94:222|120:282,2,135,2|0|0,0:0|1:0|1:0,0:0:0:0:
146,59,21215,5,2,0:0:0:0:
225,101,21620,2,0,B|272:111|272:111|372:88,1,135,0|0,1:0|0:0,0:0:0:0:
437,51,22634,2,0,P|472:100|470:189,1,135,2|0,0:0|1:0,0:0:0:0:
416,240,23647,2,0,L|421:337,1,89.9999999999999,2|0,0:0|1:0,0:0:0:0:
334,359,24458,6,0,L|325:207,1,135,2|0,0:0|0:0,0:0:0:0:
237,207,25472,2,0,L|241:272,1,45,2|0,0:0|1:0,0:0:0:0:
211,337,26080,2,0,P|164:344|120:332,1,89.9999999999999,2|0,0:0|1:0,0:0:0:0:
53,276,26891,2,0,L|40:165,1,89.9999999999999,0|0,1:0|1:0,0:0:0:0:
73,102,27701,5,4,0:0:0:0:
147,152,28107,2,0,P|182:171|335:139,1,180,0|0,1:0|1:0,0:0:0:0:
389,102,29323,1,2,0:0:0:0:
473,132,29728,2,0,L|474:237,1,89.9999999999999,0|2,1:0|0:0,0:0:0:0:
415,290,30539,1,0,1:0:0:0:
342,236,30945,6,0,P|298:222|238:226,1,89.9999999999999,2|0,0:0|1:0,0:0:0:0:
193,288,31755,2,0,P|149:298|104:294,1,89.9999999999999,2|0,0:0|1:0,0:0:0:0:
37,234,32566,2,0,L|27:90,2,135,2|0|0,0:0|1:0|1:0,0:0:0:0:
88,307,34188,6,0,P|134:279|216:284,1,135,4|0,0:0|0:0,0:0:0:0:
344,313,35404,1,0,1:0:0:0:
428,281,35810,2,0,P|439:238|430:182,1,89.9999999999999,2|0,0:0|1:0,0:0:0:0:
390,114,36620,2,0,L|288:107,1,89.9999999999999,2|0,0:0|1:0,0:0:0:0:
218,69,37431,5,2,0:0:0:0:
139,113,37837,2,0,B|105:173|165:237|130:314,1,180,0|0,1:0|1:0,0:0:0:0:
219,328,39053,2,0,L|318:334,1,89.9999999999999,2|0,0:0|1:0,0:0:0:0:
314,243,39864,2,0,L|215:237,1,89.9999999999999,2|0,0:0|1:0,0:0:0:0:
144,196,40674,5,4,0:0:0:0:
33,273,41283,2,0,P|8:206|28:122,1,135,0|0,1:0|1:0,0:0:0:0:
48,60,42296,1,0,1:0:0:0:
177,96,42904,2,0,L|180:157,1,45,0|2,1:0|0:0,0:0:0:0:
185,230,43512,1,0,1:0:0:0:
262,184,43918,6,0,P|297:168|402:185,2,135,2|0|0,0:0|1:0|1:0,0:0:0:0:
185,230,45539,1,4,0:0:0:0:
100,199,45945,2,0,L|97:102,1,89.9999999999999,2|4,0:0|0:0,0:0:0:0:
151,37,46755,1,0,1:0:0:0:
214,100,47161,6,0,L|321:90,2,89.9999999999999,4|0|0,0:0|1:0|1:0,0:0:0:0:
153,167,48377,1,0,1:0:0:0:
75,213,48783,2,0,L|70:322,2,89.9999999999999,0|0|0,1:0|1:0|1:0,0:0:0:0:
75,122,49999,1,0,1:0:0:0:
153,167,50404,6,0,B|222:186|255:134|344:156,1,180,4|0,0:0|1:0,0:0:0:0:
415,181,51620,1,2,0:0:0:0:
470,110,52026,2,0,B|451:199|451:199|468:298,1,180,0|0,1:0|1:0,0:0:0:0:
400,349,53242,2,0,L|288:339,2,89.9999999999999,2|0|2,0:0|0:0|0:0,0:0:0:0:
466,287,54458,6,0,L|455:144,1,135,4|0,0:0|0:0,0:0:0:0:
368,131,55471,2,0,L|374:189,1,45,2|0,0:0|1:0,0:0:0:0:
334,258,56079,1,2,0:0:0:0:
258,209,56485,2,0,P|219:195|164:196,1,89.9999999999999,0|2,1:0|0:0,0:0:0:0:
84,218,57295,1,0,1:0:0:0:
12,163,57701,6,0,L|3:23,1,135,2|0,0:0|0:0,0:0:0:0:
92,18,58714,2,0,L|97:78,1,45,2|0,0:0|1:0,0:0:0:0:
164,121,59322,5,2,0:0:0:0:
236,68,59728,2,0,L|327:63,1,89.9999999999999,0|2,1:0|0:0,0:0:0:0:
405,21,60539,1,0,1:0:0:0:
472,80,60944,6,0,P|484:125|476:175,1,89.9999999999999,4|0,0:0|1:0,0:0:0:0:
388,173,61755,2,0,P|376:216|381:260,1,89.9999999999999,2|0,0:0|1:0,0:0:0:0:
456,309,62566,2,0,L|261:312,1,180,2|2,0:0|0:0,0:0:0:0:
189,336,63782,1,0,1:0:0:0:
106,300,64187,6,0,P|80:239|90:166,1,135,2|0,0:0|1:0,0:0:0:0:
155,112,65201,2,0,L|149:57,2,45,2|0|4,0:0|1:0|0:0,0:0:0:0:
243,94,66012,2,0,L|248:138,1,45,2|0,0:0|1:0,0:0:0:0:
306,207,66620,2,0,L|408:196,1,89.9999999999999,0|0,1:0|1:0,0:0:0:0:
474,153,67430,6,0,P|494:213|487:290,1,135,4|0,0:0|0:0,0:0:0:0:
425,348,68444,2,0,L|372:342,1,45,2|0,0:0|1:0,0:0:0:0:
291,358,69052,1,2,0:0:0:0:
225,295,69457,2,0,L|226:200,2,89.9999999999999,0|2|0,1:0|0:0|1:0,0:0:0:0:
150,346,70674,6,0,B|112:331|112:331|3:338,1,135,2|0,0:0|0:0,0:0:0:0:
7,247,71687,2,0,L|65:243,1,45,2|0,0:0|1:0,0:0:0:0:
138,219,72295,2,0,L|139:124,1,89.9999999999999,2|0,0:0|1:0,0:0:0:0:
229,129,73106,2,0,L|228:224,1,89.9999999999999,2|0,0:0|1:0,0:0:0:0:
262,302,73917,6,0,B|310:287|310:287|401:298,1,135,4|0,0:0|0:0,0:0:0:0:
481,277,74930,2,0,L|486:219,1,45,2|0,0:0|1:0,0:0:0:0:
458,145,75539,2,0,P|418:160|305:134,1,135,2|0,0:0|0:0,0:0:0:0:
241,168,76552,2,0,L|245:229,1,45,2|0,0:0|1:0,0:0:0:0:
171,267,77160,6,0,P|137:250|34:253,2,135,2|0|0,0:0|1:0|1:0,0:0:0:0:
240,324,78782,2,0,L|350:308,1,89.9999999999999,2|0,0:0|1:0,0:0:0:0:
330,220,79593,2,0,L|220:204,1,89.9999999999999,2|0,0:0|1:0,0:0:0:0:
154,231,80403,6,0,P|126:162|138:91,1,135,4|4,0:0|0:0,0:0:0:0:
214,64,81417,2,0,L|205:19,2,45,2|0|4,0:0|1:0|0:0,0:0:0:0:
303,74,82228,2,0,L|312:126,2,45,2|0|4,0:0|1:0|0:0,0:0:0:0:
390,53,83039,2,0,L|383:5,1,45,2|0,0:0|1:0,0:0:0:0:
473,8,83647,6,0,L|491:149,1,135,4|4,0:0|0:0,0:0:0:0:
406,173,84660,2,0,L|412:223,2,45,2|0|4,0:0|1:0|0:0,0:0:0:0:
316,181,85471,2,0,L|310:136,2,45,2|0|4,0:0|1:0|0:0,0:0:0:0:
256,192,86079,12,0,88512,0:0:0:0:
