osu file format v14

[General]
AudioFilename: audio.mp3
AudioLeadIn: 0
PreviewTime: 53242
Countdown: 0
SampleSet: Soft
StackLeniency: 0.6
Mode: 0
LetterboxInBreaks: 0
WidescreenStoryboard: 1

[Editor]
Bookmarks: 26891,32566,40674,47161,64795
DistanceSpacing: 0.5
BeatDivisor: 4
GridSize: 4
TimelineZoom: 1

[Metadata]
Title:Stella Breeze (TV Size)
TitleUnicode:ステラブリーズ (TV Size)
Artist:Haruna Luna
ArtistUnicode:春奈るな
Creator:Venix
Version:Flat
Source:冴えない彼女の育てかた♭
Tags:Saenai Heroine no Sodatekata Curi [C_u_r_i] Alphabet Bara- Bara Hazu- Hazu Chalwa -Nitrous Nitrous Left opening light novel Krfawy
BeatmapID:1301466
BeatmapSetID:606266

[Difficulty]
HPDrainRate:6
CircleSize:4
OverallDifficulty:8
ApproachRate:8.7
SliderMultiplier:1.7
SliderTickRate:1

[Events]
//Background and Video events
0,0,"tak bym z nim zrobil.jpg",0,0
Video,0,"optc.flv"
//Break Periods
//Storyboard Layer 0 (Background)
//Storyboard Layer 1 (Fail)
//Storyboard Layer 2 (Pass)
//Storyboard Layer 3 (Foreground)
//Storyboard Sound Samples

[TimingPoints]
1756,405.405405405405,4,2,1,75,1,0
14728,-125,4,2,1,75,0,0
17769,-125,4,2,1,60,0,0
17972,-125,4,2,1,75,0,0
24053,-125,4,2,1,60,0,0
24255,-125,4,2,1,75,0,0
26485,-100,4,2,1,75,0,0
27701,-100,4,2,1,75,0,0
46249,-100,4,2,1,5,0,0
46350,-100,4,2,1,75,0,0
46654,-100,4,2,1,5,0,0
46755,-100,4,2,1,75,0,0
47060,-100,4,2,1,5,0,0
47161,-90.9090909090909,4,2,1,75,0,0
54053,-133.333333333333,4,2,1,75,0,0
54356,-133.333333333333,4,2,1,5,0,0
54458,405.405405405405,4,2,1,75,1,1
54458,-83.3333333333333,4,2,1,75,0,1
63174,-83.3333333333333,4,2,1,65,0,1
63376,-83.3333333333333,4,2,1,75,0,1
68039,-83.3333333333333,4,2,1,60,0,1
68241,-83.3333333333333,4,2,1,75,0,1
80403,-100,4,2,1,75,0,0
88512,-100,4,2,1,5,0,0

[Colours]
Combo1 : 255,255,128
Combo2 : 82,10,231
Combo3 : 255,111,111
Combo4 : 104,106,204

[HitObjects]
172,76,1350,5,4,0:1:0:0:
172,76,1756,6,0,P|212:104|228:168,1,85,4|0,0:0|0:0,0:0:0:0:
304,304,2161,2,0,P|264:276|248:212,1,85,2|0,1:2|0:0,0:0:0:0:
314,88,2566,1,8,0:0:0:0:
326,220,2769,1,0,0:0:0:0:
219,3,2972,1,2,1:2:0:0:
227,135,3174,1,0,0:0:0:0:
379,129,3377,6,0,P|390:88|379:47,1,85,8|0,0:0|0:0,0:0:0:0:
248,244,3783,1,2,1:2:0:0:
306,92,3985,1,2,0:0:0:0:
306,92,4087,1,0,1:0:0:0:
306,93,4188,1,2,0:0:0:0:
126,117,4391,1,8,0:0:0:0:
345,207,4593,1,10,1:2:0:0:
199,28,4796,1,2,0:0:0:0:
88,244,4999,6,0,L|-4:236,1,85,2|0,0:0|0:0,0:0:0:0:
126,116,5404,2,0,L|210:108,1,85,2|0,1:2|0:0,0:0:0:0:
345,207,5810,1,8,0:0:0:0:
172,196,6012,1,2,0:0:0:0:
372,92,6215,1,2,1:2:0:0:
264,320,6418,1,2,0:0:0:0:
210,107,6620,5,8,0:0:0:0:
431,275,6823,1,0,0:0:0:0:
172,196,7026,1,2,1:2:0:0:
372,92,7228,1,2,0:0:0:0:
372,92,7431,2,0,P|380:144|360:220,2,127.5,4|2|2,0:1|0:0|0:0,0:0:0:0:
200,140,8242,6,0,L|304:148,1,85,4|0,0:0|0:0,0:0:0:0:
160,8,8647,1,2,1:2:0:0:
56,156,8850,1,2,0:0:0:0:
56,156,8951,1,0,0:0:0:0:
56,156,9053,2,0,P|38:216|46:279,2,127.5,4|2|2,0:1|0:0|0:0,0:0:0:0:
160,8,9864,5,2,0:0:0:0:
248,104,10066,1,2,0:0:0:0:
48,56,10269,1,2,1:2:0:0:
264,16,10472,1,2,0:0:0:0:
264,16,10573,1,0,0:0:0:0:
264,16,10674,2,0,L|390:35,2,127.5,4|2|2,0:1|0:0|0:0,0:0:0:0:
164,300,11485,6,0,P|142:263|142:221,1,85,2|0,0:0|0:0,0:0:0:0:
305,160,11891,2,0,P|268:181|226:182,1,85,2|0,1:2|0:0,0:0:0:0:
131,43,12296,2,0,P|151:79|152:121,1,85,2|0,0:0|0:0,0:0:0:0:
36,288,12701,1,2,1:2:0:0:
72,104,12904,1,2,0:0:0:0:
226,182,13107,5,2,0:0:0:0:
7,197,13310,1,0,0:0:0:0:
131,43,13512,1,2,1:2:0:0:
135,211,13715,1,2,0:0:0:0:
135,211,13816,1,0,1:0:0:0:
135,211,13918,1,2,0:0:0:0:
54,23,14120,1,2,0:0:0:0:
271,57,14323,1,2,1:2:0:0:
271,57,14424,1,2,0:0:0:0:
271,57,14526,1,2,1:2:0:0:
62,204,14728,6,0,P|58:264|114:320,1,136,4|8,0:1|0:0,0:0:0:0:
238,332,15337,1,2,0:0:0:0:
183,191,15539,2,0,P|139:236|131:267,1,68,2|0,0:0|0:0,0:0:0:0:
288,240,15945,2,0,P|332:195|340:164,1,68,8|0,0:0|0:0,0:0:0:0:
235,102,16350,2,0,P|251:162|274:185,1,68,2|2,0:0|0:0,0:0:0:0:
317,112,16755,1,8,0:0:0:0:
189,21,16958,2,0,L|113:29,1,68,0|2,0:0|0:0,0:0:0:0:
0,44,17364,1,0,0:0:0:0:
46,197,17566,2,0,L|119:210,1,68,8|4,0:0|0:0,0:0:0:0:
264,244,17972,5,2,0:0:0:0:
264,244,18377,2,0,B|256:280|256:280|264:332,1,68,8|2,0:0|0:0,0:0:0:0:
408,248,18783,2,0,B|416:212|416:212|408:160,1,68,2|0,0:0|0:0,0:0:0:0:
312,48,19188,1,8,0:0:0:0:
224,172,19391,1,2,0:0:0:0:
360,312,19593,6,0,P|420:328|468:300,2,102,4|2|0,0:1|0:0|0:0,0:0:0:0:
184,232,20404,1,2,0:0:0:0:
124,308,20607,1,0,0:0:0:0:
284,252,20810,1,8,0:0:0:0:
136,152,21012,1,2,0:0:0:0:
360,312,21215,6,0,P|385:257|353:185,1,136,2|8,0:0|0:0,0:0:0:0:
154,271,21823,2,0,B|204:272|204:272|237:251|237:251|292:252,1,136,2|2,0:0|0:0,0:0:0:0:
420,338,22431,1,8,0:0:0:0:
422,177,22634,1,2,0:0:0:0:
284,318,22837,6,0,P|277:284|283:251,1,68,0|2,0:0|0:0,0:0:0:0:
343,124,23242,2,0,P|349:157|343:190,1,68,8|2,0:0|0:0,0:0:0:0:
204,156,23647,2,0,L|273:159,1,68,0|2,0:0|0:0,0:0:0:0:
424,284,24053,2,0,L|356:286,1,68,4|0,0:1|0:0,0:0:0:0:
280,72,24458,6,0,P|340:45|401:70,1,136,2|8,0:0|0:0,0:0:0:0:
464,232,25066,1,2,0:0:0:0:
488,40,25269,1,0,0:0:0:0:
343,124,25472,1,2,0:0:0:0:
508,144,25674,1,8,0:0:0:0:
280,72,25877,1,2,0:0:0:0:
384,268,26080,2,0,P|389:234|383:201,1,68,2|0,0:0|0:0,0:0:0:0:
208,236,26485,6,0,L|296:236,1,85,4|2,0:0|0:0,0:0:0:0:
480,316,26891,1,2,0:0:0:0:
480,316,26992,1,0,1:0:0:0:
480,316,27093,1,2,0:0:0:0:
316,156,27296,1,0,1:0:0:0:
316,156,27397,1,2,0:0:0:0:
316,156,27499,1,0,1:0:0:0:
508,144,27701,6,0,P|505:200|477:239,1,85,4|0,0:1|0:0,0:0:0:0:
360,340,28107,2,0,P|362:283|390:244,1,85,0|2,1:0|0:0,0:0:0:0:
512,384,28512,1,2,0:0:0:0:
427,170,28715,1,0,0:0:0:0:
440,312,28918,1,2,1:2:0:0:
476,72,29120,1,2,0:0:0:0:
296,240,29323,6,0,P|240:240|216:124,1,170,2|0,0:0|1:0,0:0:0:0:
276,8,29931,2,0,B|230:88|303:101|266:176,1,170,2|0,0:0|0:0,0:0:0:0:
140,312,30539,1,0,1:0:0:0:
201,146,30742,1,2,0:0:0:0:
276,340,30945,6,0,P|356:332|404:256,1,170,2|0,0:0|1:0,0:0:0:0:
268,171,31553,1,2,0:0:0:0:
140,312,31755,2,0,P|134:256|155:213,1,85,0|2,0:0|0:0,0:0:0:0:
273,90,32161,2,0,P|278:145|257:188,1,85,0|2,1:0|0:0,0:0:0:0:
72,72,32566,5,2,0:0:0:0:
273,90,32769,1,2,0:0:0:0:
28,148,32972,1,0,1:0:0:0:
232,16,33174,1,2,0:0:0:0:
143,229,33377,1,2,0:0:0:0:
143,229,33478,1,0,1:0:0:0:
143,229,33580,1,2,0:0:0:0:
232,16,33783,1,0,1:0:0:0:
72,72,33985,1,2,0:0:0:0:
267,172,34188,6,0,B|347:218|360:145|435:182,1,170,4|0,0:1|1:0,0:0:0:0:
208,226,34796,2,0,P|188:147|257:93,1,170,2|0,0:0|0:0,0:0:0:0:
393,250,35404,1,2,1:2:0:0:
320,112,35607,1,0,0:0:0:0:
102,188,35810,6,0,B|162:193|162:193|210:169|210:169|266:171,1,170,2|0,0:0|1:0,0:0:0:0:
393,250,36418,1,2,0:0:0:0:
320,114,36620,1,2,0:0:0:0:
332,308,36823,1,0,0:0:0:0:
512,152,37026,1,0,1:0:0:0:
260,268,37228,1,2,0:0:0:0:
492,352,37431,6,0,P|502:311|493:269,1,85,0|2,0:0|0:0,0:0:0:0:
319,115,37837,2,0,P|308:155|317:197,1,85,0|2,1:0|0:0,0:0:0:0:
512,152,38242,1,2,0:0:0:0:
359,289,38445,1,0,0:0:0:0:
432,88,38647,1,0,1:0:0:0:
488,312,38850,1,2,0:0:0:0:
488,312,38951,1,0,1:0:0:0:
488,312,39053,6,0,L|420:315,3,42.5
317,197,39458,2,0,L|437:205,1,85,0|2,1:0|0:0,0:0:0:0:
292,354,39864,1,4,0:1:0:0:
213,199,40066,1,0,1:0:0:0:
222,157,40167,1,0,1:0:0:0:
248,125,40268,1,0,1:0:0:0:
287,107,40370,1,0,1:0:0:0:
328,102,40472,2,0,P|351:101|376:107,1,42.5,0|0,1:0|1:0,0:0:0:0:
493,269,40674,5,2,1:2:0:0:
493,269,41283,1,0,1:0:0:0:
292,354,41688,5,2,1:2:0:0:
292,354,41891,1,4,1:0:0:0:
345,190,42093,1,0,1:0:0:0:
396,333,42296,5,2,1:2:0:0:
396,333,42904,1,2,1:2:0:0:
345,190,43107,1,2,0:0:0:0:
183,338,43512,5,4,1:0:0:0:
183,338,43715,1,2,0:0:0:0:
430,221,43918,6,0,P|431:173|344:104,1,127.5,2|2,1:2|0:0,0:0:0:0:
364,104,44323,1,0,0:0:0:0:
264,289,44526,1,0,1:0:0:0:
264,289,44728,2,0,B|225:239|225:239|215:126,1,170,2|2,0:0|0:0,0:0:0:0:
215,111,45235,1,0,0:0:0:0:
215,111,45337,1,0,1:0:0:0:
415,220,45539,5,4,1:2:0:0:
415,220,45945,2,0,B|378:274|378:274|319:305,1,127.5,2|0,0:0|0:0,0:0:0:0:
242,267,46350,2,0,B|213:207|213:207|215:141,1,127.5,4|0,1:2|0:0,0:0:0:0:
285,99,46755,2,0,B|350:103|350:103|406:138,1,127.5,2|0,0:0|0:0,0:0:0:0:
486,181,47161,6,0,P|494:222|480:270,1,93.5000028533936,4|0,1:2|0:0,0:0:0:0:
259,341,47566,2,0,P|250:299|265:252,1,93.5000028533936,2|0,1:2|0:0,0:0:0:0:
455,352,47972,1,2,1:2:0:0:
259,341,48174,1,0,0:0:0:0:
402,136,48377,1,2,1:2:0:0:
330,301,48580,1,0,0:0:0:0:
318,46,48783,5,2,1:2:0:0:
383,240,48985,1,0,0:0:0:0:
193,193,49188,1,2,1:2:0:0:
402,136,49391,1,0,0:0:0:0:
260,349,49593,2,0,B|243:313|243:313|243:248,1,93.5000028533936,2|2,1:2|0:0,0:0:0:0:
402,136,49999,2,0,B|419:172|419:172|419:237,1,93.5000028533936,2|2,1:2|0:0,0:0:0:0:
193,193,50404,5,4,1:2:0:0:
402,136,50607,1,2,0:0:0:0:
141,114,50810,1,2,1:2:0:0:
419,225,51012,1,2,0:0:0:0:
138,270,51215,5,0,1:0:0:0:
106,236,51316,1,0,1:0:0:0:
95,191,51417,1,0,1:0:0:0:
107,146,51519,1,0,1:0:0:0:
141,114,51620,2,0,P|175:99|198:95,1,46.7500014266968,0|0,1:0|1:0,0:0:0:0:
272,180,51823,1,0,1:0:0:0:
138,270,52026,5,4,1:2:0:0:
419,225,52330,1,2,1:2:0:0:
233,19,52634,1,2,1:2:0:0:
233,19,52837,1,4,1:0:0:0:
138,270,53242,5,2,0:0:0:0:
419,225,53647,5,2,0:0:0:0:
233,19,54053,6,0,B|192:55|192:55|241:57,1,95.6250036478044,2|0,0:0|0:0,0:0:0:0:
233,56,54458,6,0,P|254:122|232:193,1,101.999996887207,4|0,1:0|0:0,0:0:0:0:
203,344,54863,2,0,P|182:278|204:207,1,101.999996887207,2|0,1:2|0:0,0:0:0:0:
391,229,55268,2,0,P|325:250|254:228,1,101.999996887207,8|2,0:0|0:0,0:0:0:0:
174,121,55674,1,2,1:2:0:0:
327,168,55876,1,2,0:0:0:0:
87,180,56079,5,8,0:0:0:0:
293,103,56282,1,0,0:0:0:0:
87,180,56485,2,0,B|109:217|109:217|161:244,1,101.999996887207,2|0,1:2|0:0,0:0:0:0:
293,103,56890,2,0,B|255:125|255:125|228:177,1,101.999996887207,2|0,0:0|0:0,0:0:0:0:
251,365,57295,2,0,B|261:322|261:322|243:267,1,101.999996887207,2|0,1:2|0:0,0:0:0:0:
124,49,57701,6,0,P|84:87|102:198,1,152.999995330811,8|0,0:0|0:0,0:0:0:0:
116,185,58106,2,0,L|229:187,1,101.999996887207,2|2,1:2|0:0,0:0:0:0:
379,132,58512,1,2,0:0:0:0:
257,68,58714,1,2,0:0:0:0:
316,280,58917,1,0,1:2:0:0:
217,186,59120,1,2,0:0:0:0:
445,92,59322,6,0,P|452:147|402:214,1,101.999996887207,8|2,0:0|0:0,0:0:0:0:
228,177,59728,2,0,L|341:189,1,101.999996887207,2|2,1:2|0:0,0:0:0:0:
470,309,60133,1,10,0:0:0:0:
470,309,60235,1,0,0:0:0:0:
470,309,60336,1,2,0:0:0:0:
244,267,60539,1,2,1:2:0:0:
433,188,60741,1,2,0:0:0:0:
220,369,60944,6,0,P|141:312|154:216,1,203.999993774414,4|2,0:1|1:2,0:0:0:0:
329,187,61552,1,0,0:0:0:0:
220,369,61755,1,10,0:0:0:0:
228,177,61957,1,2,0:0:0:0:
334,384,62160,1,0,1:0:0:0:
154,216,62363,1,2,0:0:0:0:
445,251,62566,6,0,B|365:251|365:251|317:267|317:267|237:267,1,203.999993774414,10|2,0:0|1:2,0:0:0:0:
155,137,63174,1,4,0:0:0:0:
237,365,63376,2,0,B|253:317|253:317|237:237,1,101.999996887207,10|2,0:0|0:0,0:0:0:0:
59,201,63782,2,0,B|43:249|43:249|59:329,1,101.999996887207,2|0,1:2|0:0,0:0:0:0:
242,99,64187,6,0,P|198:57|73:99,1,203.999993774414,4|2,0:0|1:2,0:0:0:0:
242,266,64795,2,0,B|301:311|301:311|434:317,1,203.999993774414,2|2,0:0|0:0,0:0:0:0:
504,101,65403,1,2,1:2:0:0:
430,316,65606,1,4,1:2:0:0:
324,108,65809,5,2,1:2:0:0:
507,204,66012,1,2,1:2:0:0:
228,177,66214,1,2,1:2:0:0:
430,155,66417,1,2,1:2:0:0:
242,266,66620,1,4,1:0:0:0:
385,50,66822,1,2,0:0:0:0:
385,50,66924,1,0,1:0:0:0:
385,50,67025,1,2,0:0:0:0:
430,316,67228,1,0,1:0:0:0:
430,316,67329,1,2,0:0:0:0:
430,316,67430,6,0,P|335:318|241:264,1,203.999993774414,4|2,1:0|1:2,0:0:0:0:
304,96,68039,1,4,0:0:0:0:
399,251,68241,2,0,P|349:249|303:227,1,101.999996887207,8|2,0:0|0:0,0:0:0:0:
156,125,68647,1,2,1:2:0:0:
304,96,68849,1,2,0:0:0:0:
84,176,69052,6,0,P|72:127|82:78,1,101.999996887207,8|2,0:0|0:0,0:0:0:0:
310,304,69457,2,0,L|209:252,1,101.999996887207,2|2,1:2|0:0,0:0:0:0:
299,66,69863,2,0,L|307:187,1,101.999996887207,8|2,0:0|0:0,0:0:0:0:
85,177,70268,2,0,L|186:127,1,101.999996887207,2|2,1:2|0:0,0:0:0:0:
310,304,70674,5,4,0:1:0:0:
305,167,70876,1,0,0:0:0:0:
188,335,71079,1,2,1:2:0:0:
399,251,71282,1,2,0:0:0:0:
176,131,71485,2,0,P|166:180|178:229,1,101.999996887207,8|2,0:0|0:0,0:0:0:0:
305,167,71890,1,0,1:0:0:0:
420,335,72093,6,0,P|479:258|433:174,1,203.999993774414,4|2,0:1|1:2,0:0:0:0:
224,176,72701,1,2,1:2:0:0:
310,304,72903,1,2,0:0:0:0:
310,304,73005,1,0,1:0:0:0:
310,304,73106,1,2,0:0:0:0:
299,66,73309,1,2,0:0:0:0:
399,251,73512,1,0,1:0:0:0:
399,251,73613,1,2,0:0:0:0:
399,251,73714,1,0,1:0:0:0:
108,309,73917,6,0,B|187:300|187:300|236:311|236:311|316:303,1,203.999993774414,4|2,0:1|1:2,0:0:0:0:
433,174,74525,1,2,0:0:0:0:
490,334,74728,2,0,P|440:346|391:336,1,101.999996887207,0|2,0:0|0:0,0:0:0:0:
257,224,75133,2,0,P|306:211|355:221,1,101.999996887207,2|2,1:2|0:0,0:0:0:0:
213,302,75539,6,0,P|166:217|225:141,1,203.999993774414,2|2,0:0|1:2,0:0:0:0:
309,303,76147,1,2,0:0:0:0:
309,303,76248,1,0,1:0:0:0:
309,303,76349,1,2,0:0:0:0:
225,141,76552,1,2,0:0:0:0:
433,174,76755,1,2,1:2:0:0:
257,224,76958,1,2,0:0:0:0:
394,66,77160,6,0,B|335:21|335:21|202:15,1,203.999993774414,8|2,0:0|1:2,0:0:0:0:
60,103,77768,1,2,0:0:0:0:
174,204,77971,1,8,0:0:0:0:
104,14,78174,1,2,0:0:0:0:
76,277,78376,1,2,1:2:0:0:
205,15,78579,1,2,0:0:0:0:
76,277,78782,6,0,P|172:305|270:280,1,203.999993774414,8|2,0:0|1:2,0:0:0:0:
384,142,79390,1,4,0:0:0:0:
174,204,79593,1,2,1:2:0:0:
344,243,79795,1,0,1:0:0:0:
344,243,79897,1,2,0:0:0:0:
344,243,79998,1,0,1:0:0:0:
205,15,80201,1,0,0:0:0:0:
95,262,80403,6,0,P|82:208|100:148,1,85,4|2,0:0|0:0,0:0:0:0:
205,15,80809,1,2,1:2:0:0:
174,204,81012,1,4,0:1:0:0:
174,204,81417,1,10,0:0:0:0:
104,14,81620,1,10,0:0:0:0:
95,262,81822,6,0,P|157:298|252:262,1,170,4|2,0:1|0:0,0:0:0:0:
88,162,82430,1,2,1:2:0:0:
125,367,82633,2,0,P|168:376|233:360,1,85,4|2,0:0|0:0,0:0:0:0:
174,204,83039,1,4,0:1:0:0:
7,227,83241,1,0,1:0:0:0:
0,186,83342,1,0,1:0:0:0:
0,144,83443,1,0,1:0:0:0:
12,105,83545,1,0,1:0:0:0:
39,73,83647,5,4,1:0:0:0:
250,168,83849,2,0,P|255:210|245:252,1,85,0|2,1:0|1:2,0:0:0:0:
180,97,84255,2,0,P|256:67|330:105,1,170,4|2,1:2|1:2,0:0:0:0:
214,351,84863,1,2,1:2:0:0:
250,168,85066,6,0,B|296:88|223:75|260:0,1,170,4|4,1:2|1:2,0:0:0:0:
465,51,85674,1,2,1:2:0:0:
257,255,85876,1,4,0:1:0:0:
256,192,86079,12,2,88512,0:0:0:0:
