osu file format v14

[General]
AudioFilename: audio.mp3
AudioLeadIn: 0
PreviewTime: 53242
Countdown: 0
SampleSet: Soft
StackLeniency: 0.6
Mode: 0
LetterboxInBreaks: 0
WidescreenStoryboard: 1

[Editor]
Bookmarks: 32566,40674,47161
DistanceSpacing: 0.6
BeatDivisor: 4
GridSize: 16
TimelineZoom: 1

[Metadata]
Title:Stella Breeze (TV Size)
TitleUnicode:ステラブリーズ (TV Size)
Artist:Haruna Luna
ArtistUnicode:春奈るな
Creator:Venix
Version:Curi's Insane
Source:冴えない彼女の育てかた♭
Tags:Saenai Heroine no Sodatekata Curi [C_u_r_i] Alphabet Bara- Bara Hazu- Hazu Chalwa -Nitrous Nitrous Left opening light novel Krfawy
BeatmapID:1282099
BeatmapSetID:606266

[Difficulty]
HPDrainRate:6
CircleSize:4
OverallDifficulty:7.7
ApproachRate:8
SliderMultiplier:1.6
SliderTickRate:1

[Events]
//Background and Video events
0,0,"tak bym z nim zrobil.jpg",0,0
Video,0,"optc.flv"
//Break Periods
//Storyboard Layer 0 (Background)
//Storyboard Layer 1 (Fail)
//Storyboard Layer 2 (Pass)
//Storyboard Layer 3 (Foreground)
//Storyboard Sound Samples

[TimingPoints]
1756,405.405405405405,4,2,1,80,1,0
14728,-125,4,2,1,60,0,0
26485,-100,4,2,1,60,0,0
27701,-100,4,2,1,70,0,0
40674,-111.111111111111,4,2,1,80,0,0
47161,-100,4,2,1,80,0,0
54458,405.405405405405,4,2,1,90,1,1
54458,-90.9090909090909,4,2,1,90,0,1
64491,-90.9090909090909,4,2,1,5,0,1
64593,-90.9090909090909,4,2,1,90,0,1
80403,-100,4,2,1,80,0,0
88512,-100,4,2,1,30,0,0

[Colours]
Combo1 : 255,255,128
Combo2 : 82,10,231
Combo3 : 255,111,111
Combo4 : 104,106,204

[HitObjects]
114,123,1756,6,0,P|175:76|270:122,1,160,4|2,0:0|1:2,0:0:0:0:
402,162,2364,2,0,P|351:155|315:151,1,80,0|8,0:0|0:0,0:0:0:0:
186,255,2769,2,0,P|225:250|265:244,1,80,0|2,0:0|1:2,0:0:0:0:
350,235,3174,1,0,0:0:0:0:
338,15,3377,6,0,P|296:74|324:153,1,160,8|2,0:0|1:2,0:0:0:0:
470,223,3985,1,2,0:0:0:0:
470,223,4087,1,0,1:0:0:0:
470,223,4188,2,0,P|493:163|468:101,2,120,2|0|2,0:0|0:0|0:0,0:0:0:0:
265,244,4999,6,0,B|234:227|188:255|188:255|139:284|84:252,1,160,2|2,0:0|1:2,0:0:0:0:
29,129,5607,2,0,P|74:163|84:201,1,80,0|8,0:0|0:0,0:0:0:0:
10,323,6012,2,0,P|16:267|44:239,1,80,2|2,0:0|1:2,0:0:0:0:
112,264,6418,1,2,0:0:0:0:
89,23,6620,6,0,L|81:182,1,160,8|2,0:0|1:2,0:0:0:0:
161,339,7228,1,2,0:0:0:0:
307,242,7431,1,4,0:1:0:0:
307,242,7533,2,0,P|262:229|189:272,1,120,0|0,0:0|0:0,0:0:0:0:
358,320,8039,1,2,0:0:0:0:
358,320,8141,1,0,0:0:0:0:
358,320,8242,6,0,L|350:160,1,160,4|2,0:0|1:2,0:0:0:0:
179,120,8850,1,2,0:0:0:0:
179,120,8951,1,0,0:0:0:0:
179,120,9053,2,0,P|227:127|282:72,2,120,4|2|2,0:1|0:0|0:0,0:0:0:0:
339,17,9864,6,0,P|401:6|475:65,1,160,2|2,0:0|1:2,0:0:0:0:
352,200,10472,2,0,L|350:160,1,40,2|0,0:0|0:0,0:0:0:0:
365,287,10674,1,4,0:1:0:0:
365,287,10776,2,0,P|426:295|480:250,1,120,0|0,0:0|0:0,0:0:0:0:
475,168,11283,1,2,0:0:0:0:
491,334,11485,6,0,P|440:276|364:286,1,160,2|2,0:0|1:2,0:0:0:0:
190,366,12093,2,0,P|242:361|281:355,1,80,0|2,0:0|0:0,0:0:0:0:
292,350,12397,1,0,0:0:0:0:
292,350,12499,1,0,0:0:0:0:
444,296,12701,2,0,P|404:290|364:286,1,80,2|2,1:2|0:0,0:0:0:0:
137,265,13107,6,0,P|213:274|263:216,1,160,2|2,0:0|1:2,0:0:0:0:
223,37,13715,1,2,0:0:0:0:
223,37,13816,2,0,L|230:91,1,40
185,199,14120,2,0,L|188:160,1,40,2|0,0:0|0:0,0:0:0:0:
300,25,14323,1,2,1:2:0:0:
302,54,14424,1,2,0:0:0:0:
305,84,14525,1,2,1:2:0:0:
307,114,14627,1,0,0:0:0:0:
315,146,14728,5,4,0:1:0:0:
315,146,15134,2,0,P|371:138|397:127,1,64,8|2,0:0|0:0,0:0:0:0:
506,98,15539,2,0,P|475:89|443:88,1,64,2|0,0:0|0:0,0:0:0:0:
315,146,15945,2,0,P|345:154|377:155,1,64,8|0,0:0|0:0,0:0:0:0:
489,19,16350,6,0,P|425:8|368:50,1,128,2|8,0:0|0:0,0:0:0:0:
315,146,16958,2,0,P|322:187|332:217,1,64,2|0,0:0|0:0,0:0:0:0:
462,244,17364,2,0,P|455:285|445:315,1,64,2|8,0:0|0:0,0:0:0:0:
405,177,17769,1,4,0:0:0:0:
383,358,17972,5,2,0:0:0:0:
383,358,18377,2,0,P|342:351|312:341,1,64,8|2,0:0|0:0,0:0:0:0:
226,330,18783,2,0,P|252:297|276:277,1,64,2|0,0:0|0:0,0:0:0:0:
328,208,19188,2,0,P|342:247|348:277,1,64,8|2,0:0|0:0,0:0:0:0:
152,375,19593,6,0,P|154:299|165:258,2,96,4|2|0,0:1|0:0|0:0,0:0:0:0:
205,222,20404,2,0,P|147:207|119:216,1,64,2|0,0:0|0:0,0:0:0:0:
18,282,20810,2,0,P|49:280|78:267,1,64,8|2,0:0|0:0,0:0:0:0:
11,114,21215,5,2,0:0:0:0:
11,114,21620,1,8,0:0:0:0:
65,48,21823,2,0,P|96:50|125:63,1,64,2|0,0:0|0:0,0:0:0:0:
250,102,22228,2,0,P|221:115|189:117,1,64,2|8,0:0|0:0,0:0:0:0:
62,55,22634,6,0,L|144:65,1,64,2|0,0:0|0:0,0:0:0:0:
250,102,23039,2,0,L|384:89,1,128,2|2,0:0|0:0,0:0:0:0:
495,75,23647,1,0,0:0:0:0:
429,209,23850,2,0,L|446:132,1,64,2|4,0:0|0:1,0:0:0:0:
501,270,24255,1,0,0:0:0:0:
335,242,24458,6,0,P|270:240|219:287,1,128,2|8,0:0|0:0,0:0:0:0:
319,376,25066,2,0,P|305:330|296:305,1,64,2|0,0:0|0:0,0:0:0:0:
163,347,25472,2,0,P|209:357|235:362,1,64,2|8,0:0|0:0,0:0:0:0:
111,266,25877,1,2,0:0:0:0:
135,56,26080,6,0,L|121:187,1,128,2|4,0:0|0:0,0:0:0:0:
109,291,26688,1,2,0:0:0:0:
218,191,26891,1,2,0:0:0:0:
218,191,26992,1,0,1:0:0:0:
218,191,27093,2,0,L|211:137,1,40,2|0,0:0|0:0,0:0:0:0:
130,97,27296,1,0,1:0:0:0:
130,97,27397,1,2,0:0:0:0:
130,97,27498,2,0,L|137:43,1,40,0|0,1:0|0:0,0:0:0:0:
284,25,27701,5,4,0:1:0:0:
284,25,28107,2,0,P|362:14|420:97,1,160,0|2,1:0|0:0,0:0:0:0:
422,224,28715,1,0,0:0:0:0:
335,95,28918,2,0,L|345:176,1,80,2|2,1:2|0:0,0:0:0:0:
403,382,29323,6,0,L|422:223,1,160,2|0,0:0|1:0,0:0:0:0:
262,209,29931,2,0,L|272:290,1,80,2|0,0:0|0:0,0:0:0:0:
276,312,30235,1,0,0:0:0:0:
276,312,30337,1,0,0:0:0:0:
122,242,30539,1,0,1:0:0:0:
257,133,30742,1,2,0:0:0:0:
102,259,30945,6,0,L|120:100,1,160,2|0,0:0|1:0,0:0:0:0:
263,22,31553,2,0,P|311:34|339:75,1,80,2|0,0:0|0:0,0:0:0:0:
262,209,31958,2,0,P|248:161|269:116,1,80,2|0,0:0|1:0,0:0:0:0:
356,163,32364,1,2,0:0:0:0:
242,317,32566,6,0,B|212:334|165:311|165:311|120:290|82:320,1,160,2|0,0:0|1:0,0:0:0:0:
0,255,33174,1,2,0:0:0:0:
158,205,33377,1,2,0:0:0:0:
158,205,33478,1,0,1:0:0:0:
158,205,33580,1,2,0:0:0:0:
6,127,33783,2,0,P|0:183|0:213,1,80,0|2,1:0|0:0,0:0:0:0:
1,230,34087,1,0,0:0:0:0:
1,230,34188,6,0,P|87:224|166:203,1,160,4|0,0:1|1:0,0:0:0:0:
148,68,34796,2,0,P|92:62|62:62,1,80,2|0,0:0|0:0,0:0:0:0:
6,127,35201,1,0,0:0:0:0:
158,205,35404,2,0,P|197:203|237:198,1,80,2|0,1:2|0:0,0:0:0:0:
375,35,35810,6,0,P|312:39|286:126,1,160,2|0,0:0|1:0,0:0:0:0:
346,220,36418,1,2,0:0:0:0:
473,139,36620,2,0,P|433:133|393:131,1,80,2|0,0:0|0:0,0:0:0:0:
511,232,37026,1,0,1:0:0:0:
473,139,37228,1,2,0:0:0:0:
487,331,37431,6,0,P|426:357|345:294,1,160,0|0,0:0|1:0,0:0:0:0:
346,220,38039,1,2,0:0:0:0:
195,282,38242,2,0,P|245:272|282:270,1,80,2|0,0:0|0:0,0:0:0:0:
393,131,38647,2,0,P|353:127|314:119,1,80,0|2,1:0|0:0,0:0:0:0:
292,108,38951,1,0,1:0:0:0:
292,108,39053,6,0,L|287:61,1,40,2|0,0:0|0:0,0:0:0:0:
185,26,39255,2,0,L|180:65,1,40,2|0,0:0|0:0,0:0:0:0:
209,189,39458,2,0,L|204:142,1,40,0|0,1:0|0:0,0:0:0:0:
102,107,39660,2,0,L|97:146,1,40,2|0,0:0|0:0,0:0:0:0:
213,217,39864,1,4,0:1:0:0:
36,214,40066,1,0,1:0:0:0:
36,214,40168,1,0,1:0:0:0:
36,214,40269,1,0,1:0:0:0:
39,243,40370,1,0,1:0:0:0:
42,273,40471,1,0,1:0:0:0:
45,303,40573,1,0,1:0:0:0:
48,333,40674,6,0,P|114:279|188:304,1,143.999995605469,2|0,1:2|0:0,0:0:0:0:
285,333,41283,2,0,P|215:337|166:287,1,143.999995605469,0|2,1:0|1:2,0:0:0:0:
204,149,41891,2,0,P|213:186|204:230,1,71.9999978027344,4|0,1:0|1:0,0:0:0:0:
0,109,42296,6,0,L|168:89,1,143.999995605469,2|0,1:2|0:0,0:0:0:0:
315,16,42904,1,2,1:2:0:0:
380,65,43107,2,0,L|237:47,1,143.999995605469,2|4,0:0|1:0,0:0:0:0:
451,29,43715,1,2,0:0:0:0:
336,135,43918,6,0,P|323:186|346:238,2,107.999996704102,2|0|0,1:2|0:0|1:0,0:0:0:0:
418,269,44728,2,0,P|431:320|408:372,2,107.999996704102,2|0|2,0:0|0:0|0:0,0:0:0:0:
235,244,45539,5,4,1:2:0:0:
235,244,45945,2,0,L|83:269,2,143.999995605469,2|4|2,0:0|1:2|0:0,0:0:0:0:
256,241,46857,1,0,0:0:0:0:
256,241,46958,1,0,0:0:0:0:
418,269,47161,5,4,1:2:0:0:
418,269,47566,2,0,P|356:290|319:273,1,80,2|0,1:2|0:0,0:0:0:0:
281,130,47972,2,0,P|330:173|333:213,1,80,2|0,1:2|0:0,0:0:0:0:
234,313,48377,2,0,P|246:248|280:225,1,80,2|0,1:2|0:0,0:0:0:0:
412,172,48783,6,0,L|318:186,1,80,2|0,1:2|0:0,0:0:0:0:
152,226,49188,2,0,L|231:237,1,80,2|0,1:2|0:0,0:0:0:0:
91,142,49593,1,2,1:2:0:0:
134,320,49796,1,2,0:0:0:0:
95,116,49999,1,2,1:2:0:0:
0,304,50201,1,2,0:0:0:0:
188,155,50404,6,0,L|243:162,3,40,4|0|2|0,1:2|0:0|0:0|0:0,0:0:0:0:
254,240,50810,2,0,L|293:233,3,40,2|0|2|0,1:2|0:0|0:0|0:0,0:0:0:0:
358,296,51215,1,0,1:0:0:0:
396,306,51316,1,0,1:0:0:0:
433,294,51417,1,0,1:0:0:0:
459,264,51519,1,0,1:0:0:0:
466,225,51620,1,0,1:0:0:0:
450,189,51721,1,0,1:0:0:0:
418,166,51823,1,0,1:0:0:0:
379,164,51924,1,0,0:0:0:0:
344,183,52026,6,0,L|360:39,2,120,4|2|2,1:2|1:2|1:2,0:0:0:0:
150,137,52837,1,4,1:0:0:0:
150,137,54053,2,0,L|160:194,3,40,2|0|0|0,0:0|0:0|0:0|0:0,0:0:0:0:
172,252,54458,6,0,P|256:273|316:193,1,176.000005371094,4|2,1:0|1:2,0:0:0:0:
465,299,55066,2,0,P|411:280|358:283,1,88.000002685547,0|8,0:0|0:0,0:0:0:0:
287,128,55471,2,0,P|330:124|371:108,1,88.000002685547,2|2,0:0|1:2,0:0:0:0:
233,197,55876,1,2,0:0:0:0:
433,195,56079,5,8,0:0:0:0:
433,195,56485,2,0,P|472:103|430:21,1,176.000005371094,2|2,1:2|0:0,0:0:0:0:
424,21,56991,1,0,0:0:0:0:
424,21,57093,1,0,0:0:0:0:
232,38,57295,2,0,L|332:27,1,88.000002685547,2|0,1:2|0:0,0:0:0:0:
509,232,57701,6,0,P|428:225|334:211,1,176.000005371094,8|2,0:0|1:2,0:0:0:0:
172,290,58309,2,0,P|227:277|286:258,1,88.000002685547,2|8,0:0|0:0,0:0:0:0:
419,233,58714,2,0,P|376:220|333:210,1,88.000002685547,2|0,0:0|1:2,0:0:0:0:
484,331,59120,1,2,0:0:0:0:
459,114,59322,5,8,0:0:0:0:
459,114,59728,2,0,L|351:130,1,88.000002685547,2|2,1:2|0:0,0:0:0:0:
172,88,60133,1,10,0:0:0:0:
172,88,60235,2,0,L|289:96,1,88.000002685547,0|0,0:0|0:0,0:0:0:0:
286,96,60539,1,2,1:2:0:0:
128,10,60741,1,2,0:0:0:0:
128,10,60843,1,0,0:0:0:0:
128,10,60944,6,0,P|86:73|127:164,1,176.000005371094,4|2,0:1|1:2,0:0:0:0:
159,314,61552,1,0,0:0:0:0:
159,314,61653,1,0,0:0:0:0:
159,314,61755,2,0,P|72:291|19:284,2,132.00000402832,10|0|2,0:0|0:0|0:0,0:0:0:0:
348,366,62566,6,0,P|443:368|486:271,1,176.000005371094,10|2,0:0|1:2,0:0:0:0:
467,193,63174,1,4,0:0:0:0:
301,286,63376,1,10,0:0:0:0:
301,286,63478,1,0,0:0:0:0:
301,286,63579,1,2,0:0:0:0:
381,150,63782,2,0,P|382:198|381:252,1,88.000002685547,2|0,1:2|0:0,0:0:0:0:
206,340,64187,6,0,P|139:328|62:321,1,132.00000402832,4|0,0:0|0:0,0:0:0:0:
48,323,64593,1,2,1:2:0:0:
93,167,64795,2,0,P|156:160|197:154,1,88.000002685547,2|0,0:0|0:0,0:0:0:0:
48,239,65201,1,2,0:0:0:0:
145,52,65403,1,2,1:2:0:0:
246,240,65606,1,4,1:2:0:0:
14,157,65809,5,2,1:2:0:0:
255,125,66012,1,2,1:2:0:0:
14,157,66214,1,2,1:2:0:0:
253,253,66417,1,2,1:2:0:0:
253,253,66518,1,0,0:0:0:0:
253,253,66620,1,4,1:0:0:0:
324,80,66822,1,2,0:0:0:0:
297,54,66923,1,0,1:0:0:0:
263,43,67024,1,2,0:0:0:0:
227,47,67126,1,0,0:0:0:0:
196,66,67227,1,0,1:0:0:0:
176,97,67328,1,2,0:0:0:0:
172,133,67430,6,0,P|266:147|356:163,1,176.000005371094,4|2,1:0|1:2,0:0:0:0:
500,245,68039,2,0,P|450:256|396:273,1,88.000002685547,4|8,0:0|0:0,0:0:0:0:
245,137,68444,2,0,P|287:149|330:158,1,88.000002685547,2|2,0:0|1:2,0:0:0:0:
216,250,68849,1,2,0:0:0:0:
421,188,69052,5,8,0:0:0:0:
421,188,69457,2,0,P|499:273|461:339,1,176.000005371094,2|8,1:2|0:0,0:0:0:0:
467,338,69964,1,0,0:0:0:0:
467,338,70066,1,2,0:0:0:0:
326,274,70268,2,0,P|369:267|413:265,1,88.000002685547,2|2,1:2|0:0,0:0:0:0:
232,339,70674,6,0,P|128:352|97:275,1,176.000005371094,4|2,0:1|1:2,0:0:0:0:
117,131,71282,2,0,P|148:183|131:236,1,88.000002685547,2|8,0:0|0:0,0:0:0:0:
134,232,71586,1,0,0:0:0:0:
134,232,71687,1,2,0:0:0:0:
34,78,71890,1,0,1:0:0:0:
232,141,72093,6,0,B|305:127|305:127|328:140|328:140|417:123,1,176.000005371094,4|0,0:1|0:0,0:0:0:0:
285,23,72701,1,2,1:2:0:0:
289,245,72903,1,2,0:0:0:0:
289,245,73005,1,0,1:0:0:0:
289,245,73106,2,0,L|303:314,2,44.0000013427735,2|0|2,0:0|0:0|0:0,0:0:0:0:
428,122,73512,1,0,1:0:0:0:
453,314,73714,1,0,1:0:0:0:
453,314,73816,1,0,0:0:0:0:
453,314,73917,6,0,P|408:375|303:337,1,176.000005371094,4|2,0:1|1:2,0:0:0:0:
406,206,74525,1,2,0:0:0:0:
283,136,74728,1,0,0:0:0:0:
166,262,74930,2,0,P|238:258|260:233,1,88.000002685547,2|2,0:0|1:2,0:0:0:0:
96,162,75336,1,2,0:0:0:0:
202,18,75539,6,0,P|200:73|194:206,1,176.000005371094,2|2,0:0|1:2,0:0:0:0:
95,76,76147,1,2,0:0:0:0:
82,256,76349,1,2,0:0:0:0:
82,256,76451,1,0,0:0:0:0:
82,256,76552,1,2,0:0:0:0:
275,168,76755,2,0,P|206:184|178:212,1,88.000002685547,2|2,1:2|0:0,0:0:0:0:
180,216,77059,1,0,0:0:0:0:
180,216,77160,6,0,P|167:290|239:363,1,176.000005371094,8|2,0:0|1:2,0:0:0:0:
355,268,77768,2,0,P|276:266|240:268,1,88.000002685547,2|8,0:0|0:0,0:0:0:0:
429,349,78174,1,2,0:0:0:0:
415,160,78376,1,2,1:2:0:0:
267,266,78579,5,2,0:0:0:0:
236,278,78680,1,0,0:0:0:0:
205,271,78781,1,8,0:0:0:0:
183,247,78883,1,0,0:0:0:0:
180,214,78984,1,0,0:0:0:0:
247,42,79187,2,0,P|263:121|245:145,1,88.000002685547,2|4,1:2|0:0,0:0:0:0:
86,145,79593,2,0,P|146:91|176:95,1,88.000002685547,2|0,1:2|1:0,0:0:0:0:
174,98,79897,1,2,0:0:0:0:
174,98,79998,2,0,L|170:164,1,44.0000013427735,0|0,1:0|0:0,0:0:0:0:
81,225,80201,2,0,L|83:268,1,44.0000013427735,0|0,0:0|0:0,0:0:0:0:
209,358,80403,6,0,P|266:366|307:330,1,80,4|2,0:0|0:0,0:0:0:0:
365,208,80809,1,2,1:2:0:0:
495,328,81012,2,0,P|455:303|343:293,1,160,4|10,0:1|0:0,0:0:0:0:
512,235,81620,1,10,0:0:0:0:
282,237,81822,6,0,B|258:201|258:201|279:50,1,160,4|2,0:1|0:0,0:0:0:0:
368,177,82430,1,2,1:2:0:0:
217,11,82633,1,4,0:0:0:0:
206,249,82836,2,0,P|249:252|285:233,1,80,2|4,0:0|0:1,0:0:0:0:
422,115,83241,1,0,1:0:0:0:
406,104,83342,1,0,1:0:0:0:
387,97,83443,1,0,1:0:0:0:
367,95,83545,1,0,1:0:0:0:
348,98,83646,5,4,1:0:0:0:
449,214,83849,1,0,1:0:0:0:
498,72,84052,1,2,1:2:0:0:
269,119,84255,2,0,L|88:105,1,160,4|2,1:2|1:2,0:0:0:0:
281,236,84863,1,2,1:2:0:0:
41,257,85066,6,0,L|200:244,1,160,4|4,1:2|1:2,0:0:0:0:
408,315,85674,1,2,1:2:0:0:
367,95,85876,1,4,0:1:0:0:
256,192,85978,12,2,88512,0:0:0:0:
