osu file format v14

[General]
AudioFilename: audio.mp3
AudioLeadIn: 0
PreviewTime: 53242
Countdown: 0
SampleSet: Soft
StackLeniency: 0.6
Mode: 0
LetterboxInBreaks: 0
WidescreenStoryboard: 1

[Editor]
Bookmarks: 57498
DistanceSpacing: 1
BeatDivisor: 4
GridSize: 16
TimelineZoom: 1

[Metadata]
Title:Stella Breeze (TV Size)
TitleUnicode:ステラブリーズ (TV Size)
Artist:Haruna Luna
ArtistUnicode:春奈るな
Creator:Venix
Version:Chalwa's Normal
Source:冴えない彼女の育てかた♭
Tags:Saenai Heroine no Sodatekata Curi [C_u_r_i] Alphabet Bara- Bara Hazu- Hazu Chalwa -Nitrous Nitrous Left opening light novel Krfawy
BeatmapID:1286762
BeatmapSetID:606266

[Difficulty]
HPDrainRate:4
CircleSize:3.1
OverallDifficulty:5
ApproachRate:6
SliderMultiplier:1.15
SliderTickRate:1

[Events]
//Background and Video events
0,0,"tak bym z nim zrobil.jpg",0,0
Video,0,"optc.flv"
//Break Periods
//Storyboard Layer 0 (Background)
//Storyboard Layer 1 (Fail)
//Storyboard Layer 2 (Pass)
//Storyboard Layer 3 (Foreground)
//Storyboard Sound Samples

[TimingPoints]
1756,405.405405405405,4,2,1,70,1,0
14728,-100,4,2,1,60,0,0
26485,-100,4,2,1,70,0,0
53242,-100,4,2,1,50,0,0
54458,405.405405405405,4,2,1,80,1,1
54458,-100,4,2,1,80,0,1
80403,-100,4,2,1,80,0,0
88512,-100,4,2,1,5,0,0

[Colours]
Combo1 : 255,79,79
Combo2 : 255,164,209
Combo3 : 193,193,255

[HitObjects]
145,226,1756,6,0,P|209:242|266:220,1,115,4|2,0:0|1:2,0:0:0:0:
303,197,2364,1,0,0:0:0:0:
303,197,2566,2,0,L|303:316,1,115,8|2,0:0|1:2,0:0:0:0:
347,348,3174,2,0,P|411:364|468:342,1,115,2|0,0:0|0:0,0:0:0:0:
486,238,3985,1,2,0:0:0:0:
486,238,4188,2,0,L|485:131,2,86.25,2|0|2,0:0|0:0|0:0,0:0:0:0:
477,294,4999,6,0,P|422:309|368:293,1,115,2|2,0:0|1:2,0:0:0:0:
312,277,5607,1,0,0:0:0:0:
312,277,5810,2,0,L|312:162,1,115,8|2,0:0|1:2,0:0:0:0:
267,126,6417,2,0,P|212:111|157:127,1,115,2|0,0:0|0:0,0:0:0:0:
80,208,7228,1,2,0:0:0:0:
80,208,7431,2,0,L|-2:243,2,86.25,4|2|2,0:1|0:0|0:0,0:0:0:0:
110,256,8242,6,0,L|240:256,1,115,4|2,0:0|1:2,0:0:0:0:
331,295,9053,2,0,P|328:339|345:385,2,86.25,4|2|2,0:1|0:0|0:0,0:0:0:0:
307,242,9864,2,0,P|310:187|289:130,1,115,2|2,0:0|1:2,0:0:0:0:
258,20,10674,2,0,L|357:20,2,86.25,4|2|2,0:1|0:0|0:0,0:0:0:0:
206,44,11485,6,0,L|71:44,1,115,2|2,0:0|1:2,0:0:0:0:
8,123,12296,2,0,P|-6:177|9:238,1,115,0|2,0:0|1:2,0:0:0:0:
64,238,12904,2,0,B|92:297|61:352|61:352|119:323|183:353,1,230,2|2,0:0|0:0,0:0:0:0:
224,360,13918,2,0,P|278:374|339:359,1,115,2|0,0:0|0:0,0:0:0:0:
422,287,14728,5,4,0:1:0:0:
355,182,15134,2,0,L|355:113,1,57.5,8|0,0:0|0:0,0:0:0:0:
328,73,15539,2,0,P|300:66|259:76,1,57.5,2|0,0:0|0:0,0:0:0:0:
216,81,15945,2,0,P|187:85|159:78,1,57.5,8|0,0:0|0:0,0:0:0:0:
119,39,16350,2,0,L|120:168,1,115,2|8,0:0|0:0,0:0:0:0:
152,200,16958,2,0,L|153:332,1,115,2|0,0:0|0:0,0:0:0:0:
187,360,17566,2,0,P|219:365|253:359,1,57.5,8|4,0:0|0:0,0:0:0:0:
298,341,17972,5,2,0:0:0:0:
412,340,18377,2,0,L|471:340,2,57.5,10|0|0,0:0|0:0|0:0,0:0:0:0:
376,294,18985,1,0,0:0:0:0:
376,294,19188,2,0,P|371:265|374:236,1,57.5,8|0,0:0|0:0,0:0:0:0:
389,181,19593,2,0,P|398:123|392:66,1,115,0|0,0:1|0:0,0:0:0:0:
352,26,20201,2,0,B|295:36|295:36|238:27,1,115,8|0,0:0|0:0,0:0:0:0:
180,37,20810,2,0,P|177:65|182:93,1,57.5,2|0,0:0|0:0,0:0:0:0:
208,144,21215,5,2,0:0:0:0:
288,226,21620,1,8,0:0:0:0:
288,226,21823,2,0,P|345:235|402:229,2,115,2|2|2,0:0|0:0|0:0,0:0:0:0:
236,199,22837,1,0,0:0:0:0:
236,199,23039,2,0,P|178:189|122:196,1,115,0|2,0:0|0:0,0:0:0:0:
7,227,23850,2,0,L|6:291,2,57.5,2|4|0,0:0|0:1|0:0,0:0:0:0:
32,174,24458,6,0,L|32:46,1,115,2|8,0:0|0:0,0:0:0:0:
69,15,25066,2,0,P|135:32|192:13,1,115,2|2,0:0|0:0,0:0:0:0:
234,5,25674,2,0,L|292:5,1,57.5,8|2,0:0|0:0,0:0:0:0:
345,24,26080,2,0,P|351:52|346:80,1,57.5
330,137,26485,2,0,P|324:165|329:193,1,57.5,4|0,0:0|0:0,0:0:0:0:
353,246,26891,2,0,L|218:246,1,115,2|0,0:0|1:0,0:0:0:0:
219,132,27701,6,0,L|84:132,1,115,4|0,0:1|1:0,0:0:0:0:
10,192,28512,2,0,P|14:220|11:248,1,57.5,2|0,0:0|0:0,0:0:0:0:
0,306,28918,2,0,P|-4:334|0:362,1,57.5,2|2,1:2|0:0,0:0:0:0:
57,369,29323,2,0,P|126:376|195:367,1,115,2|0,0:0|1:0,0:0:0:0:
227,358,29931,2,0,P|296:350|365:359,1,115,2|0,0:0|0:0,0:0:0:0:
398,345,30539,2,0,L|398:278,1,57.5,0|2,1:0|0:0,0:0:0:0:
435,243,30945,6,0,L|435:113,1,115,2|0,0:0|1:0,0:0:0:0:
400,82,31553,2,0,P|330:74|261:83,1,115,2|2,0:0|0:0,0:0:0:0:
234,103,32161,2,0,P|199:106|164:102,1,57.5,0|2,1:0|0:0,0:0:0:0:
121,90,32566,2,0,P|125:147|117:204,1,115,2|0,0:0|1:0,0:0:0:0:
82,250,33174,1,2,0:0:0:0:
164,329,33580,1,2,0:0:0:0:
164,329,33783,2,0,L|225:328,1,57.5,0|2,1:0|0:0,0:0:0:0:
268,298,34188,6,0,L|387:299,1,115,4|0,0:1|1:0,0:0:0:0:
425,259,34796,2,0,P|438:197|418:146,1,115,2|0,0:0|0:0,0:0:0:0:
382,106,35404,1,2,1:2:0:0:
326,207,35810,2,0,L|208:206,1,115,2|0,0:0|1:0,0:0:0:0:
104,163,36620,2,0,P|91:101|111:50,1,115,2|0,0:0|1:0,0:0:0:0:
220,29,37431,6,0,L|334:29,1,115,0|0,0:0|1:0,0:0:0:0:
365,78,38039,1,2,0:0:0:0:
365,78,38242,2,0,P|378:133|360:187,1,115,2|0,0:0|1:0,0:0:0:0:
317,226,38850,2,0,P|299:279|312:335,2,115,2|2|2,0:0|0:0|0:0,0:0:0:0:
359,187,39864,2,0,P|412:204|468:191,1,115,4|0,0:1|0:0,0:0:0:0:
415,88,40674,6,0,P|334:70|262:126,1,172.5,2|0,1:2|1:0,0:0:0:0:
239,230,41688,1,2,1:2:0:0:
239,230,41891,2,0,L|164:230,1,57.5,4|0,1:0|0:0,0:0:0:0:
124,219,42296,2,0,P|74:151|92:69,1,172.5,2|2,1:2|1:2,0:0:0:0:
200,27,43310,1,0,0:0:0:0:
200,27,43512,2,0,L|257:27,1,57.5,4|2,1:0|0:0,0:0:0:0:
303,61,43918,6,0,L|394:61,2,86.25,2|0|0,1:2|0:0|1:0,0:0:0:0:
272,109,44728,2,0,L|181:109,2,86.25,2|0|2,0:0|0:0|0:0,0:0:0:0:
314,147,45539,2,0,P|334:199|317:258,1,115,4|2,1:2|0:0,0:0:0:0:
221,314,46350,2,0,P|201:262|218:203,1,115,4|2,1:2|0:0,0:0:0:0:
272,109,47161,6,0,P|217:94|153:118,1,115,4|2,1:2|1:2,0:0:0:0:
115,143,47769,1,0,0:0:0:0:
115,143,47972,2,0,L|116:211,1,57.5,2|0,1:2|0:0,0:0:0:0:
144,250,48377,2,0,L|145:318,1,57.5,2|0,1:2|0:0,0:0:0:0:
182,351,48783,6,0,L|299:350,1,115,2|2,1:2|1:2,0:0:0:0:
348,324,49391,1,0,0:0:0:0:
348,324,49593,2,0,P|340:288|343:259,1,57.5,2|2,1:2|0:0,0:0:0:0:
360,213,49999,2,0,P|360:184|353:156,1,57.5,2|0,1:2|0:0,0:0:0:0:
328,104,50404,6,0,P|257:132|170:92,2,172.5,4|2|0,1:2|0:0|1:0,0:0:0:0:
375,71,51823,1,0,1:0:0:0:
424,100,52026,2,0,L|516:100,2,86.25,4|2|2,1:2|1:2|1:2,0:0:0:0:
375,71,52837,1,4,1:0:0:0:
255,71,53242,5,2,0:0:0:0:
255,185,53647,1,2,0:0:0:0:
370,185,54053,1,2,0:0:0:0:
370,299,54458,6,0,P|316:316|260:301,1,115,4|2,1:0|1:2,0:0:0:0:
213,268,55066,2,0,P|159:251|103:266,1,115,0|2,0:0|0:0,0:0:0:0:
60,306,55674,1,2,1:2:0:0:
60,306,55876,2,0,L|60:183,1,115,2|0,0:0|0:0,0:0:0:0:
96,145,56485,2,0,L|96:22,2,115,2|2|2,1:2|0:0|1:2,0:0:0:0:
188,214,57701,6,0,P|252:198|309:220,1,115,8|2,0:0|1:2,0:0:0:0:
346,243,58309,2,0,L|346:124,1,115,2|2,0:0|0:0,0:0:0:0:
390,92,58917,1,0,1:2:0:0:
390,92,59120,2,0,P|454:76|511:98,1,115,0|2,0:0|0:0,0:0:0:0:
504,147,59728,1,2,1:2:0:0:
447,246,60133,2,0,L|447:345,2,86.25,10|0|2,0:0|0:0|0:0,0:0:0:0:
413,199,60944,6,0,P|358:184|303:200,1,115,4|2,0:1|1:2,0:0:0:0:
251,224,61552,1,0,0:0:0:0:
251,224,61755,2,0,L|162:223,2,86.25,10|0|2,0:0|0:0|0:0,0:0:0:0:
293,262,62566,2,0,P|307:316|291:371,1,115,10|2,0:0|1:2,0:0:0:0:
233,373,63174,1,0,0:0:0:0:
233,373,63376,2,0,L|113:373,1,115,14|2,0:0|1:2,0:0:0:0:
44,284,64187,6,0,L|164:284,1,115,4|2,0:0|1:2,0:0:0:0:
208,255,64795,2,0,P|224:200|209:145,1,115,2|2,0:0|0:0,0:0:0:0:
171,102,65403,1,2,1:2:0:0:
171,102,65606,2,0,P|225:118|280:103,1,115,4|2,1:2|1:2,0:0:0:0:
335,74,66214,5,2,1:2:0:0:
450,74,66620,1,4,1:0:0:0:
450,188,67025,1,2,0:0:0:0:
335,188,67430,6,0,P|319:239|336:296,1,115,4|2,1:0|1:2,0:0:0:0:
376,338,68039,2,0,L|251:337,1,115,4|2,0:0|0:0,0:0:0:0:
210,310,68647,1,2,1:2:0:0:
210,310,68849,2,0,P|227:256|211:201,1,115,2|2,0:0|0:0,0:0:0:0:
179,153,69457,2,0,P|162:98|180:44,2,115,2|8|2,1:2|0:0|1:2,0:0:0:0:
297,188,70674,6,0,L|417:188,1,115,4|2,0:1|1:2,0:0:0:0:
460,219,71282,2,0,P|476:273|458:327,1,115,2|2,0:0|0:0,0:0:0:0:
415,364,71890,1,0,1:0:0:0:
415,364,72093,2,0,L|300:364,1,115,4|0,0:1|0:0,0:0:0:0:
231,272,72903,2,0,L|346:272,1,115,2|2,0:0|0:0,0:0:0:0:
396,242,73512,2,0,L|455:242,1,57.5,0|0,1:0|1:0,0:0:0:0:
501,210,73917,6,0,P|514:161|487:84,1,115,4|2,0:1|1:2,0:0:0:0:
457,58,74525,1,2,0:0:0:0:
359,119,74930,2,0,L|291:119,1,57.5,2|2,0:0|1:2,0:0:0:0:
253,151,75336,2,0,P|236:214|271:313,1,172.5,2|2,0:0|1:2,0:0:0:0:
315,348,76147,1,2,0:0:0:0:
388,260,76552,2,0,L|456:260,1,57.5,2|2,0:0|1:2,0:0:0:0:
494,228,76958,6,0,P|510:164|475:65,1,172.5,2|2,0:0|1:2,0:0:0:0:
427,37,77768,2,0,L|307:37,1,115,2|2,0:0|0:0,0:0:0:0:
260,62,78376,2,0,L|199:62,1,57.5,2|2,1:2|0:0,0:0:0:0:
152,90,78782,2,0,P|139:139|166:216,1,115,8|2,0:0|1:2,0:0:0:0:
194,241,79390,1,4,0:0:0:0:
194,241,79593,2,0,L|193:337,2,86.25,2|2|0,1:2|0:0|0:0,0:0:0:0:
236,202,80403,6,0,P|290:186|346:199,1,115,4|2,0:0|1:2,0:0:0:0:
398,224,81012,2,0,L|397:106,1,115,4|10,0:1|0:0,0:0:0:0:
348,77,81620,1,10,0:0:0:0:
348,77,81822,2,0,P|293:92|237:79,1,115,4|2,0:1|0:0,0:0:0:0:
186,55,82430,1,2,1:2:0:0:
186,55,82633,2,0,P|172:110|188:165,1,115,4|4,0:0|0:1,0:0:0:0:
240,189,83241,2,0,P|267:181|295:187,1,57.5,0|0,1:0|1:0,0:0:0:0:
343,219,83647,6,0,P|397:234|453:221,1,115,4|2,1:0|1:2,0:0:0:0:
505,197,84256,2,0,L|504:315,1,115,4|2,1:2|1:2,0:0:0:0:
455,344,84864,1,2,1:2:0:0:
455,344,85066,2,0,P|400:328|344:341,1,115,4|4,1:2|1:2,0:0:0:0:
293,366,85674,1,2,1:2:0:0:
293,366,85876,5,4,0:1:0:0:
256,192,85978,12,2,88512,0:0:0:0:
