osu file format v14

[General]
AudioFilename: audio.mp3
AudioLeadIn: 0
PreviewTime: 53242
Countdown: 0
SampleSet: Soft
StackLeniency: 0.4
Mode: 0
LetterboxInBreaks: 0
WidescreenStoryboard: 1

[Editor]
Bookmarks: 39053
DistanceSpacing: 1.3
BeatDivisor: 4
GridSize: 4
TimelineZoom: 1

[Metadata]
Title:Stella Breeze (TV Size)
TitleUnicode:ステラブリーズ (TV Size)
Artist:Haruna Luna
ArtistUnicode:春奈るな
Creator:Venix
Version:Hard
Source:冴えない彼女の育てかた♭
Tags:Saenai Heroine no Sodatekata Curi [C_u_r_i] Alphabet Bara- Bara Hazu- Hazu Chalwa -Nitrous Nitrous Left opening light novel Krfawy
BeatmapID:1284436
BeatmapSetID:606266

[Difficulty]
HPDrainRate:6
CircleSize:3.7
OverallDifficulty:7
ApproachRate:7.5
SliderMultiplier:1.5
SliderTickRate:1

[Events]
//Background and Video events
0,0,"tak bym z nim zrobil.jpg",0,0
Video,0,"optc.flv"
//Break Periods
//Storyboard Layer 0 (Background)
//Storyboard Layer 1 (Fail)
//Storyboard Layer 2 (Pass)
//Storyboard Layer 3 (Foreground)
//Storyboard Sound Samples

[TimingPoints]
1756,405.405405405405,4,2,1,70,1,0
14728,-133.333333333333,4,2,1,60,0,0
27701,-100,4,2,1,70,0,0
53242,-100,4,2,1,50,0,0
54458,405.405405405405,4,2,1,80,1,1
54458,-90.9090909090909,4,2,1,80,0,1
80403,-100,4,2,1,80,0,0
88512,-100,4,2,1,5,0,0

[Colours]
Combo1 : 255,255,128
Combo2 : 82,10,231
Combo3 : 255,111,111
Combo4 : 104,106,204

[HitObjects]
195,155,1350,5,4,0:1:0:0:
195,155,1756,6,0,P|243:171|291:155,1,75,4|0,0:0|0:0,0:0:0:0:
339,107,2161,2,0,P|376:104|410:119,1,75,2|0,1:2|0:0,0:0:0:0:
451,203,2566,1,8,0:0:0:0:
419,299,2769,1,0,0:0:0:0:
323,331,2972,1,2,1:2:0:0:
243,267,3174,1,0,0:0:0:0:
266,167,3377,6,0,P|274:125|231:53,1,112.5,8|0,0:0|0:0,0:0:0:0:
208,48,3783,2,0,L|112:64,1,75,2|2,1:2|0:0,0:0:0:0:
100,152,4188,2,0,L|196:136,1,75,2|8,0:0|0:0,0:0:0:0:
266,167,4593,1,10,1:2:0:0:
243,267,4796,1,2,0:0:0:0:
323,346,4999,6,0,P|354:297|352:243,1,112.5,2|0,0:0|0:0,0:0:0:0:
323,214,5404,2,0,L|264:165,1,75,2|0,1:2|0:0,0:0:0:0:
285,70,5810,2,0,L|344:119,1,75,8|2,0:0|0:0,0:0:0:0:
422,175,6215,1,2,1:2:0:0:
434,80,6418,1,2,0:0:0:0:
342,117,6620,6,0,P|328:196|364:256,1,150,8|2,0:0|1:2,0:0:0:0:
438,291,7228,1,2,0:0:0:0:
362,353,7431,2,0,P|305:335|264:271,2,112.5,4|2|2,0:1|0:0|0:0,0:0:0:0:
353,233,8242,6,0,P|293:191|220:202,1,150,4|2,0:0|1:2,0:0:0:0:
152,259,8850,1,2,0:0:0:0:
114,169,9053,2,0,P|134:113|201:75,2,112.5,4|2|2,0:1|0:0|0:0,0:0:0:0:
212,182,9864,6,0,L|325:193,1,112.5,4|0,0:0|0:0,0:0:0:0:
355,213,10269,2,0,P|346:252|364:308,1,75,2|2,1:2|0:0,0:0:0:0:
437,255,10674,2,0,L|517:161,2,112.5,4|2|2,0:1|0:0|0:0,0:0:0:0:
390,357,11485,6,0,P|316:362|277:284,1,150,4|2,0:0|1:2,0:0:0:0:
228,219,12093,2,0,B|196:203|156:219|156:219|116:235|68:211,1,150,0|0,0:0|0:0,0:0:0:0:
36,131,12701,1,2,1:2:0:0:
133,130,12904,1,2,0:0:0:0:
82,217,13107,2,0,L|55:310,1,75,2|0,0:0|0:0,0:0:0:0:
46,384,13512,1,2,1:2:0:0:
132,338,13715,1,2,0:0:0:0:
132,338,13816,1,0,1:0:0:0:
132,338,13918,2,0,P|198:339|251:352,2,112.5,2|0|2,0:0|0:0|1:2,0:0:0:0:
46,384,14728,5,4,0:1:0:0:
243,349,15134,1,8,0:0:0:0:
299,286,15337,1,2,0:0:0:0:
281,203,15539,2,0,P|288:151|297:124,1,56.2500021457673,2|0,0:0|0:0,0:0:0:0:
331,73,15945,2,0,P|303:67|275:65,1,56.2500021457673,8|0,0:0|0:0,0:0:0:0:
196,93,16350,6,0,B|156:92|156:92|123:107|123:107|83:107,1,112.500004291535,2|8,0:0|0:0,0:0:0:0:
57,27,16958,1,2,0:0:0:0:
87,107,17161,1,0,0:0:0:0:
76,190,17364,1,2,0:0:0:0:
48,269,17566,2,0,L|34:345,1,56.2500021457673,8|4,0:0|0:0,0:0:0:0:
124,377,17972,5,2,0:0:0:0:
76,190,18377,1,8,0:0:0:0:
154,222,18580,1,2,0:0:0:0:
228,182,18783,2,0,B|260:176|260:176|306:180,1,56.2500021457673,2|0,0:0|0:0,0:0:0:0:
324,252,19188,2,0,B|292:258|292:258|246:254,1,56.2500021457673,8|2,0:0|0:0,0:0:0:0:
228,182,19593,6,0,P|217:141|248:84,2,84.3750032186509,4|2|0,0:1|0:0|0:0,0:0:0:0:
297,335,20607,1,0,0:0:0:0:
324,252,20810,1,8,0:0:0:0:
405,230,21012,1,2,0:0:0:0:
470,300,21215,6,0,P|492:256|496:197,1,84.3750032186509,2|0,0:0|0:0,0:0:0:0:
486,180,21620,2,0,P|454:151|418:139,1,56.2500021457673,8|2,0:0|0:0,0:0:0:0:
358,133,22026,2,0,L|282:135,1,56.2500021457673,0|2,0:0|0:0,0:0:0:0:
266,57,22431,2,0,L|342:55,1,56.2500021457673,8|2,0:0|0:0,0:0:0:0:
406,65,22837,6,0,P|432:92|433:168,1,112.500004291535,0|8,0:0|0:0,0:0:0:0:
365,212,23445,1,2,0:0:0:0:
308,274,23647,2,0,P|279:271|252:266,1,56.2500021457673,0|2,0:0|0:0,0:0:0:0:
207,338,24053,2,0,P|235:340|262:345,1,56.2500021457673,4|0,0:1|0:0,0:0:0:0:
358,344,24458,6,0,B|398:343|398:343|431:358|431:358|467:358,1,112.500004291535,2|8,0:0|0:0,0:0:0:0:
504,282,25066,1,2,0:0:0:0:
442,224,25269,2,0,B|414:216|414:216|378:224,1,56.2500021457673,0|2,0:0|0:0,0:0:0:0:
317,268,25674,2,0,B|290:273|290:273|262:265,1,56.2500021457673,8|2,0:0|0:0,0:0:0:0:
195,213,26080,6,0,P|125:202|69:216,1,112.500004291535,2|4,0:0|0:0,0:0:0:0:
146,367,26891,1,2,0:0:0:0:
146,367,26992,1,0,0:0:0:0:
146,367,27093,1,2,0:0:0:0:
140,282,27296,1,0,1:0:0:0:
136,197,27499,1,0,1:0:0:0:
27,281,27701,6,0,P|-4:217|23:145,1,150,4|0,0:1|1:0,0:0:0:0:
101,89,28310,1,2,0:0:0:0:
190,136,28512,2,0,B|226:144|226:144|286:136,1,75,2|0,0:0|0:0,0:0:0:0:
284,44,28918,2,0,B|248:36|248:36|210:41,1,75,2|2,1:2|0:0,0:0:0:0:
263,138,29323,5,2,0:0:0:0:
352,112,29526,1,0,0:0:0:0:
284,44,29728,1,0,1:0:0:0:
263,138,29931,2,0,B|247:170|263:210|263:210|279:250|255:298,1,150,2|0,0:0|0:0,0:0:0:0:
188,356,30539,1,0,1:0:0:0:
144,268,30742,1,2,0:0:0:0:
261,283,30945,6,0,B|349:299|349:299|417:263,1,150,2|0,0:0|1:0,0:0:0:0:
406,175,31553,2,0,P|466:199|502:275,1,150,2|2,0:0|0:0,0:0:0:0:
402,270,32161,1,0,1:0:0:0:
406,175,32364,1,2,0:0:0:0:
341,96,32566,2,0,L|193:56,1,150,2|0,0:0|1:0,0:0:0:0:
104,24,33174,1,2,0:0:0:0:
48,212,33580,1,2,0:0:0:0:
48,212,33783,2,0,B|84:220|84:220|144:212,1,75,0|2,1:0|0:0,0:0:0:0:
208,140,34188,6,0,P|238:196|217:278,1,150,4|0,0:1|1:0,0:0:0:0:
144,340,34796,1,2,0:0:0:0:
236,368,34999,2,0,L|328:356,1,75,0|0,0:0|0:0,0:0:0:0:
372,280,35404,2,0,L|446:289,1,75,2|0,1:2|0:0,0:0:0:0:
500,372,35810,5,2,0:0:0:0:
436,188,36215,1,0,1:0:0:0:
436,188,36418,1,2,0:0:0:0:
339,197,36620,2,0,L|182:186,1,150,2|0,0:0|1:0,0:0:0:0:
92,175,37228,1,2,0:0:0:0:
189,186,37431,2,0,P|213:273|200:300,1,112.5,0|0,0:0|0:0,0:0:0:0:
168,319,37837,6,0,L|257:325,1,75,0|2,1:0|0:0,0:0:0:0:
324,376,38242,1,2,0:0:0:0:
379,296,38445,1,0,0:0:0:0:
298,241,38647,1,0,1:0:0:0:
243,322,38850,1,2,0:0:0:0:
131,338,39053,6,0,L|94:341,2,37.5,2|0|2,0:0|0:0|0:0,0:0:0:0:
168,247,39458,2,0,L|205:250,2,37.5,0|0|2,1:0|0:0|0:0,0:0:0:0:
69,243,39864,1,4,0:1:0:0:
135,172,40066,1,0,1:0:0:0:
139,154,40167,1,0,1:0:0:0:
140,136,40268,1,0,1:0:0:0:
138,118,40370,1,0,1:0:0:0:
132,101,40472,2,0,L|112:62,1,37.5,0|0,1:0|1:0,0:0:0:0:
76,28,40674,6,0,B|108:12|148:28|148:28|188:44|236:20,1,150,2|0,1:2|0:0,0:0:0:0:
327,0,41283,1,0,1:0:0:0:
461,160,41688,1,2,1:2:0:0:
365,204,41891,2,0,P|361:147|414:66,1,150,4|2,1:0|1:2,0:0:0:0:
510,277,42904,5,2,1:2:0:0:
510,277,43107,1,2,0:0:0:0:
307,333,43512,1,4,1:0:0:0:
307,333,43715,1,2,0:0:0:0:
380,258,43918,6,0,P|401:301|405:372,2,112.5,2|0|0,1:2|0:0|1:0,0:0:0:0:
291,217,44728,2,0,P|270:174|266:103,2,112.5,2|0|2,0:0|0:0|0:0,0:0:0:0:
375,142,45539,5,4,1:2:0:0:
168,52,45945,2,0,L|54:60,1,112.5,2|0,0:0|0:0,0:0:0:0:
13,83,46350,2,0,P|48:127|53:202,1,112.5,4|0,1:2|0:0,0:0:0:0:
23,217,46755,2,0,L|130:221,1,75,2|0,0:0|0:0,0:0:0:0:
196,222,47161,5,4,1:2:0:0:
277,275,47364,1,0,0:0:0:0:
327,357,47566,2,0,P|381:361|414:353,1,75,2|0,1:2|0:0,0:0:0:0:
351,275,47972,2,0,P|313:270|276:274,1,75,2|0,1:2|0:0,0:0:0:0:
199,333,48377,1,2,1:2:0:0:
103,353,48580,1,0,0:0:0:0:
32,285,48783,6,0,L|23:186,1,75,2|0,1:2|0:0,0:0:0:0:
101,149,49188,2,0,L|110:50,1,75,2|0,1:2|0:0,0:0:0:0:
34,9,49593,1,2,1:2:0:0:
107,73,49796,1,2,0:0:0:0:
204,71,49999,2,0,L|328:59,1,112.5,2|0,1:2|0:0,0:0:0:0:
354,90,50404,6,0,P|350:144|358:177,1,75,4|2,1:2|0:0,0:0:0:0:
456,211,50810,2,0,P|460:157|452:124,1,75,2|2,1:2|0:0,0:0:0:0:
353,164,51215,1,0,1:0:0:0:
331,165,51316,1,0,1:0:0:0:
308,167,51417,1,0,1:0:0:0:
285,169,51519,1,0,1:0:0:0:
263,169,51620,2,0,L|175:174,1,75,0|0,1:0|1:0,0:0:0:0:
52,181,52026,5,4,1:2:0:0:
174,342,52330,1,2,1:2:0:0:
188,173,52634,1,2,1:2:0:0:
188,173,52837,1,4,1:0:0:0:
58,291,53242,5,2,0:0:0:0:
257,267,53647,1,2,0:0:0:0:
121,103,54053,1,2,0:0:0:0:
174,342,54458,6,0,L|276:348,1,82.5000025177003,4|0,1:0|0:0,0:0:0:0:
326,265,54863,2,0,L|408:260,1,82.5000025177003,2|0,1:2|0:0,0:0:0:0:
504,308,55268,2,0,P|511:257|499:205,1,82.5000025177003,8|2,0:0|0:0,0:0:0:0:
456,131,55674,1,2,1:2:0:0:
354,97,55876,1,2,0:0:0:0:
285,200,56079,6,0,B|224:211|224:211|148:189,1,123.75000377655,8|0,0:0|0:0,0:0:0:0:
122,159,56485,2,0,P|114:113|119:66,1,82.5000025177003,2|0,1:2|0:0,0:0:0:0:
215,34,56890,2,0,P|222:79|217:126,1,82.5000025177003,2|0,0:0|0:0,0:0:0:0:
122,159,57295,2,0,L|35:172,1,82.5000025177003,2|0,1:2|0:0,0:0:0:0:
6,291,57701,6,0,L|160:264,1,123.75000377655,8|0,0:0|0:0,0:0:0:0:
180,284,58106,1,2,1:2:0:0:
256,360,58309,1,2,0:0:0:0:
332,284,58512,2,0,P|384:276|432:296,1,82.5000025177003,8|2,0:0|0:0,0:0:0:0:
378,379,58917,2,0,L|250:359,1,123.75000377655,0|0,1:2|0:0,0:0:0:0:
196,376,59322,6,0,P|204:335|195:295,1,82.5000025177003,8|2,0:0|0:0,0:0:0:0:
112,224,59728,1,2,1:2:0:0:
84,120,59930,1,2,0:0:0:0:
124,20,60133,1,10,0:0:0:0:
124,20,60235,1,0,0:0:0:0:
124,20,60336,2,0,L|240:40,1,82.5000025177003,2|2,0:0|1:2,0:0:0:0:
308,64,60741,1,2,0:0:0:0:
402,144,60944,6,0,B|419:203|419:203|408:264,1,123.75000377655,4|0,0:1|0:0,0:0:0:0:
428,313,61349,2,0,P|389:298|348:299,1,82.5000025177003,2|0,1:2|0:0,0:0:0:0:
245,325,61755,1,10,0:0:0:0:
218,221,61957,1,2,0:0:0:0:
323,195,62160,1,0,1:0:0:0:
348,299,62363,1,2,0:0:0:0:
245,325,62566,6,0,L|141:335,1,82.5000025177003,10|0,0:0|0:0,0:0:0:0:
120,234,62971,2,0,L|224:242,1,82.5000025177003,2|4,1:2|0:0,0:0:0:0:
309,248,63376,1,10,0:0:0:0:
398,188,63579,1,2,0:0:0:0:
382,81,63782,2,0,P|320:58|257:71,1,123.75000377655,2|0,1:2|0:0,0:0:0:0:
227,117,64187,6,0,L|214:202,1,82.5000025177003,4|0,0:0|0:0,0:0:0:0:
140,120,64593,2,0,P|159:55|195:28,1,82.5000025177003,2|2,1:2|0:0,0:0:0:0:
274,28,64998,1,0,0:0:0:0:
319,125,65201,1,2,0:0:0:0:
418,164,65403,1,2,1:2:0:0:
402,57,65606,1,4,1:2:0:0:
295,340,66012,5,2,1:2:0:0:
188,334,66214,1,2,1:2:0:0:
229,250,66417,1,0,0:0:0:0:
229,250,66518,1,0,0:0:0:0:
229,250,66620,2,0,L|283:254,2,41.2500012588501,4|0|2,1:0|0:0|0:0,0:0:0:0:
132,203,67025,2,0,P|109:141|122:78,1,123.75000377655,2|2,0:0|0:0,0:0:0:0:
177,65,67430,6,0,L|324:49,1,123.75000377655,4|0,1:0|0:0,0:0:0:0:
353,51,67836,1,2,1:2:0:0:
353,51,68039,1,4,0:0:0:0:
416,137,68241,2,0,P|396:201|360:228,1,82.5000025177003,8|2,0:0|0:0,0:0:0:0:
311,287,68647,2,0,P|287:253|282:212,1,82.5000025177003,2|2,1:2|0:0,0:0:0:0:
386,211,69052,5,8,0:0:0:0:
386,211,69255,1,2,0:0:0:0:
311,287,69457,2,0,L|207:307,1,82.5000025177003,2|2,1:2|0:0,0:0:0:0:
152,227,69863,2,0,L|256:207,1,82.5000025177003,8|2,0:0|0:0,0:0:0:0:
275,112,70268,2,0,L|193:127,1,82.5000025177003,2|2,1:2|0:0,0:0:0:0:
72,154,70674,5,4,0:1:0:0:
152,227,70876,1,0,0:0:0:0:
179,334,71079,2,0,P|143:353|102:358,1,82.5000025177003,2|2,1:2|0:0,0:0:0:0:
13,299,71485,2,0,P|-2:338|-1:379,1,82.5000025177003,8|2,0:0|0:0,0:0:0:0:
103,359,71890,1,0,1:0:0:0:
204,324,72093,6,0,B|216:244|216:244|159:135,1,165.000005035401,2|0,0:0|0:0,0:0:0:0:
120,76,72701,2,0,P|159:91|200:90,1,82.5000025177003,2|2,1:2|0:0,0:0:0:0:
292,40,73106,2,0,P|332:35|372:45,1,82.5000025177003,2|2,0:0|0:0,0:0:0:0:
439,130,73512,1,0,1:0:0:0:
378,217,73714,1,0,1:0:0:0:
378,217,73816,1,0,0:0:0:0:
378,217,73917,6,0,P|338:227|297:222,1,82.5000025177003,4|0,0:1|0:0,0:0:0:0:
195,190,74322,1,2,1:2:0:0:
195,190,74525,1,2,0:0:0:0:
297,222,74728,2,0,B|312:260|312:260|304:300,1,82.5000025177003,0|2,0:0|0:0,0:0:0:0:
220,368,75133,1,2,1:2:0:0:
116,344,75336,1,2,0:0:0:0:
28,256,75539,6,0,P|5:194|18:131,1,123.75000377655,2|0,0:0|0:0,0:0:0:0:
54,103,75944,1,2,1:2:0:0:
54,103,76147,1,2,0:0:0:0:
148,56,76349,2,0,L|236:60,1,82.5000025177003,2|2,0:0|0:0,0:0:0:0:
332,28,76755,1,2,1:2:0:0:
432,68,76957,1,2,0:0:0:0:
496,176,77160,6,0,B|513:235|513:235|502:296,1,123.75000377655,8|0,0:0|0:0,0:0:0:0:
460,332,77566,1,2,1:2:0:0:
376,264,77768,1,2,0:0:0:0:
292,332,77971,2,0,P|251:339|211:332,1,82.5000025177003,8|2,0:0|0:0,0:0:0:0:
204,224,78376,2,0,P|244:216|284:223,1,82.5000025177003,2|2,1:2|0:0,0:0:0:0:
211,332,78782,6,0,L|84:328,1,123.75000377655,8|0,0:0|0:0,0:0:0:0:
48,364,79187,2,0,P|55:323|47:283,1,82.5000025177003,2|4,1:2|0:0,0:0:0:0:
24,176,79593,1,2,1:2:0:0:
56,76,79795,1,0,1:0:0:0:
56,76,79897,1,2,0:0:0:0:
56,76,79998,6,0,P|118:53|181:66,1,123.75000377655,0|0,1:0|0:0,0:0:0:0:
221,86,80403,1,4,0:0:0:0:
221,86,80606,1,2,0:0:0:0:
311,49,80809,2,0,B|318:86|318:86|313:122,1,75,2|4,1:2|0:1,0:0:0:0:
172,257,81417,1,10,0:0:0:0:
172,257,81620,1,10,0:0:0:0:
253,333,81822,6,0,B|286:350|326:334|326:334|366:318|398:334,1,150,4|2,0:1|0:0,0:0:0:0:
484,380,82430,1,2,1:2:0:0:
484,380,82633,2,0,P|490:310|436:246,1,150,4|4,0:0|0:1,0:0:0:0:
348,226,83241,1,0,1:0:0:0:
329,224,83342,1,0,1:0:0:0:
310,223,83443,1,0,1:0:0:0:
292,221,83545,1,0,1:0:0:0:
273,220,83646,5,4,1:0:0:0:
180,253,83849,2,0,P|174:217|183:181,1,75,0|2,1:0|1:2,0:0:0:0:
236,98,84255,2,0,L|392:109,1,150,4|2,1:2|1:2,0:0:0:0:
482,116,84863,1,2,1:2:0:0:
482,116,85066,1,4,1:2:0:0:
441,306,85471,5,4,1:2:0:0:
346,332,85674,1,2,1:2:0:0:
371,238,85876,1,4,0:1:0:0:
256,192,86079,12,2,88512,0:0:0:0:
