osu file format v14

[General]
AudioFilename: optc.mp3
AudioLeadIn: 0
PreviewTime: 53247
Countdown: 0
SampleSet: Soft
StackLeniency: 0.7
Mode: 0
LetterboxInBreaks: 0
WidescreenStoryboard: 0

[Editor]
Bookmarks: 1760,14733,27706,40679,47166,54463,67435,80408
DistanceSpacing: 1
BeatDivisor: 4
GridSize: 32
TimelineZoom: 1.7

[Metadata]
Title:Stella Breeze (TV Size)
TitleUnicode:ステラブリーズ (TV Size)
Artist:Haruna Luna
ArtistUnicode:春奈るな
Creator:Rizia
Version:Shad0w1and's Hyper
Source:冴えない彼女の育てかた♭
Tags:Saenai Heroine no Sodatekata Saekano anime opening tv size kawaiwkyik Shad0w1and Nardoxyribonucleic
BeatmapID:1260330
BeatmapSetID:595758

[Difficulty]
HPDrainRate:5
CircleSize:4
OverallDifficulty:6.5
ApproachRate:8
SliderMultiplier:1.4
SliderTickRate:1

[Events]
//Background and Video events
0,0,"BG.jpg",0,0
Video,0,"optc.flv"
//Break Periods
//Storyboard Layer 0 (Background)
//Storyboard Layer 1 (Fail)
//Storyboard Layer 2 (Pass)
//Storyboard Layer 3 (Foreground)
//Storyboard Sound Samples

[TimingPoints]
134,405.405405405405,4,2,33,40,1,0
1316,-111.111111111111,4,2,33,40,0,0
1755,-90.9090909090909,4,2,33,60,0,0
14120,-90.9090909090909,4,2,33,50,0,0
14728,-100,4,2,33,50,0,0
26890,-100,4,2,33,40,0,0
27701,-90.9090909090909,4,2,33,50,0,0
40674,-100,4,2,33,50,0,0
47161,-90.9090909090909,4,2,33,60,0,0
52025,-71.4285714285714,4,2,33,60,0,0
52836,-111.111111111111,4,2,33,50,0,0
53647,405.405405405405,4,2,33,50,1,0
54052,-90.9090909090909,4,2,33,50,0,0
54458,405.405405405405,4,2,33,70,1,1
54458,-83.3333333333333,4,2,33,70,0,1
80403,-90.9090909090909,4,2,33,60,0,0
89120,-100,4,2,33,5,0,0

[Colours]
Combo1 : 156,190,245
Combo2 : 211,148,233
Combo3 : 247,234,247
Combo4 : 248,124,142
Combo5 : 255,234,149

[HitObjects]
211,291,1316,6,0,P|177:252|126:247,1,104.999996795654,8|0,0:3|0:0,0:0:0:0:
145,318,1755,6,0,P|212:303|316:295,1,154.000004699707,6|8,0:0|0:0,0:0:0:0:
296,295,2363,1,0,0:0:0:0:
214,224,2566,2,0,P|201:197|191:151,1,77.0000023498536,8|0,0:1|0:0,0:0:0:0:
297,170,2971,2,0,P|333:181|368:197,1,77.0000023498536,8|0,0:0|0:0,0:0:0:0:
416,48,3377,6,0,L|247:64,1,154.000004699707,10|8,0:1|0:0,0:0:0:0:
262,62,3985,2,0,L|298:96,1,38.5000011749268,0|0,0:0|0:0,0:0:0:0:
297,170,4188,1,8,0:1:0:0:
297,170,4289,2,0,P|256:162|210:165,1,77.0000023498536,8|0,0:0|0:0,0:0:0:0:
161,212,4593,2,0,P|131:202|77:172,1,77.0000023498536,8|0,0:0|0:0,0:0:0:0:
297,170,4998,6,0,P|304:245|267:310,1,154.000004699707,10|8,0:1|0:0,0:0:0:0:
265,311,5606,1,0,0:0:0:0:
355,239,5809,2,0,P|393:240|431:242,1,77.0000023498536,8|0,0:1|0:0,0:0:0:0:
511,123,6215,2,0,P|473:125|435:126,1,77.0000023498536,8|0,0:0|0:0,0:0:0:0:
319,132,6620,6,0,P|262:81|225:4,1,154.000004699707,10|8,0:1|0:0,0:0:0:0:
227,12,7228,1,0,0:0:0:0:
190,121,7431,1,8,0:1:0:0:
190,121,7532,2,0,P|147:137|93:144,1,77.0000023498536,8|0,0:0|0:0,0:0:0:0:
42,168,7836,2,0,P|22:128|6:72,1,77.0000023498536,8|0,0:0|0:0,0:0:0:0:
52,32,8140,1,8,0:0:0:0:
52,32,8242,6,0,P|93:31|128:25,1,77.0000023498536,6|0,0:0|0:0,0:0:0:0:
225,88,8647,2,0,P|260:67|307:23,1,77.0000023498536,8|0,0:0|0:0,0:0:0:0:
403,51,9052,2,0,P|394:90|389:131,1,77.0000023498536,8|0,0:1|0:0,0:0:0:0:
406,208,9356,1,0,0:0:0:0:
406,208,9458,2,0,P|360:199|312:193,1,77.0000023498536,8|0,0:0|0:0,0:0:0:0:
246,331,9863,6,0,P|284:325|326:297,1,77.0000023498536,10|0,0:1|0:0,0:0:0:0:
245,223,10269,2,0,P|207:219|156:193,1,77.0000023498536,8|0,0:0|0:0,0:0:0:0:
59,233,10674,1,8,0:1:0:0:
59,233,10775,2,0,P|70:284|76:330,1,77.0000023498536,8|0,0:0|0:0,0:0:0:0:
131,367,11079,2,0,P|140:330|163:263,1,77.0000023498536,8|0,0:0|0:0,0:0:0:0:
229,147,11485,6,0,P|237:199|255:247,1,77.0000023498536,6|0,0:0|0:0,0:0:0:0:
359,227,11890,2,0,P|392:230|456:241,1,77.0000023498536,8|0,0:0|0:0,0:0:0:0:
389,126,12296,1,8,0:1:0:0:
389,126,12397,2,0,P|402:89|439:42,1,77.0000023498536,8|0,0:0|0:0,0:0:0:0:
345,41,12701,2,0,P|306:38|248:22,1,77.0000023498536,8|0,0:0|0:0,0:0:0:0:
164,79,13106,5,10,0:1:0:0:
255,135,13309,1,0,0:0:0:0:
269,29,13512,1,8,0:0:0:0:
164,197,13715,5,8,0:0:0:0:
164,197,13816,1,8,0:0:0:0:
164,197,13917,2,0,L|57:172,1,77.0000023498536,10|8,0:1|0:0,0:0:0:0:
68,106,14221,1,8,0:0:0:0:
68,106,14323,2,0,L|-6:114,2,38.5000011749268,8|8|4,0:0|0:0|0:3,0:0:0:0:
159,49,14728,6,0,L|234:81,1,70,4|0,0:0|0:0,0:0:0:0:
287,159,15133,2,0,L|365:140,1,70,0|0,0:0|0:0,0:0:0:0:
471,35,15539,2,0,P|464:79|454:126,1,70,0|0,0:0|0:0,0:0:0:0:
358,71,15944,2,0,P|353:106|354:141,1,70,0|0,0:0|0:0,0:0:0:0:
371,277,16350,6,0,P|306:238|222:252,1,140,0|0,0:0|0:0,0:0:0:0:
158,289,16958,2,0,P|94:278|44:207,1,140,0|0,0:0|0:0,0:0:0:0:
42,124,17566,1,0,0:0:0:0:
139,111,17769,1,0,0:0:0:0:
139,111,17870,1,0,0:0:0:0:
139,111,17971,6,0,P|147:156|151:208,1,70,2|0,0:0|0:0,0:0:0:0:
242,146,18377,2,0,P|281:152|329:157,1,70,0|0,0:0|0:0,0:0:0:0:
389,19,18782,2,0,P|350:38|321:69,1,70,0|0,0:0|0:0,0:0:0:0:
416,179,19188,2,0,P|429:139|436:94,1,70,0|0,0:0|0:0,0:0:0:0:
311,155,19593,6,0,P|323:207|330:282,1,105,0|0,0:0|0:0,0:0:0:0:
309,290,19998,2,0,P|272:295|221:296,1,70,0|0,0:0|0:0,0:0:0:0:
208,298,20302,1,0,0:0:0:0:
208,298,20404,1,0,0:0:0:0:
206,200,20606,1,0,0:0:0:0:
107,203,20809,2,0,P|74:182|51:132,1,70,0|0,0:0|0:0,0:0:0:0:
60,122,21113,1,0,0:0:0:0:
65,87,21215,6,0,L|158:82,1,70,2|0,0:0|0:0,0:0:0:0:
211,145,21620,1,0,0:0:0:0:
290,87,21823,2,0,P|295:55|293:12,1,70,0|0,0:0|0:0,0:0:0:0:
387,45,22228,2,0,P|418:29|451:20,1,70,0|0,0:0|0:0,0:0:0:0:
452,118,22633,2,0,P|471:147|496:171,1,70,0|0,0:0|0:0,0:0:0:0:
388,217,23039,6,0,P|301:198|280:157,1,140,0|0,0:0|0:0,0:0:0:0:
280,158,23647,1,0,0:0:0:0:
210,227,23850,1,0,0:0:0:0:
258,311,24052,2,0,P|290:308|335:298,1,70,0|0,0:0|0:0,0:0:0:0:
359,285,24356,1,0,0:0:0:0:
389,267,24458,6,0,P|371:205|357:122,1,140,2|0,0:0|0:0,0:0:0:0:
470,112,25066,2,0,P|466:144|457:184,1,70,0|0,0:0|0:0,0:0:0:0:
389,267,25471,2,0,P|399:320|415:359,1,70,0|0,0:0|0:0,0:0:0:0:
292,284,25877,1,0,0:0:0:0:
292,284,25978,1,0,0:0:0:0:
292,284,26079,6,0,P|241:284|197:286,1,70,10|0,0:1|0:0,0:0:0:0:
105,241,26485,2,0,P|111:271|119:331,1,70,4|0,0:0|0:0,0:0:0:0:
205,173,26890,5,8,0:0:0:0:
213,157,26992,1,8,0:0:0:0:
221,141,27093,1,4,0:3:0:0:
87,91,27296,5,8,0:0:0:0:
95,107,27397,1,8,0:0:0:0:
103,123,27499,1,4,0:3:0:0:
257,55,27701,6,0,P|221:44|181:27,1,77.0000023498536,6|0,0:0|0:0,0:0:0:0:
103,123,28106,2,0,P|61:137|11:142,1,77.0000023498536,8|0,0:0|0:0,0:0:0:0:
14,175,28411,1,0,0:0:0:0:
14,175,28512,1,8,0:1:0:0:
98,241,28715,1,0,0:0:0:0:
15,309,28917,1,8,0:0:0:0:
103,370,29120,1,0,0:0:0:0:
192,309,29323,6,0,P|227:305|280:307,1,77.0000023498536,10|0,0:1|0:0,0:0:0:0:
371,339,29728,1,8,0:0:0:0:
434,217,29931,2,0,P|396:221|346:234,1,77.0000023498536,0|8,0:0|0:1,0:0:0:0:
322,217,30235,1,8,0:0:0:0:
286,203,30336,2,0,L|273:106,1,77.0000023498536,0|8,0:0|0:0,0:0:0:0:
181,230,30742,1,0,0:0:0:0:
275,126,30944,6,0,L|283:29,1,77.0000023498536,10|0,0:1|0:0,0:0:0:0:
181,230,31350,1,8,0:0:0:0:
170,125,31552,2,0,P|133:112|75:100,1,77.0000023498536,0|8,0:0|0:1,0:0:0:0:
256,219,31958,2,0,P|218:227|179:230,1,77.0000023498536,0|8,0:0|0:0,0:0:0:0:
45,241,32363,1,0,0:0:0:0:
45,241,32465,1,0,0:0:0:0:
45,241,32566,6,0,P|71:277|94:324,1,77.0000023498536,10|0,0:1|0:0,0:0:0:0:
181,230,32971,2,0,P|189:201|193:154,1,77.0000023498536,8|0,0:0|0:0,0:0:0:0:
86,136,33377,1,8,0:1:0:0:
86,136,33478,2,0,P|38:126|7:85,1,77.0000023498536,8|0,0:0|0:0,0:0:0:0:
9,70,33782,2,0,P|47:62|96:45,1,77.0000023498536,8|0,0:0|0:0,0:0:0:0:
116,31,34086,1,8,0:0:0:0:
148,11,34188,6,0,P|183:37|228:53,1,77.0000023498536,6|0,0:0|0:0,0:0:0:0:
321,50,34593,1,8,0:0:0:0:
385,136,34796,2,0,P|399:112|432:61,1,77.0000023498536,0|8,0:0|0:1,0:0:0:0:
490,156,35201,1,0,0:0:0:0:
423,241,35404,2,0,P|378:236|332:238,1,77.0000023498536,8|0,0:0|0:0,0:0:0:0:
227,230,35809,6,0,P|241:275|255:332,1,77.0000023498536,10|0,0:1|0:0,0:0:0:0:
346,236,36215,2,0,P|350:200|357:151,1,77.0000023498536,8|0,0:0|0:0,0:0:0:0:
227,230,36620,2,0,P|187:230|133:216,1,77.0000023498536,8|0,0:1|0:0,0:0:0:0:
99,127,37025,1,8,0:0:0:0:
199,58,37228,1,0,0:0:0:0:
199,58,37329,1,0,0:0:0:0:
199,58,37431,6,0,P|203:109|202:159,2,77.0000023498536,10|0|8,0:1|0:0|0:0,0:0:0:0:
298,139,38039,1,0,0:0:0:0:
150,222,38242,2,0,P|153:260|162:306,2,77.0000023498536,8|0|8,0:1|0:0|0:0,0:0:0:0:
54,171,38850,2,8,L|22:194,1,38.5000011749268,0|0,0:0|0:0,0:0:0:0:
43,96,39052,5,10,0:1:0:0:
56,82,39154,1,0,0:0:0:0:
71,71,39255,1,0,0:0:0:0:
87,61,39356,1,0,0:0:0:0:
105,53,39458,6,0,P|143:68|191:78,1,77.0000023498536,8|0,0:0|0:0,0:0:0:0:
217,80,39762,1,0,0:0:0:0:
217,80,39863,1,8,0:1:0:0:
150,222,40066,5,8,0:0:0:0:
164,210,40167,1,8,0:0:0:0:
181,201,40269,1,4,0:3:0:0:
197,193,40370,1,8,0:0:0:0:
216,188,40471,1,4,0:3:0:0:
160,298,40674,6,0,L|90:296,1,70,10|0,0:1|0:0,0:0:0:0:
178,76,41282,1,8,0:0:0:0:
178,76,41688,1,8,0:1:0:0:
248,78,41890,2,0,L|178:76,1,70,8|0,0:0|0:0,0:0:0:0:
54,171,42296,6,0,L|123:169,1,70,10|0,0:1|0:0,0:0:0:0:
355,297,42904,1,8,0:0:0:0:
355,297,43309,1,8,0:1:0:0:
285,298,43512,2,0,L|354:296,1,70,8|0,0:0|0:0,0:0:0:0:
476,200,43917,6,0,L|407:198,1,70,10|0,0:1|0:0,0:0:0:0:
248,78,44525,1,8,0:0:0:0:
248,78,44931,1,8,0:1:0:0:
340,108,45133,5,8,0:0:0:0:
356,101,45235,1,8,0:0:0:0:
372,94,45336,1,4,0:3:0:0:
294,198,45539,6,0,P|236:193|191:121,2,140,6|0|4,0:0|0:0|0:0,0:0:0:0:
273,115,46755,5,8,0:1:0:0:
258,124,46856,1,8,0:1:0:0:
244,134,46958,1,8,0:1:0:0:
233,147,47059,1,4,0:3:0:0:
221,162,47161,6,0,P|170:181|126:188,1,77.0000023498536,6|0,0:0|0:0,0:0:0:0:
57,247,47566,2,0,P|28:219|-4:190,1,77.0000023498536,8|0,0:0|0:0,0:0:0:0:
98,84,47971,1,8,0:0:0:0:
147,185,48174,1,8,0:1:0:0:
0,156,48377,1,8,0:0:0:0:
101,53,48579,1,8,0:1:0:0:
251,93,48782,6,0,P|288:96|342:88,1,77.0000023498536,10|0,0:1|0:0,0:0:0:0:
435,231,49188,2,0,P|396:224|331:202,1,77.0000023498536,8|0,0:0|0:0,0:0:0:0:
327,91,49593,1,8,0:0:0:0:
479,100,49796,1,8,0:1:0:0:
384,183,49998,1,8,0:0:0:0:
411,9,50201,1,8,0:1:0:0:
495,183,50404,6,0,P|472:206|414:238,1,77.0000023498536,6|0,0:0|0:0,0:0:0:0:
375,283,50708,1,8,0:0:0:0:
375,283,50809,2,0,P|331:267|289:256,1,77.0000023498536,8|0,0:0|0:0,0:0:0:0:
229,288,51113,1,8,0:0:0:0:
229,288,51215,2,0,L|190:236,1,38.5000011749268,8|0,0:1|0:0,0:0:0:0:
134,228,51417,6,0,L|87:221,1,38.5000011749268,8|0,0:0|0:0,0:0:0:0:
229,185,51620,2,0,L|276:178,1,38.5000011749268,8|0,0:0|0:0,0:0:0:0:
137,131,51823,2,0,L|90:124,1,38.5000011749268,8|0,0:0|0:0,0:0:0:0:
205,257,52025,6,0,L|213:97,1,146.999995513916,6|8,0:0|0:1,0:0:0:0:
212,110,52633,1,8,0:0:0:0:
303,165,52836,6,0,B|328:106|328:106|293:37,2,125.999996154785,10|0|0,0:1|0:0|0:0,0:0:0:0:
212,110,54052,6,0,L|180:110,6,19.2500005874634,2|0|0|0|0|0|0,0:0|0:0|0:0|0:0|0:0|0:0|0:0,0:0:0:0:
303,165,54458,6,0,P|360:152|418:113,1,125.999996154785,6|0,0:0|0:0,0:0:0:0:
415,115,54863,1,8,0:0:0:0:
491,247,55066,2,0,P|450:244|398:232,1,83.9999974365235,0|8,0:0|0:1,0:0:0:0:
314,307,55471,2,0,P|271:282|213:266,1,83.9999974365235,0|8,0:0|0:0,0:0:0:0:
126,305,55876,2,0,P|99:275|74:231,1,83.9999974365235,0|8,0:0|0:1,0:0:0:0:
148,142,56282,5,0,0:0:0:0:
259,189,56485,2,0,P|244:235|235:298,1,83.9999974365235,8|0,0:0|0:0,0:0:0:0:
126,305,56890,1,8,0:1:0:0:
126,305,56991,2,0,P|82:293|42:240,1,83.9999974365235,8|0,0:0|0:0,0:0:0:0:
0,209,57295,2,0,P|19:180|55:107,1,83.9999974365235,8|0,0:0|0:0,0:0:0:0:
154,99,57701,6,0,P|143:64|131:7,1,83.9999974365235,10|0,0:1|0:0,0:0:0:0:
42,136,58106,1,8,0:0:0:0:
127,216,58309,2,0,P|157:208|218:202,1,83.9999974365235,0|8,0:0|0:1,0:0:0:0:
315,144,58714,2,0,P|265:120|228:99,1,83.9999974365235,0|8,0:0|0:0,0:0:0:0:
306,256,59120,2,0,P|348:245|414:240,1,83.9999974365235,0|8,0:0|0:1,0:0:0:0:
436,347,59525,5,0,0:0:0:0:
306,256,59728,2,0,P|304:212|309:156,1,83.9999974365235,8|0,0:0|0:0,0:0:0:0:
394,94,60133,1,8,0:1:0:0:
394,94,60235,2,0,P|371:63|327:13,1,83.9999974365235,8|0,0:0|0:0,0:0:0:0:
264,41,60539,1,8,0:0:0:0:
210,148,60741,1,0,0:0:0:0:
210,148,60843,1,0,0:0:0:0:
210,148,60944,6,0,P|286:100|259:37,1,167.999994873047,6|8,0:0|0:0,0:0:0:0:
146,51,61552,1,0,0:0:0:0:
282,170,61755,2,0,P|337:155|417:145,1,125.999996154785,10|0,0:1|0:0,0:0:0:0:
405,145,62160,1,8,0:0:0:0:
317,257,62363,1,0,0:0:0:0:
154,218,62566,6,0,L|145:36,1,167.999994873047,10|8,0:1|0:0,0:0:0:0:
145,50,63174,1,0,0:0:0:0:
67,137,63376,2,0,L|25:137,2,41.9999987182618,8|0|0,0:1|0:0|0:0,0:0:0:0:
154,218,63782,2,0,L|241:218,1,83.9999974365235,8|0,0:0|0:0,0:0:0:0:
327,295,64187,6,0,P|368:287|403:261,1,83.9999974365235,2|0,0:0|0:0,0:0:0:0:
358,152,64593,1,8,0:0:0:0:
238,218,64795,2,0,B|181:223|131:176|131:176|144:247,1,167.999994873047,2|0,0:0|0:0,0:0:0:0:
162,340,65403,1,8,0:0:0:0:
245,333,65606,6,0,P|204:335|146:342,1,83.9999974365235,6|8,0:0|0:1,0:0:0:0:
50,299,66012,1,8,0:0:0:0:
77,168,66214,2,0,P|112:204|155:233,1,83.9999974365235,8|0,0:0|0:0,0:0:0:0:
202,174,66518,1,8,0:0:0:0:
202,174,66620,2,0,P|236:164|298:162,1,83.9999974365235,8|0,0:1|0:0,0:0:0:0:
359,196,66924,1,8,0:0:0:0:
359,196,67025,2,0,P|391:172|417:118,1,83.9999974365235,8|0,0:0|0:0,0:0:0:0:
274,35,67430,6,0,L|285:182,1,125.999996154785,6|0,0:0|0:0,0:0:0:0:
283,160,67835,1,8,0:0:0:0:
182,97,68039,2,0,P|132:89|67:90,1,83.9999974365235,0|8,0:0|0:1,0:0:0:0:
274,35,68444,2,0,P|309:58|342:85,1,83.9999974365235,0|8,0:0|0:0,0:0:0:0:
485,152,68849,2,0,P|466:104|433:48,1,83.9999974365235,0|8,0:0|0:1,0:0:0:0:
359,196,69254,5,0,0:0:0:0:
367,75,69457,2,0,P|400:72|466:78,1,83.9999974365235,8|0,0:0|0:0,0:0:0:0:
283,160,69862,1,8,0:1:0:0:
283,160,69964,2,0,P|254:125|234:87,1,83.9999974365235,8|0,0:0|0:0,0:0:0:0:
165,125,70268,2,0,P|110:125|53:135,1,83.9999974365235,8|0,0:0|0:0,0:0:0:0:
192,244,70673,6,0,P|207:294|209:356,1,83.9999974365235,10|0,0:1|0:0,0:0:0:0:
92,323,71078,1,8,0:0:0:0:
54,208,71282,2,0,L|86:112,1,83.9999974365235,0|8,0:0|0:1,0:0:0:0:
145,82,71586,1,8,0:0:0:0:
145,82,71687,2,0,P|189:95|220:126,1,83.9999974365235,0|8,0:0|0:0,0:0:0:0:
264,229,72092,6,0,P|300:217|355:210,1,83.9999974365235,0|8,0:0|0:1,0:0:0:0:
485,152,72498,2,0,P|441:133|402:110,1,83.9999974365235,0|8,0:0|0:0,0:0:0:0:
345,210,72903,1,8,0:1:0:0:
345,210,73005,1,8,0:1:0:0:
345,210,73106,2,0,L|361:267,1,41.9999987182618,8|0,0:0|0:0,0:0:0:0:
377,324,73309,5,8,0:1:0:0:
422,198,73512,1,8,0:0:0:0:
264,229,73714,1,8,0:0:0:0:
264,229,73816,1,8,0:0:0:0:
264,229,73917,6,0,P|218:205|196:172,1,83.9999974365235,6|0,0:0|0:0,0:0:0:0:
85,212,74322,2,0,P|89:253|97:294,2,83.9999974365235,8|0|8,0:0|0:0|0:1,0:0:0:0:
115,98,74930,1,0,0:0:0:0:
199,179,75133,1,8,0:0:0:0:
55,189,75336,1,0,0:0:0:0:
123,58,75539,6,0,P|171:66|221:63,1,83.9999974365235,10|0,0:1|0:0,0:0:0:0:
325,41,75944,2,0,P|303:103|293:144,1,83.9999974365235,8|0,0:0|0:0,0:0:0:0:
312,201,76248,1,8,0:0:0:0:
312,201,76349,1,8,0:1:0:0:
384,108,76552,1,0,0:0:0:0:
229,175,76755,1,8,0:0:0:0:
349,303,76957,1,0,0:0:0:0:
349,303,77059,1,0,0:0:0:0:
349,303,77160,6,0,P|395:274|412:241,1,83.9999974365235,6|0,0:0|0:0,0:0:0:0:
379,136,77565,1,8,0:0:0:0:
229,175,77768,2,0,L|245:365,1,167.999994873047,2|0,0:0|0:0,0:0:0:0:
126,289,78375,1,8,0:0:0:0:
63,200,78579,1,8,0:0:0:0:
63,200,78680,1,8,0:0:0:0:
63,200,78782,6,0,P|113:195|113:297,1,167.999994873047,6|8,0:0|0:0,0:0:0:0:
126,289,79390,1,8,0:1:0:0:
229,175,79593,2,0,P|276:182|336:186,1,83.9999974365235,8|0,0:0|0:0,0:0:0:0:
389,167,79897,1,8,0:0:0:0:
389,167,79998,1,8,0:0:0:0:
304,266,80201,1,8,0:1:0:0:
405,299,80403,6,0,B|424:189|424:189|373:157,1,154.000004699707,6|8,0:0|0:0,0:0:0:0:
304,266,81012,2,0,B|258:240|258:240|214:264|214:264|144:238,1,154.000004699707,6|8,0:0|0:1,0:0:0:0:
203,144,81620,1,8,0:0:0:0:
267,367,81822,6,0,P|345:369|403:296,1,154.000004699707,6|8,0:0|0:1,0:0:0:0:
304,266,82430,1,8,0:0:0:0:
265,199,82633,2,0,L|304:266,1,77.0000023498536,6|8,0:0|0:0,0:0:0:0:
166,246,83039,1,8,0:1:0:0:
373,179,83241,5,8,0:0:0:0:
380,161,83343,1,8,0:0:0:0:
383,142,83444,1,8,0:0:0:0:
383,122,83545,1,8,0:0:0:0:
377,103,83647,6,0,B|331:106|274:85|274:85|227:109,1,154.000004699707,6|8,0:0|0:0,0:0:0:0:
123,130,84255,2,0,B|111:21|111:21|161:38,1,154.000004699707,6|8,0:0|0:1,0:0:0:0:
230,107,84863,1,8,0:0:0:0:
166,246,85066,6,0,P|100:229|15:215,1,154.000004699707,6|8,0:0|0:1,0:0:0:0:
15,215,85674,1,8,0:0:0:0:
123,336,85876,1,6,0:0:0:0:
256,192,85978,12,0,89120,0:0:0:0:
