osu file format v14

[General]
AudioFilename: optc.mp3
AudioLeadIn: 0
PreviewTime: 53247
Countdown: 0
SampleSet: Normal
StackLeniency: 0.7
Mode: 1
LetterboxInBreaks: 0
WidescreenStoryboard: 0

[Editor]
DistanceSpacing: 0.6
BeatDivisor: 4
GridSize: 32
TimelineZoom: 0.8

[Metadata]
Title:Stella Breeze (TV Size)
TitleUnicode:ステラブリーズ (TV Size)
Artist:Haruna Luna
ArtistUnicode:春奈るな
Creator:Rizia
Version:Nardo's Muzukashii
Source:冴えない彼女の育てかた♭
Tags:Saenai Heroine no Sodatekata Saekano anime opening tv size kawaiwkyik Shad0w1and Nardoxyribonucleic
BeatmapID:1265248
BeatmapSetID:595758

[Difficulty]
HPDrainRate:5
CircleSize:5
OverallDifficulty:4
ApproachRate:5
SliderMultiplier:1.4
SliderTickRate:1

[Events]
//Background and Video events
Video,0,"optc.flv"
0,0,"BG.jpg",0,60
//Break Periods
//Storyboard Layer 0 (Background)
//Storyboard Layer 1 (Fail)
//Storyboard Layer 2 (Pass)
//Storyboard Layer 3 (Foreground)
//Storyboard Sound Samples

[TimingPoints]
134,405.405405405405,4,1,0,70,1,0
14728,-100,4,1,0,60,0,0
27701,-100,4,1,0,70,0,0
40674,-100,4,1,0,60,0,0
47161,-100,4,1,0,70,0,0
53647,405.405405405405,4,1,0,50,1,8
54458,405.405405405405,4,1,0,80,1,1
80403,-100,4,1,0,70,0,0
86079,-100,4,1,0,60,0,0
86687,-100,4,1,0,50,0,0
87295,-100,4,1,0,40,0,0
87903,-100,4,1,0,30,0,0
88512,-100,4,1,0,20,0,0

[Colours]
Combo1 : 156,190,245
Combo2 : 211,148,233
Combo3 : 247,234,247
Combo4 : 248,124,142
Combo5 : 255,234,149

[HitObjects]
256,192,1350,5,8,0:0:0:0:
256,192,1755,1,4,0:0:0:0:
256,192,2161,1,8,0:0:0:0:
256,192,2566,1,0,0:0:0:0:
256,192,2971,1,8,0:0:0:0:
256,192,3174,1,8,0:0:0:0:
256,192,3579,1,0,0:0:0:0:
256,192,3782,1,8,0:0:0:0:
256,192,4188,1,8,0:0:0:0:
256,192,4390,1,0,0:0:0:0:
256,192,4593,1,8,0:0:0:0:
256,192,4796,1,0,0:0:0:0:
256,192,4897,1,0,0:0:0:0:
256,192,4998,1,0,0:0:0:0:
256,192,5404,1,8,0:0:0:0:
256,192,5809,1,0,0:0:0:0:
256,192,6215,1,8,0:0:0:0:
256,192,6417,1,8,0:0:0:0:
256,192,6823,1,0,0:0:0:0:
256,192,7025,1,8,0:0:0:0:
256,192,7431,1,8,0:0:0:0:
256,192,7633,1,0,0:0:0:0:
256,192,7836,1,8,0:0:0:0:
256,192,8039,1,0,0:0:0:0:
256,192,8140,1,0,0:0:0:0:
256,192,8242,1,0,0:0:0:0:
256,192,8647,1,8,0:0:0:0:
256,192,8850,1,0,0:0:0:0:
256,192,9052,1,8,0:0:0:0:
256,192,9356,1,0,0:0:0:0:
256,192,9661,1,8,0:0:0:0:
256,192,9863,1,0,0:0:0:0:
256,192,10269,1,8,0:0:0:0:
256,192,10471,1,0,0:0:0:0:
256,192,10674,1,8,0:0:0:0:
256,192,10978,1,0,0:0:0:0:
256,192,11282,1,8,0:0:0:0:
256,192,11485,1,0,0:0:0:0:
256,192,11890,1,8,0:0:0:0:
256,192,12093,1,8,0:0:0:0:
256,192,12296,1,0,0:0:0:0:
256,192,12397,1,0,0:0:0:0:
256,192,12498,1,0,0:0:0:0:
256,192,12701,1,8,0:0:0:0:
256,192,13106,1,0,0:0:0:0:
256,192,13309,1,0,0:0:0:0:
256,192,13512,1,8,0:0:0:0:
256,192,13715,1,8,0:0:0:0:
256,192,13816,1,8,0:0:0:0:
256,192,13917,1,8,0:0:0:0:
256,192,14120,1,0,0:0:0:0:
256,192,14323,1,8,0:0:0:0:
256,192,14728,1,4,0:0:0:0:
256,192,15133,1,8,0:0:0:0:
256,192,15336,1,8,0:0:0:0:
256,192,15539,1,0,0:0:0:0:
256,192,15944,1,8,0:0:0:0:
256,192,16147,1,0,0:0:0:0:
256,192,16350,1,8,0:0:0:0:
256,192,16755,1,8,0:0:0:0:
256,192,16958,1,0,0:0:0:0:
256,192,17363,1,0,0:0:0:0:
256,192,17769,1,8,0:0:0:0:
256,192,18377,1,0,0:0:0:0:
256,192,18579,1,8,0:0:0:0:
256,192,18782,1,0,0:0:0:0:
256,192,19188,1,8,0:0:0:0:
256,192,19390,1,0,0:0:0:0:
256,192,19593,1,8,0:0:0:0:
256,192,19897,1,8,0:0:0:0:
256,192,20201,1,0,0:0:0:0:
256,192,20606,1,0,0:0:0:0:
256,192,21012,1,8,0:0:0:0:
256,192,21620,1,0,0:0:0:0:
256,192,21823,1,0,0:0:0:0:
256,192,22228,1,8,0:0:0:0:
256,192,22633,1,8,0:0:0:0:
256,192,23039,1,0,0:0:0:0:
256,192,23850,1,8,0:0:0:0:
256,192,24052,1,8,0:0:0:0:
256,192,24458,1,8,0:0:0:0:
256,192,24863,1,0,0:0:0:0:
256,192,25066,1,0,0:0:0:0:
256,192,25471,1,8,0:0:0:0:
256,192,25877,1,0,0:0:0:0:
256,192,26282,1,0,0:0:0:0:
256,192,26485,1,8,0:0:0:0:
256,192,26890,1,8,0:0:0:0:
256,192,27093,1,0,0:0:0:0:
256,192,27296,1,8,0:0:0:0:
256,192,27397,1,8,0:0:0:0:
256,192,27498,1,8,0:0:0:0:
256,192,27701,1,4,0:0:0:0:
256,192,28106,1,8,0:0:0:0:
256,192,28512,1,0,0:0:0:0:
256,192,28715,1,8,0:0:0:0:
256,192,28917,1,8,0:0:0:0:
256,192,29120,1,0,0:0:0:0:
256,192,29323,1,0,0:0:0:0:
256,192,29728,1,8,0:0:0:0:
256,192,29931,1,0,0:0:0:0:
256,192,30336,1,0,0:0:0:0:
256,192,30539,1,8,0:0:0:0:
256,192,30742,1,0,0:0:0:0:
256,192,30944,1,8,0:0:0:0:
256,192,31350,1,8,0:0:0:0:
256,192,31552,1,0,0:0:0:0:
256,192,31958,1,8,0:0:0:0:
256,192,32161,1,8,0:0:0:0:
256,192,32363,1,0,0:0:0:0:
256,192,32566,1,8,0:0:0:0:
256,192,32971,1,8,0:0:0:0:
256,192,33377,1,0,0:0:0:0:
256,192,33579,1,0,0:0:0:0:
256,192,33782,1,8,0:0:0:0:
256,192,33985,1,8,0:0:0:0:
256,192,34188,1,4,0:0:0:0:
256,192,34593,1,8,0:0:0:0:
256,192,34796,1,0,0:0:0:0:
256,192,35201,1,0,0:0:0:0:
256,192,35404,1,8,0:0:0:0:
256,192,35606,1,0,0:0:0:0:
256,192,35809,1,8,0:0:0:0:
256,192,36215,1,8,0:0:0:0:
256,192,36417,1,8,0:0:0:0:
256,192,36620,1,0,0:0:0:0:
256,192,36823,1,0,0:0:0:0:
256,192,37025,1,8,0:0:0:0:
256,192,37228,1,8,0:0:0:0:
256,192,37431,1,0,0:0:0:0:
256,192,37836,1,8,0:0:0:0:
256,192,38039,1,0,0:0:0:0:
256,192,38242,1,0,0:0:0:0:
256,192,38647,1,8,0:0:0:0:
256,192,39052,1,0,0:0:0:0:
256,192,39255,1,8,0:0:0:0:
256,192,39356,1,8,0:0:0:0:
256,192,39458,1,8,0:0:0:0:
256,192,39661,1,0,0:0:0:0:
256,192,39762,1,0,0:0:0:0:
256,192,39863,1,0,0:0:0:0:
256,192,40066,1,8,0:0:0:0:
256,192,40167,1,8,0:0:0:0:
256,192,40269,1,8,0:0:0:0:
256,192,40674,1,4,0:0:0:0:
256,192,41079,1,0,0:0:0:0:
256,192,41282,1,8,0:0:0:0:
256,192,41688,1,8,0:0:0:0:
256,192,41890,1,8,0:0:0:0:
256,192,42093,1,0,0:0:0:0:
256,192,42296,1,0,0:0:0:0:
256,192,42904,1,8,0:0:0:0:
256,192,43106,1,0,0:0:0:0:
256,192,43512,1,8,0:0:0:0:
256,192,43715,1,0,0:0:0:0:
256,192,43917,1,8,0:0:0:0:
256,192,44221,1,0,0:0:0:0:
256,192,44525,1,8,0:0:0:0:
256,192,44728,1,8,0:0:0:0:
256,192,45032,1,0,0:0:0:0:
256,192,45336,1,8,0:0:0:0:
256,192,45539,1,4,0:0:0:0:
256,192,45944,1,8,0:0:0:0:
256,192,46350,1,12,0:0:0:0:
256,192,46755,1,0,0:0:0:0:
256,192,47161,1,4,0:0:0:0:
256,192,47566,1,8,0:0:0:0:
256,192,47769,1,8,0:0:0:0:
256,192,47870,1,8,0:0:0:0:
256,192,47971,1,8,0:0:0:0:
256,192,48174,1,0,0:0:0:0:
256,192,48377,1,8,0:0:0:0:
256,192,48579,1,0,0:0:0:0:
256,192,48782,1,8,0:0:0:0:
256,192,49188,1,8,0:0:0:0:
256,192,49390,1,0,0:0:0:0:
256,192,49593,1,8,0:0:0:0:
256,192,49796,1,0,0:0:0:0:
256,192,49897,1,0,0:0:0:0:
256,192,49998,1,0,0:0:0:0:
256,192,50201,1,0,0:0:0:0:
256,192,50404,1,12,0:0:0:0:
256,192,50809,1,8,0:0:0:0:
256,192,50911,1,8,0:0:0:0:
256,192,51012,1,8,0:0:0:0:
256,192,51215,1,0,0:0:0:0:
256,192,51316,1,0,0:0:0:0:
256,192,51417,1,0,0:0:0:0:
256,192,51620,1,8,0:0:0:0:
256,192,51823,1,0,0:0:0:0:
256,192,52025,1,12,0:0:0:0:
256,192,52329,1,4,0:0:0:0:
256,192,52633,1,4,0:0:0:0:
256,192,52836,1,12,0:0:0:0:
256,192,54458,1,4,0:0:0:0:
256,192,54863,1,8,0:0:0:0:
256,192,55066,1,0,0:0:0:0:
256,192,55167,1,0,0:0:0:0:
256,192,55268,1,0,0:0:0:0:
256,192,55471,1,0,0:0:0:0:
256,192,55674,1,8,0:0:0:0:
256,192,55876,1,8,0:0:0:0:
256,192,56079,1,0,0:0:0:0:
256,192,56485,1,8,0:0:0:0:
256,192,56687,1,0,0:0:0:0:
256,192,56890,1,0,0:0:0:0:
256,192,57093,1,0,0:0:0:0:
256,192,57295,1,8,0:0:0:0:
256,192,57701,1,8,0:0:0:0:
256,192,58106,1,8,0:0:0:0:
256,192,58309,1,0,0:0:0:0:
256,192,58410,1,0,0:0:0:0:
256,192,58512,1,0,0:0:0:0:
256,192,58714,1,0,0:0:0:0:
256,192,58917,1,8,0:0:0:0:
256,192,59120,1,8,0:0:0:0:
256,192,59322,1,0,0:0:0:0:
256,192,59728,1,8,0:0:0:0:
256,192,59930,1,0,0:0:0:0:
256,192,60133,1,8,0:0:0:0:
256,192,60437,1,0,0:0:0:0:
256,192,60741,1,8,0:0:0:0:
256,192,60944,1,4,0:0:0:0:
256,192,61349,1,8,0:0:0:0:
256,192,61552,1,0,0:0:0:0:
256,192,61755,1,8,0:0:0:0:
256,192,62059,1,0,0:0:0:0:
256,192,62363,1,8,0:0:0:0:
256,192,62566,1,0,0:0:0:0:
256,192,62971,1,8,0:0:0:0:
256,192,63174,1,0,0:0:0:0:
256,192,63275,1,0,0:0:0:0:
256,192,63376,1,0,0:0:0:0:
256,192,63579,1,0,0:0:0:0:
256,192,63782,1,8,0:0:0:0:
256,192,63985,1,0,0:0:0:0:
256,192,64187,1,8,0:0:0:0:
256,192,64593,1,8,0:0:0:0:
256,192,64795,1,8,0:0:0:0:
256,192,64998,1,0,0:0:0:0:
256,192,65201,1,8,0:0:0:0:
256,192,65302,1,8,0:0:0:0:
256,192,65403,1,8,0:0:0:0:
256,192,65606,1,4,0:0:0:0:
256,192,66012,1,8,0:0:0:0:
256,192,66214,1,8,0:0:0:0:
256,192,66417,1,0,0:0:0:0:
256,192,66518,1,0,0:0:0:0:
256,192,66620,1,0,0:0:0:0:
256,192,66822,1,8,0:0:0:0:
256,192,66924,1,8,0:0:0:0:
256,192,67025,1,8,0:0:0:0:
256,192,67430,1,4,0:0:0:0:
256,192,67836,1,8,0:0:0:0:
256,192,68039,1,0,0:0:0:0:
256,192,68140,1,0,0:0:0:0:
256,192,68241,1,0,0:0:0:0:
256,192,68444,1,0,0:0:0:0:
256,192,68647,1,8,0:0:0:0:
256,192,68849,1,8,0:0:0:0:
256,192,69052,1,0,0:0:0:0:
256,192,69457,1,8,0:0:0:0:
256,192,69660,1,0,0:0:0:0:
256,192,69863,1,0,0:0:0:0:
256,192,70066,1,0,0:0:0:0:
256,192,70268,1,8,0:0:0:0:
256,192,70674,1,8,0:0:0:0:
256,192,71079,1,8,0:0:0:0:
256,192,71282,1,0,0:0:0:0:
256,192,71383,1,0,0:0:0:0:
256,192,71485,1,0,0:0:0:0:
256,192,71687,1,0,0:0:0:0:
256,192,71890,1,8,0:0:0:0:
256,192,72093,1,8,0:0:0:0:
256,192,72498,1,0,0:0:0:0:
256,192,72701,1,8,0:0:0:0:
256,192,72903,1,0,0:0:0:0:
256,192,73005,1,0,0:0:0:0:
256,192,73106,1,0,0:0:0:0:
256,192,73309,1,8,0:0:0:0:
256,192,73410,1,8,0:0:0:0:
256,192,73512,1,8,0:0:0:0:
256,192,73714,1,0,0:0:0:0:
256,192,73917,1,4,0:0:0:0:
256,192,74322,1,8,0:0:0:0:
256,192,74728,1,0,0:0:0:0:
256,192,74930,1,0,0:0:0:0:
256,192,75133,1,8,0:0:0:0:
256,192,75336,1,8,0:0:0:0:
256,192,75539,1,0,0:0:0:0:
256,192,75944,1,8,0:0:0:0:
256,192,76349,1,0,0:0:0:0:
256,192,76552,1,0,0:0:0:0:
256,192,76755,1,8,0:0:0:0:
256,192,76957,1,8,0:0:0:0:
256,192,77160,1,0,0:0:0:0:
256,192,77566,1,8,0:0:0:0:
256,192,77768,1,8,0:0:0:0:
256,192,77971,1,0,0:0:0:0:
256,192,78174,1,8,0:0:0:0:
256,192,78275,1,8,0:0:0:0:
256,192,78376,1,8,0:0:0:0:
256,192,78579,1,0,0:0:0:0:
256,192,78782,1,8,0:0:0:0:
256,192,79187,1,8,0:0:0:0:
256,192,79390,1,8,0:0:0:0:
256,192,79491,1,8,0:0:0:0:
256,192,79593,1,8,0:0:0:0:
256,192,79897,1,8,0:0:0:0:
256,192,80201,1,0,0:0:0:0:
256,192,80403,1,4,0:0:0:0:
256,192,80809,1,0,0:0:0:0:
256,192,81012,1,12,0:0:0:0:
256,192,81417,1,0,0:0:0:0:
256,192,81620,1,8,0:0:0:0:
256,192,81822,1,12,0:0:0:0:
256,192,82228,1,0,0:0:0:0:
256,192,82430,1,8,0:0:0:0:
256,192,82633,1,4,0:0:0:0:
256,192,82836,1,8,0:0:0:0:
256,192,83241,1,8,0:0:0:0:
256,192,83343,1,8,0:0:0:0:
256,192,83444,1,8,0:0:0:0:
256,192,83647,1,4,0:0:0:0:
256,192,84052,1,0,0:0:0:0:
256,192,84255,1,12,0:0:0:0:
256,192,84660,1,0,0:0:0:0:
256,192,84863,1,8,0:0:0:0:
256,192,85066,1,12,0:0:0:0:
256,192,85471,1,8,0:0:0:0:
256,192,85674,1,8,0:0:0:0:
256,192,85876,1,4,0:0:0:0:
256,192,86079,12,0,88512,0:0:0:0:
