osu file format v14

[General]
AudioFilename: optc.mp3
AudioLeadIn: 0
PreviewTime: 53247
Countdown: 0
SampleSet: Soft
StackLeniency: 0.7
Mode: 0
LetterboxInBreaks: 0
WidescreenStoryboard: 1

[Editor]
Bookmarks: 1760,14733,27706,40679,47166,54463,67435,80408
DistanceSpacing: 0.6
BeatDivisor: 4
GridSize: 32
TimelineZoom: 1

[Metadata]
Title:Stella Breeze (TV Size)
TitleUnicode:ステラブリーズ (TV Size)
Artist:Haruna Luna
ArtistUnicode:春奈るな
Creator:Rizia
Version:Insane
Source:冴えない彼女の育てかた♭
Tags:Saenai Heroine no Sodatekata Saekano anime opening tv size kawaiwkyik Shad0w1and Nardoxyribonucleic
BeatmapID:1259934
BeatmapSetID:595758

[Difficulty]
HPDrainRate:6
CircleSize:4
OverallDifficulty:7.5
ApproachRate:8.5
SliderMultiplier:1.8
SliderTickRate:1

[Events]
//Background and Video events
Video,0,"optc.flv"
0,0,"BG.jpg",0,0
//Break Periods
//Storyboard Layer 0 (Background)
//Storyboard Layer 1 (Fail)
//Storyboard Layer 2 (Pass)
//Storyboard Layer 3 (Foreground)
//Storyboard Sound Samples

[TimingPoints]
134,405.405405405405,4,2,1,60,1,0
14728,-100,4,2,1,40,0,0
15336,-125,4,2,1,40,0,0
27701,-100,4,2,1,60,0,0
47161,-100,4,2,1,60,0,0
50404,-83.3333333333333,4,2,1,60,0,0
53647,405.405405405405,4,2,1,60,1,0
54458,405.405405405405,4,2,1,60,1,1
54458,-83.3333333333333,4,2,1,60,0,1
89120,-100,4,2,1,20,0,0

[Colours]
Combo1 : 156,190,245
Combo2 : 211,148,233
Combo3 : 247,234,247
Combo4 : 248,124,142
Combo5 : 255,234,149

[HitObjects]
196,128,1350,6,0,P|124:120|32:56,2,180,8|4|8,0:0|0:0|0:0,0:0:0:0:
277,195,2363,2,0,P|314:181|380:174,1,90,2|0,0:0|0:0,0:0:0:0:
492,244,2769,2,0,P|455:258|389:265,1,90,2|8,0:0|0:0,0:0:0:0:
316,366,3174,6,0,P|262:347|123:348,1,180,2|2,0:0|0:0,0:0:0:0:
43,270,3782,2,0,P|40:223|72:173,1,90,8|0,0:0|0:0,0:0:0:0:
236,89,4188,1,0,0:0:0:0:
236,89,4289,1,8,0:0:0:0:
236,89,4390,2,0,P|189:97|111:107,1,90,0|8,0:0|0:0,0:0:0:0:
277,190,4796,1,2,0:0:0:0:
316,11,4998,6,0,B|356:63|340:119|340:119|352:155|408:167,1,180,4|8,0:0|0:0,0:0:0:0:
307,334,5606,2,0,P|304:285|335:235,1,90,2|0,0:0|0:0,0:0:0:0:
404,308,6012,1,2,0:0:0:0:
216,270,6215,1,8,0:0:0:0:
404,308,6417,1,2,0:0:0:0:
312,159,6620,6,0,P|317:221|324:275,1,90
300,57,7025,1,8,0:0:0:0:
431,179,7228,1,2,0:0:0:0:
207,202,7431,1,0,0:0:0:0:
207,202,7532,1,8,0:0:0:0:
207,202,7633,2,0,L|199:106,1,90,0|8,0:0|0:0,0:0:0:0:
113,331,8039,2,0,L|59:320,2,45,0|0|4,0:0|0:0|0:0,0:0:0:0:
389,338,8647,6,0,L|478:330,1,90,8|0,0:0|0:0,0:0:0:0:
268,377,9052,2,0,P|295:330|271:232,1,135,2|0,0:0|0:0,0:0:0:0:
251,218,9458,2,0,L|160:233,1,90,8|2,0:0|0:0,0:0:0:0:
47,365,9863,6,0,L|26:301,1,45
2,295,10066,2,0,P|32:269|99:271,1,90,2|8,0:0|0:0,0:0:0:0:
165,293,10471,1,2,0:0:0:0:
251,218,10674,1,0,0:0:0:0:
251,218,10775,1,8,0:0:0:0:
251,218,10877,2,0,P|254:165|224:113,1,90,0|8,0:0|0:0,0:0:0:0:
107,70,11282,1,2,0:0:0:0:
38,190,11485,6,0,P|53:250|175:235,1,180,4|8,0:0|0:0,0:0:0:0:
289,232,12093,2,0,P|294:276|297:321,1,90,2|0,0:0|0:0,0:0:0:0:
292,345,12397,1,8,0:0:0:0:
292,345,12498,2,0,P|327:328|389:333,1,90,0|8,0:0|0:0,0:0:0:0:
499,244,12904,6,0,P|438:234|311:217,1,180,2|2,0:0|0:0,0:0:0:0:
175,73,13512,2,0,P|153:126|225:178,1,135,8|8,0:0|0:0,0:0:0:0:
225,172,13917,2,0,P|220:219|212:278,1,90,8|8,0:0|0:0,0:0:0:0:
201,304,14221,1,8,0:0:0:0:
173,287,14323,1,8,0:0:0:0:
142,279,14424,1,8,0:0:0:0:
110,280,14525,1,8,0:0:0:0:
132,383,14728,5,4,0:0:0:0:
255,192,15133,1,0,0:0:0:0:
320,300,15336,1,2,0:0:0:0:
320,300,15539,2,0,L|408:288,1,72,0|2,0:0|0:0,0:0:0:0:
472,204,15944,2,0,L|384:192,1,72,0|2,0:0|0:0,0:0:0:0:
276,132,16350,6,0,P|304:192|292:276,1,144
224,340,16958,2,0,L|72:324,1,144,2|0,0:0|0:0,0:0:0:0:
113,165,17566,1,0,0:0:0:0:
194,256,17769,1,2,0:0:0:0:
260,100,17971,1,0,0:0:0:0:
260,100,18377,6,0,P|256:148|248:192,1,72,0|2,0:0|0:0,0:0:0:0:
168,124,18782,1,0,0:0:0:0:
339,147,18985,1,2,0:0:0:0:
168,124,19188,1,0,0:0:0:0:
339,147,19390,1,2,0:0:0:0:
188,268,19593,6,0,P|241:259|294:253,2,108,0|0|2,0:0|0:0|0:0,0:0:0:0:
113,333,20404,1,0,0:0:0:0:
113,333,20606,2,0,P|72:336|35:313,1,72,2|0,0:0|0:0,0:0:0:0:
48,146,21012,1,2,0:0:0:0:
92,242,21215,1,0,0:0:0:0:
377,230,21620,5,0,0:0:0:0:
280,192,21823,2,0,P|268:156|264:108,1,72
380,64,22228,2,0,P|375:99|363:133,1,72
288,224,22633,6,0,P|240:208|140:196,1,144,2|0,0:0|0:0,0:0:0:0:
64,160,23242,1,0,0:0:0:0:
0,268,23444,2,0,B|76:248|76:248|104:280|152:276,1,144,2|0,0:0|0:0,0:0:0:0:
280,180,24052,1,0,0:0:0:0:
280,180,24255,1,0,0:0:0:0:
368,240,24458,6,0,L|352:388,1,144
264,323,25066,2,0,L|280:180,1,144,2|0,0:0|0:0,0:0:0:0:
276,60,25674,1,0,0:0:0:0:
384,8,25877,1,2,0:0:0:0:
352,140,26079,1,0,0:0:0:0:
352,140,26485,6,0,P|312:132|256:128,1,72,4|0,0:0|0:0,0:0:0:0:
172,104,26890,1,8,0:0:0:0:
176,120,26992,1,8,0:0:0:0:
180,136,27093,1,0,0:0:0:0:
80,212,27296,1,8,0:0:0:0:
84,196,27397,1,8,0:0:0:0:
88,180,27498,1,0,0:0:0:0:
52,40,27701,5,4,0:0:0:0:
128,324,28106,2,0,P|168:284|288:292,1,180,8|0,0:0|0:0,0:0:0:0:
344,356,28715,2,0,L|448:352,2,90,2|8|2,0:0|0:0|0:0,0:0:0:0:
396,252,29323,6,0,P|408:208|400:152,1,90,0|2,0:0|0:0,0:0:0:0:
324,68,29728,1,8,0:0:0:0:
212,124,29931,2,0,P|152:136|60:64,1,180,2|2,0:0|0:0,0:0:0:0:
61,69,30539,1,8,0:0:0:0:
220,28,30742,1,2,0:0:0:0:
100,152,30944,6,0,L|80:336,1,180,0|8,0:0|0:0,0:0:0:0:
248,376,31552,1,2,0:0:0:0:
248,376,31755,2,0,L|238:286,1,90,0|2,0:0|0:0,0:0:0:0:
340,152,32161,2,0,L|330:241,1,90,8|2,0:0|0:0,0:0:0:0:
291,46,32566,5,0,0:0:0:0:
422,225,32769,1,2,0:0:0:0:
230,139,32971,1,8,0:0:0:0:
413,31,33174,1,2,0:0:0:0:
321,320,33579,5,0,0:0:0:0:
196,240,33782,1,8,0:0:0:0:
103,358,33985,1,2,0:0:0:0:
22,244,34188,6,0,B|84:232|84:232|133:253|133:253|196:240,1,180,4|8,0:0|0:0,0:0:0:0:
306,341,34796,2,0,P|342:289|324:167,1,180,2|2,0:0|0:0,0:0:0:0:
224,92,35404,2,0,L|108:112,1,90,8|2,0:0|0:0,0:0:0:0:
77,243,35809,6,0,L|254:212,1,180,0|8,0:0|0:0,0:0:0:0:
416,265,36417,1,2,0:0:0:0:
416,265,36620,2,0,P|453:226|408:97,1,180,0|8,0:0|0:0,0:0:0:0:
229,32,37228,1,0,0:0:0:0:
244,179,37431,6,0,P|290:168|344:163,1,90,0|2,0:0|0:0,0:0:0:0:
196,313,37836,2,0,P|150:303|96:297,1,90,8|2,0:0|0:0,0:0:0:0:
325,350,38242,2,0,P|317:298|381:178,1,180,0|8,0:0|0:0,0:0:0:0:
388,12,38850,1,0,0:0:0:0:
388,12,38951,1,0,0:0:0:0:
388,12,39052,6,0,P|336:52|216:60,1,180,0|8,0:0|0:0,0:0:0:0:
124,20,39661,1,0,0:0:0:0:
124,20,39762,1,8,0:0:0:0:
124,20,39863,1,0,0:0:0:0:
40,144,40066,1,8,0:0:0:0:
64,170,40167,1,8,0:0:0:0:
95,187,40269,1,0,0:0:0:0:
130,194,40370,1,0,0:0:0:0:
166,190,40471,1,0,0:0:0:0:
328,112,40674,5,4,0:0:0:0:
328,112,41282,2,0,P|315:206|305:300,1,180,8|2,0:0|0:0,0:0:0:0:
244,356,41890,5,8,0:0:0:0:
140,252,42093,1,0,0:0:0:0:
0,306,42296,1,0,0:0:0:0:
0,306,42904,5,8,0:0:0:0:
52,220,43106,2,0,L|34:78,1,135,2|0,0:0|0:0,0:0:0:0:
30,54,43512,5,8,0:0:0:0:
170,22,43715,1,0,0:0:0:0:
302,76,43917,5,0,0:0:0:0:
268,224,44221,1,2,0:0:0:0:
160,127,44525,1,8,0:0:0:0:
243,141,44728,5,2,0:0:0:0:
243,141,44931,1,0,0:0:0:0:
164,273,45133,1,8,0:0:0:0:
137,268,45235,1,8,0:0:0:0:
110,264,45336,1,8,0:0:0:0:
255,365,45539,5,4,0:0:0:0:
359,273,45944,1,2,0:0:0:0:
138,178,46350,1,4,0:0:0:0:
369,79,46755,2,0,L|377:27,2,45,8|0|0,0:0|0:0|0:0,0:0:0:0:
423,184,47161,5,4,0:0:0:0:
423,184,47566,1,8,0:0:0:0:
243,160,47769,1,0,0:0:0:0:
315,35,47971,2,0,P|327:108|333:156,1,90,8|0,0:0|0:0,0:0:0:0:
310,274,48377,2,0,P|237:286|189:292,1,90,8|0,0:0|0:0,0:0:0:0:
127,84,48782,5,8,0:0:0:0:
243,160,48985,1,2,0:0:0:0:
49,277,49188,1,8,0:0:0:0:
152,167,49390,1,2,0:0:0:0:
231,347,49593,1,8,0:0:0:0:
57,150,49796,5,0,0:0:0:0:
179,269,49998,1,8,0:0:0:0:
239,110,50201,1,0,0:0:0:0:
95,301,50404,6,0,P|91:253|249:214,1,215.999993408203,4|8,0:0|0:0,0:0:0:0:
354,274,51012,1,8,0:0:0:0:
354,274,51113,1,8,0:0:0:0:
354,274,51215,2,0,L|482:259,1,107.999996704102,8|8,0:0|0:0,0:0:0:0:
492,240,51519,1,8,0:0:0:0:
492,240,51620,2,0,P|502:196|489:164,1,53.9999983520508,8|8,0:0|0:0,0:0:0:0:
338,164,51823,2,0,P|294:177|273:204,1,53.9999983520508,8|8,0:0|0:0,0:0:0:0:
270,340,52025,5,8,0:0:0:0:
306,36,52329,1,8,0:0:0:0:
354,274,52633,1,8,0:0:0:0:
218,102,52836,1,8,0:0:0:0:
88,348,54458,6,0,P|72:304|76:216,1,107.999996704102,4|2,0:0|0:0,0:0:0:0:
104,156,54863,1,8,0:0:0:0:
284,268,55066,1,2,0:0:0:0:
284,268,55167,1,0,0:0:0:0:
284,268,55268,2,0,P|248:288|164:300,1,107.999996704102,0|2,0:0|0:0,0:0:0:0:
264,120,55674,2,0,P|308:119|368:152,1,107.999996704102,8|2,0:0|0:0,0:0:0:0:
444,252,56079,6,0,P|476:200|476:80,1,161.999995056153,4|0,0:0|0:0,0:0:0:0:
472,64,56485,2,0,P|420:72|324:92,1,107.999996704102,8|2,0:0|0:0,0:0:0:0:
216,40,56890,1,0,0:0:0:0:
216,40,56991,2,8,P|236:96|248:208,1,161.999995056153
76,112,57498,1,2,0:0:0:0:
48,268,57701,6,0,P|88:244|148:228,1,107.999996704102,4|2,0:0|0:0,0:0:0:0:
256,164,58106,1,8,0:0:0:0:
240,372,58309,1,2,0:0:0:0:
240,372,58410,1,0,0:0:0:0:
240,372,58512,2,0,P|256:320|284:248,1,107.999996704102,0|2,0:0|0:0,0:0:0:0:
456,304,58917,2,0,P|388:312|320:324,1,107.999996704102,8|2,0:0|0:0,0:0:0:0:
368,92,59322,6,0,P|376:145|382:199,1,107.999996704102,4|2,0:0|0:0,0:0:0:0:
240,52,59728,2,0,P|248:105|254:159,2,107.999996704102,8|2|0,0:0|0:0|0:0,0:0:0:0:
228,21,60235,2,0,P|184:51|63:48,1,161.999995056153,8|8,0:0|0:0,0:0:0:0:
19,214,60741,1,8,0:0:0:0:
19,214,60843,1,8,0:0:0:0:
19,214,60944,6,0,P|66:180|194:207,1,161.999995056153,4|0,0:0|0:0,0:0:0:0:
196,215,61349,1,8,0:0:0:0:
276,344,61552,1,2,0:0:0:0:
276,344,61653,1,0,0:0:0:0:
276,344,61755,2,0,P|236:312|124:308,1,161.999995056153
208,268,62160,2,0,L|320:248,1,107.999996704102,8|2,0:0|0:0,0:0:0:0:
140,120,62566,6,0,P|196:136|260:148,2,107.999996704102,0|2|8,0:0|0:0|0:0,0:0:0:0:
372,32,63174,1,2,0:0:0:0:
248,68,63376,2,0,P|280:128|288:252,1,161.999995056153
240,276,63782,2,0,P|224:336|220:404,1,107.999996704102,8|0,0:0|0:0,0:0:0:0:
424,152,64187,5,4,0:0:0:0:
400,340,64390,2,0,P|388:280|364:212,1,107.999996704102,2|8,0:0|0:0,0:0:0:0:
292,144,64795,1,2,0:0:0:0:
252,264,64998,1,0,0:0:0:0:
480,288,65201,1,2,0:0:0:0:
308,160,65403,1,8,0:0:0:0:
440,12,65606,1,12,0:0:0:0:
188,188,66012,5,8,0:0:0:0:
176,300,66214,1,8,0:0:0:0:
80,232,66417,1,0,0:0:0:0:
80,232,66518,1,8,0:0:0:0:
80,232,66620,2,0,P|72:188|96:120,1,107.999996704102,0|8,0:0|0:0,0:0:0:0:
116,108,66924,1,0,0:0:0:0:
148,100,67025,2,0,L|216:112,2,53.9999983520508,8|8|8,0:0|0:0|0:0,0:0:0:0:
56,24,67430,5,4,0:0:0:0:
172,192,67633,1,2,0:0:0:0:
72,280,67836,1,8,0:0:0:0:
152,332,68039,6,0,P|204:324|272:320,1,107.999996704102,2|0,0:0|0:0,0:0:0:0:
416,228,68444,2,0,P|364:220|296:216,1,107.999996704102,2|8,0:0|0:0,0:0:0:0:
248,32,68849,6,0,P|268:104|168:212,1,215.999993408203,2|2,0:0|0:0,0:0:0:0:
128,128,69457,1,8,0:0:0:0:
184,332,69660,1,2,0:0:0:0:
184,332,69762,1,8,0:0:0:0:
184,332,69863,2,0,P|120:312|60:312,1,107.999996704102,0|2,0:0|0:0,0:0:0:0:
288,260,70268,2,0,P|300:236|404:168,1,107.999996704102,8|0,0:0|0:0,0:0:0:0:
180,64,70674,6,0,P|208:132|200:224,1,161.999995056153,4|0,0:0|0:0,0:0:0:0:
156,288,71079,2,0,L|48:276,2,107.999996704102,8|2|0,0:0|0:0|0:0,0:0:0:0:
236,360,71687,1,2,0:0:0:0:
380,280,71890,1,8,0:0:0:0:
468,332,72093,5,2,0:0:0:0:
468,332,72194,1,0,0:0:0:0:
468,332,72295,2,0,P|480:276|488:212,1,107.999996704102,4|2,0:0|0:0,0:0:0:0:
368,248,72701,2,0,P|360:191|345:128,1,107.999996704102,8|2,0:0|0:0,0:0:0:0:
256,296,73106,2,0,P|244:356|232:400,2,53.9999983520508,0|8|0,0:0|0:0|0:0,0:0:0:0:
172,176,73512,2,0,P|163:228|148:281,1,107.999996704102,8|0,0:0|0:0,0:0:0:0:
112,36,73917,6,0,P|36:56|64:192,1,215.999993408203,4|8,0:0|0:0,0:0:0:0:
48,272,74525,2,0,P|104:248|260:240,1,215.999993408203,2|2,0:0|0:0,0:0:0:0:
368,203,75133,1,8,0:0:0:0:
392,352,75336,1,2,0:0:0:0:
247,292,75539,5,0,0:0:0:0:
420,272,75741,1,2,0:0:0:0:
303,363,75944,1,8,0:0:0:0:
278,214,76147,2,0,P|261:162|354:28,1,215.999993408203,2|2,0:0|0:0,0:0:0:0:
486,186,76755,1,8,0:0:0:0:
408,313,76957,1,2,0:0:0:0:
408,313,77160,6,0,B|328:301|328:301|280:313|280:313|188:297,1,215.999993408203,4|8,0:0|0:0,0:0:0:0:
98,190,77768,1,2,0:0:0:0:
98,190,77870,1,0,0:0:0:0:
98,190,77971,2,0,L|218:174,1,107.999996704102,0|2,0:0|0:0,0:0:0:0:
388,231,78376,1,8,0:0:0:0:
277,64,78579,6,0,B|297:216|297:216|305:174|341:148,1,215.999993408203,2|2,0:0|0:0,0:0:0:0:
182,363,79187,2,0,P|194:301|213:233,1,107.999996704102,8|0,0:0|0:0,0:0:0:0:
41,105,79593,2,0,P|54:157|64:210,1,107.999996704102,8|0,0:0|0:0,0:0:0:0:
64,242,79897,1,0,0:0:0:0:
55,273,79998,2,0,P|91:277|119:285,2,53.9999983520508,8|8|0,0:0|0:0|0:0,0:0:0:0:
348,56,80403,5,4,0:0:0:0:
348,56,80809,1,8,0:0:0:0:
284,152,81012,2,0,P|220:172|100:84,1,215.999993408203,4|0,0:0|0:0,0:0:0:0:
188,16,81620,1,8,0:0:0:0:
16,164,81822,6,0,P|-8:236|68:372,1,215.999993408203,4|0,0:0|0:0,0:0:0:0:
240,288,82430,1,8,0:0:0:0:
112,248,82633,1,4,0:0:0:0:
208,160,82836,2,0,P|252:144|336:152,1,107.999996704102
320,276,83241,1,8,0:0:0:0:
352,284,83343,1,8,0:0:0:0:
384,284,83444,1,8,0:0:0:0:
416,280,83545,1,8,0:0:0:0:
444,268,83647,6,0,P|472:228|420:84,1,215.999993408203,4|8,0:0|0:0,0:0:0:0:
184,152,84255,2,0,B|312:208|312:208|416:176,1,215.999993408203,4|0,0:0|0:0,0:0:0:0:
164,264,84863,1,8,0:0:0:0:
164,264,85066,2,0,P|156:192|136:48,1,215.999993408203,4|0,0:0|0:0,0:0:0:0:
268,210,85674,1,8,0:0:0:0:
14,135,85876,1,4,0:0:0:0:
256,192,85978,12,0,89120,0:0:0:0:
