osu file format v14

[General]
AudioFilename: optc.mp3
AudioLeadIn: 0
PreviewTime: 53247
Countdown: 0
SampleSet: Soft
StackLeniency: 0.7
Mode: 0
LetterboxInBreaks: 0
WidescreenStoryboard: 1

[Editor]
Bookmarks: 1760,14733,27706,40679,47166,54463,67435,80408
DistanceSpacing: 1
BeatDivisor: 4
GridSize: 4
TimelineZoom: 1

[Metadata]
Title:Stella Breeze (TV Size)
TitleUnicode:ステラブリーズ (TV Size)
Artist:Haruna Luna
ArtistUnicode:春奈るな
Creator:Rizia
Version:Hard
Source:冴えない彼女の育てかた♭
Tags:Saenai Heroine no Sodatekata Saekano anime opening tv size kawaiwkyik Shad0w1and Nardoxyribonucleic
BeatmapID:1260115
BeatmapSetID:595758

[Difficulty]
HPDrainRate:5
CircleSize:4
OverallDifficulty:6
ApproachRate:7
SliderMultiplier:1.6
SliderTickRate:1

[Events]
//Background and Video events
Video,0,"optc.flv"
0,0,"BG.jpg",0,0
//Break Periods
//Storyboard Layer 0 (Background)
//Storyboard Layer 1 (Fail)
//Storyboard Layer 2 (Pass)
//Storyboard Layer 3 (Foreground)
//Storyboard Sound Samples

[TimingPoints]
134,405.405405405405,4,2,1,60,1,0
1755,-100,4,2,1,60,0,0
14728,-100,4,2,1,40,0,0
15336,-125,4,2,1,40,0,0
27701,-100,4,2,1,60,0,0
40674,-133.333333333333,4,2,1,60,0,0
47161,-100,4,2,1,60,0,0
53647,405.405405405405,4,2,1,60,1,0
54458,405.405405405405,4,2,1,60,1,1
54458,-83.3333333333333,4,2,1,60,0,1
89120,-100,4,2,1,20,0,0

[Colours]
Combo1 : 156,190,245
Combo2 : 211,148,233
Combo3 : 247,234,247
Combo4 : 248,124,142
Combo5 : 255,234,149

[HitObjects]
142,131,1350,6,0,P|70:123|-6:67,2,160,8|4|8,0:0|0:0|0:0,0:0:0:0:
218,103,2363,2,0,P|258:95|310:99,1,80,2|0,0:0|0:0,0:0:0:0:
374,71,2769,2,0,P|382:111|378:163,1,80,2|8,0:0|0:0,0:0:0:0:
418,219,3174,6,0,P|390:275|378:379,1,160,2|2,0:0|0:0,0:0:0:0:
298,351,3782,2,0,P|254:347|214:363,1,80,8|0,0:0|0:0,0:0:0:0:
143,327,4188,2,0,L|155:175,2,120,0|0|2,0:0|0:0|0:0,0:0:0:0:
68,364,4998,6,0,P|28:320|60:208,1,160,4|8,0:0|0:0,0:0:0:0:
92,164,5606,2,0,P|110:88|64:26,1,160,2|2,0:0|0:0,0:0:0:0:
28,108,6215,1,8,0:0:0:0:
40,226,6417,6,0,P|80:190|196:204,1,160,2|0,0:0|0:0,0:0:0:0:
236,252,7025,1,8,0:0:0:0:
312,224,7228,1,2,0:0:0:0:
384,256,7431,2,0,L|444:264,2,40,0|8|0,0:0|0:0|0:0,0:0:0:0:
380,176,7836,2,0,P|368:124|372:88,1,80,8|0,0:0|0:0,0:0:0:0:
308,44,8242,6,0,P|236:76|132:84,2,160,4|8|2,0:0|0:0|0:0,0:0:0:0:
412,164,9458,2,0,P|403:211|396:268,1,80,8|2,0:0|0:0,0:0:0:0:
352,308,9863,5,0,0:0:0:0:
276,284,10066,1,2,0:0:0:0:
212,332,10269,2,0,L|128:324,1,80,8|2,0:0|0:0,0:0:0:0:
56,344,10674,2,0,P|32:296|48:208,1,120,0|0,0:0|0:0,0:0:0:0:
56,196,11079,2,0,P|92:176|144:180,1,80,8|2,0:0|0:0,0:0:0:0:
200,136,11485,6,0,P|152:104|44:116,2,160,4|8|0,0:0|0:0|0:0,0:0:0:0:
264,188,12498,2,0,L|372:180,2,80,0|8|2,0:0|0:0|0:0,0:0:0:0:
236,264,13106,2,0,P|168:260|56:256,1,160,0|8,0:0|0:0,0:0:0:0:
16,156,13715,2,0,L|8:96,2,40,0|8|8,0:0|0:0|0:0,0:0:0:0:
120,108,14120,2,0,L|128:48,2,40,8|8|8,0:0|0:0|0:0,0:0:0:0:
224,160,14525,1,8,0:0:0:0:
224,160,14728,6,0,P|256:128|380:132,1,160,4|0,0:0|0:0,0:0:0:0:
460,128,15336,1,2,0:0:0:0:
460,128,15539,2,0,L|448:216,1,64,0|2,0:0|0:0,0:0:0:0:
364,280,15944,2,0,L|352:192,1,64,0|2,0:0|0:0,0:0:0:0:
256,220,16350,6,0,L|104:208,1,128,0|0,0:0|0:0,0:0:0:0:
88,296,16958,2,0,L|215:306,1,128,2|0,0:0|0:0,0:0:0:0:
296,292,17566,2,0,L|280:224,1,64,0|2,0:0|0:0,0:0:0:0:
252,116,17971,5,0,0:0:0:0:
252,116,18377,2,0,P|204:112|160:104,1,64,0|2,0:0|0:0,0:0:0:0:
128,64,18782,2,0,P|123:32|121:0,2,64,0|2|0,0:0|0:0|0:0,0:0:0:0:
104,136,19390,1,2,0:0:0:0:
96,212,19593,6,0,P|48:204|-24:196,2,96,0|0|2,0:0|0:0|0:0,0:0:0:0:
184,340,20606,2,0,P|140:348|100:360,2,64,2|0|2,0:0|0:0|0:0,0:0:0:0:
261,323,21215,1,0,0:0:0:0:
412,360,21620,1,0,0:0:0:0:
412,360,21823,2,0,P|432:308|416:228,1,128,0|0,0:0|0:0,0:0:0:0:
372,180,22431,1,0,0:0:0:0:
300,208,22633,6,0,P|252:192|156:180,1,128,2|0,0:0|0:0,0:0:0:0:
104,152,23242,2,0,P|167:143|228:124,1,128,0|0,0:0|0:0,0:0:0:0:
288,72,23850,2,0,P|296:32|296:-4,2,64,0|0|0,0:0|0:0|0:0,0:0:0:0:
348,156,24458,6,0,L|364:300,1,128,0|0,0:0|0:0,0:0:0:0:
288,356,25066,2,0,L|273:228,1,128,2|0,0:0|0:0,0:0:0:0:
196,200,25674,2,0,L|184:272,1,64,0|2,0:0|0:0,0:0:0:0:
152,340,26079,6,0,P|92:336|4:332,1,128,0|4,0:0|0:0,0:0:0:0:
60,168,26890,2,0,P|20:160|0:160,2,32,8|8|0,0:0|0:0|0:0,0:0:0:0:
92,92,27296,2,0,P|52:84|32:84,2,32,8|8|0,0:0|0:0|0:0,0:0:0:0:
176,156,27701,5,4,0:0:0:0:
352,44,28106,2,0,P|396:36|464:136,1,160,8|0,0:0|0:0,0:0:0:0:
432,188,28715,2,0,L|512:196,2,80,2|8|2,0:0|0:0|0:0,0:0:0:0:
364,228,29323,6,0,P|344:268|356:332,1,80,0|2,0:0|0:0,0:0:0:0:
368,380,29728,1,8,0:0:0:0:
292,360,29931,2,0,P|248:324|144:336,1,160,2|2,0:0|0:0,0:0:0:0:
76,364,30539,1,8,0:0:0:0:
76,364,30742,1,2,0:0:0:0:
12,316,30944,6,0,B|20:256|20:256|8:232|8:232|20:152,1,160,0|8,0:0|0:0,0:0:0:0:
8,80,31552,2,0,P|36:48|160:68,1,160,2|2,0:0|0:0,0:0:0:0:
212,96,32161,1,8,0:0:0:0:
284,60,32363,6,0,L|476:48,1,160,2|2,0:0|0:0,0:0:0:0:
492,116,32971,1,8,0:0:0:0:
444,180,33174,2,0,P|420:232|404:356,1,160,2|0,0:0|0:0,0:0:0:0:
328,364,33782,2,0,P|280:352|224:344,1,80,8|2,0:0|0:0,0:0:0:0:
172,364,34188,6,0,P|152:320|208:216,1,160,4|8,0:0|0:0,0:0:0:0:
228,152,34796,2,0,P|276:192|392:180,1,160,2|2,0:0|0:0,0:0:0:0:
428,140,35404,1,8,0:0:0:0:
328,16,35809,6,0,L|168:4,2,160,0|8|0,0:0|0:0|0:0,0:0:0:0:
440,128,37025,1,8,0:0:0:0:
440,128,37228,2,0,B|452:176|432:212|432:212|428:248|464:296,1,160,0|2,0:0|0:0,0:0:0:0:
400,340,37836,2,0,P|344:336|288:328,1,80,8|2,0:0|0:0,0:0:0:0:
240,340,38242,6,0,P|160:340|80:349,1,160,0|8,0:0|0:0,0:0:0:0:
20,296,38850,2,0,P|8:240|96:192,1,160,0|0,0:0|0:0,0:0:0:0:
176,220,39458,1,8,0:0:0:0:
240,148,39661,2,0,L|232:100,2,40,0|8|0,0:0|0:0|0:0,0:0:0:0:
324,196,40066,2,0,L|316:252,2,40,8|8|0,0:0|0:0|0:0,0:0:0:0:
404,140,40471,2,0,L|488:132,1,80,0|4,0:0|0:0,0:0:0:0:
483,132,41282,6,0,P|504:188|484:260,1,120.000004577637,8|2,0:0|0:0,0:0:0:0:
440,296,41890,5,8,0:0:0:0:
368,284,42093,1,0,0:0:0:0:
392,352,42296,1,2,0:0:0:0:
396,356,42904,2,0,P|300:348|252:344,1,120.000004577637,8|2,0:0|0:0,0:0:0:0:
216,296,43512,5,8,0:0:0:0:
164,348,43715,1,0,0:0:0:0:
144,280,43917,1,0,0:0:0:0:
144,280,44525,2,0,P|152:240|104:152,1,120.000004577637,8|2,0:0|0:0,0:0:0:0:
64,128,45133,2,0,L|12:120,2,30.0000011444092,8|8|8,0:0|0:0|0:0,0:0:0:0:
128,92,45539,5,4,0:0:0:0:
256,160,45944,1,2,0:0:0:0:
384,92,46350,1,4,0:0:0:0:
348,232,46755,2,0,L|352:280,2,30.0000011444092,8|0|0,0:0|0:0|0:0,0:0:0:0:
424,168,47161,5,4,0:0:0:0:
424,168,47566,2,0,P|448:212|440:264,1,80,8|0,0:0|0:0,0:0:0:0:
412,328,47971,2,0,P|368:352|316:344,1,80,8|0,0:0|0:0,0:0:0:0:
244,332,48377,2,0,P|220:288|228:236,1,80,8|0,0:0|0:0,0:0:0:0:
244,164,48782,5,8,0:0:0:0:
312,232,48985,2,0,L|392:212,1,80,2|8,0:0|0:0,0:0:0:0:
364,120,49390,2,0,L|383:42,1,80,2|8,0:0|0:0,0:0:0:0:
292,8,49796,2,0,L|208:32,2,80,0|8|0,0:0|0:0|0:0,0:0:0:0:
383,42,50404,6,0,P|439:34|491:118,1,160,4|8,0:0|0:0,0:0:0:0:
452,200,51012,1,8,0:0:0:0:
396,276,51215,2,0,L|404:364,1,80,8|8,0:0|0:0,0:0:0:0:
304,224,51620,2,0,L|296:312,1,80,8|8,0:0|0:0,0:0:0:0:
204,368,52025,6,0,L|184:240,2,120,8|8|8,0:0|0:0|0:0,0:0:0:0:
204,368,52836,1,8,0:0:0:0:
60,312,54458,6,0,P|40:264|56:192,1,95.9999970703126,4|2,0:0|0:0,0:0:0:0:
76,132,54863,1,8,0:0:0:0:
160,180,55066,1,2,0:0:0:0:
160,180,55167,1,0,0:0:0:0:
160,180,55268,2,0,P|204:196|276:188,1,95.9999970703126,0|2,0:0|0:0,0:0:0:0:
312,88,55674,2,0,P|264:86|219:103,1,95.9999970703126,8|2,0:0|0:0,0:0:0:0:
404,176,56079,6,0,P|436:124|416:12,1,143.999995605469,4|0,0:0|0:0,0:0:0:0:
408,20,56485,2,0,P|361:45|297:39,1,95.9999970703126,8|2,0:0|0:0,0:0:0:0:
234,120,56890,2,0,P|187:95|123:101,1,95.9999970703126,0|0,0:0|0:0,0:0:0:0:
26,69,57295,2,0,P|27:122|65:174,1,95.9999970703126,8|2,0:0|0:0,0:0:0:0:
84,276,57701,6,0,P|124:252|172:240,2,95.9999970703126,4|2|8,0:0|0:0|0:0,0:0:0:0:
248,320,58309,1,2,0:0:0:0:
248,320,58410,1,0,0:0:0:0:
248,320,58512,2,0,P|256:264|272:200,1,95.9999970703126,0|2,0:0|0:0,0:0:0:0:
440,268,58917,2,0,P|392:274|345:284,1,95.9999970703126,8|2,0:0|0:0,0:0:0:0:
340,92,59322,6,0,P|348:145|352:188,1,95.9999970703126,4|2,0:0|0:0,0:0:0:0:
264,225,59728,2,0,P|212:181|123:201,1,143.999995605469,8|0,0:0|0:0,0:0:0:0:
116,213,60133,2,0,L|106:274,2,47.9999985351563,0|8|0,0:0|0:0|0:0,0:0:0:0:
18,222,60539,2,0,P|6:174|26:102,1,95.9999970703126,8|8,0:0|0:0,0:0:0:0:
92,76,60944,6,0,P|132:52|200:152,1,191.999994140625,4|8,0:0|0:0,0:0:0:0:
156,228,61552,1,2,0:0:0:0:
156,228,61653,1,0,0:0:0:0:
156,228,61755,2,0,P|200:192|312:212,1,143.999995605469,0|0,0:0|0:0,0:0:0:0:
328,216,62160,2,0,L|424:224,1,95.9999970703126,8|2,0:0|0:0,0:0:0:0:
484,120,62566,6,0,L|388:128,2,95.9999970703126,0|2|8,0:0|0:0|0:0,0:0:0:0:
484,120,63174,1,2,0:0:0:0:
344,20,63376,2,0,P|376:68|372:184,1,143.999995605469,0|0,0:0|0:0,0:0:0:0:
344,224,63782,2,0,P|330:269|326:317,1,95.9999970703126,8|0,0:0|0:0,0:0:0:0:
240,360,64187,6,0,P|192:372|88:288,1,191.999994140625,4|8,0:0|0:0,0:0:0:0:
132,204,64795,2,0,P|180:192|284:276,1,191.999994140625,2|2,0:0|0:0,0:0:0:0:
380,356,65403,1,8,0:0:0:0:
476,276,65606,1,12,0:0:0:0:
476,276,66012,5,8,0:0:0:0:
396,180,66214,1,8,0:0:0:0:
300,260,66417,1,0,0:0:0:0:
300,260,66518,1,8,0:0:0:0:
300,260,66620,2,0,P|256:280|172:264,1,95.9999970703126,0|8,0:0|0:0,0:0:0:0:
176,264,66924,2,0,L|168:212,3,47.9999985351563,0|8|8|8,0:0|0:0|0:0|0:0,0:0:0:0:
76,212,67430,6,0,P|84:152|96:96,1,95.9999970703126,4|2,0:0|0:0,0:0:0:0:
56,28,67836,2,0,P|112:0|164:16,1,95.9999970703126,8|2,0:0|0:0,0:0:0:0:
216,68,68241,2,0,P|272:96|324:80,1,95.9999970703126,0|2,0:0|0:0,0:0:0:0:
380,36,68647,1,8,0:0:0:0:
456,92,68849,6,0,P|472:152|392:268,1,191.999994140625,2|2,0:0|0:0,0:0:0:0:
324,216,69457,1,8,0:0:0:0:
324,312,69660,1,2,0:0:0:0:
324,312,69762,1,8,0:0:0:0:
324,312,69863,2,0,P|260:292|216:296,1,95.9999970703126,0|2,0:0|0:0,0:0:0:0:
152,344,70268,2,0,P|88:364|44:360,1,95.9999970703126,8|0,0:0|0:0,0:0:0:0:
8,284,70674,6,0,P|-8:228|92:148,1,191.999994140625,4|8,0:0|0:0,0:0:0:0:
140,220,71282,2,0,P|200:240|300:152,1,191.999994140625,2|2,0:0|0:0,0:0:0:0:
308,76,71890,1,8,0:0:0:0:
482,142,72093,6,0,P|435:135|388:128,1,95.9999970703126,2|4,0:0|0:0,0:0:0:0:
401,221,72498,2,0,P|448:228|496:236,1,95.9999970703126,2|8,0:0|0:0,0:0:0:0:
333,358,72903,2,0,P|326:310|316:264,1,95.9999970703126,2|0,0:0|0:0,0:0:0:0:
220,303,73309,2,0,P|209:257|201:209,2,95.9999970703126,0|8|0,0:0|0:0|0:0,0:0:0:0:
148,368,73917,6,0,P|88:380|36:260,1,191.999994140625,4|8,0:0|0:0,0:0:0:0:
36,188,74525,2,0,P|92:160|220:168,1,191.999994140625,2|2,0:0|0:0,0:0:0:0:
296,220,75133,1,8,0:0:0:0:
344,304,75336,1,2,0:0:0:0:
432,264,75539,6,0,P|448:216|456:160,2,95.9999970703126,0|2|8,0:0|0:0|0:0,0:0:0:0:
484,344,76147,2,0,P|444:312|292:312,1,191.999994140625,2|2,0:0|0:0,0:0:0:0:
224,352,76755,1,8,0:0:0:0:
148,296,76957,1,2,0:0:0:0:
148,296,77160,6,0,P|192:244|160:132,1,191.999994140625,4|8,0:0|0:0,0:0:0:0:
96,64,77768,2,0,P|72:104|88:192,1,95.9999970703126,2|0,0:0|0:0,0:0:0:0:
96,244,78174,2,0,L|-16:232,1,95.9999970703126,2|8,0:0|0:0,0:0:0:0:
64,348,78579,6,0,P|124:320|268:328,1,191.999994140625,2|2,0:0|0:0,0:0:0:0:
328,268,79187,2,0,L|352:376,1,95.9999970703126,8|0,0:0|0:0,0:0:0:0:
444,296,79593,2,0,L|464:202,1,95.9999970703126,8|0,0:0|0:0,0:0:0:0:
408,124,79998,2,0,P|400:72|392:40,2,47.9999985351563,8|8|0,0:0|0:0|0:0,0:0:0:0:
320,160,80403,5,4,0:0:0:0:
320,160,80809,1,8,0:0:0:0:
320,160,81012,2,0,P|260:180|160:108,1,191.999994140625,4|0,0:0|0:0,0:0:0:0:
136,20,81620,1,8,0:0:0:0:
56,72,81822,6,0,P|16:112|48:256,1,191.999994140625,4|0,0:0|0:0,0:0:0:0:
80,316,82430,1,8,0:0:0:0:
168,276,82633,1,4,0:0:0:0:
244,336,82836,2,0,P|292:352|368:344,1,95.9999970703126,0|0,0:0|0:0,0:0:0:0:
428,320,83241,2,0,L|484:308,3,47.9999985351563,8|8|8|8,0:0|0:0|0:0|0:0,0:0:0:0:
492,264,83647,6,0,P|504:216|424:112,1,191.999994140625,4|8,0:0|0:0,0:0:0:0:
356,180,84255,2,0,L|148:164,1,191.999994140625,4|0,0:0|0:0,0:0:0:0:
100,92,84863,1,8,0:0:0:0:
100,92,85066,2,0,P|60:152|96:304,1,191.999994140625,4|0,0:0|0:0,0:0:0:0:
140,332,85674,1,8,0:0:0:0:
256,264,85876,1,4,0:0:0:0:
256,192,85978,12,0,89120,0:0:0:0:
