osu file format v14

[General]
AudioFilename: optc.mp3
AudioLeadIn: 0
PreviewTime: 53247
Countdown: 0
SampleSet: Soft
StackLeniency: 0.7
Mode: 0
LetterboxInBreaks: 0
WidescreenStoryboard: 1

[Editor]
Bookmarks: 1760,14733,19598,27706,40679,47166,54463,67435,80408
DistanceSpacing: 1
BeatDivisor: 4
GridSize: 4
TimelineZoom: 1

[Metadata]
Title:Stella Breeze (TV Size)
TitleUnicode:ステラブリーズ (TV Size)
Artist:Haruna Luna
ArtistUnicode:春奈るな
Creator:Rizia
Version:Normal
Source:冴えない彼女の育てかた♭
Tags:Saenai Heroine no Sodatekata Saekano anime opening tv size kawaiwkyik Shad0w1and Nardoxyribonucleic
BeatmapID:1260713
BeatmapSetID:595758

[Difficulty]
HPDrainRate:3
CircleSize:3
OverallDifficulty:3
ApproachRate:4
SliderMultiplier:1.1
SliderTickRate:1

[Events]
//Background and Video events
Video,0,"optc.flv"
0,0,"BG.jpg",0,0
//Break Periods
//Storyboard Layer 0 (Background)
//Storyboard Layer 1 (Fail)
//Storyboard Layer 2 (Pass)
//Storyboard Layer 3 (Foreground)
//Storyboard Sound Samples

[TimingPoints]
134,405.405405405405,4,2,1,60,1,0
1755,-100,4,2,1,60,0,0
14728,-100,4,2,1,40,0,0
15133,-133.333333333333,4,2,1,40,0,0
27701,-100,4,2,1,60,0,0
40674,-100,4,2,1,60,0,0
47161,-100,4,2,1,60,0,0
53647,405.405405405405,4,2,1,60,1,0
54458,405.405405405405,4,2,1,60,1,1
54458,-100,4,2,1,60,0,1
89120,-100,4,2,1,20,0,0

[Colours]
Combo1 : 156,190,245
Combo2 : 211,148,233
Combo3 : 247,234,247
Combo4 : 248,124,142
Combo5 : 255,234,149

[HitObjects]
184,112,1350,6,0,P|144:120|64:124,1,110,8|4,0:0|0:0,0:0:0:0:
20,220,2161,1,8,0:0:0:0:
20,220,2363,2,0,P|68:228|132:244,1,110,2|2,0:0|0:0,0:0:0:0:
188,336,3174,2,0,P|248:348|352:296,1,165,2|8,0:0|0:0,0:0:0:0:
320,200,4188,2,0,P|316:152|348:96,1,110,0|8,0:0|0:0,0:0:0:0:
424,24,4998,6,0,P|451:70|448:125,1,110,4|8,0:0|0:0,0:0:0:0:
420,172,5606,2,0,L|292:156,1,110,2|2,0:0|0:0,0:0:0:0:
256,150,6215,1,8,0:0:0:0:
179,229,6620,2,0,P|127:245|59:233,1,110,0|8,0:0|0:0,0:0:0:0:
44,132,7431,2,0,P|80:116|124:116,2,82.5,0|0|0,0:0|0:0|0:0,0:0:0:0:
4,96,8242,6,0,L|24:272,1,165,4|0,0:0|0:0,0:0:0:0:
56,304,9052,2,0,P|24:332|-36:344,2,82.5,2|0|2,0:0|0:0|0:0,0:0:0:0:
108,292,9863,2,0,P|156:284|256:360,1,165,0|2,0:0|0:0,0:0:0:0:
296,376,10674,2,0,L|428:364,1,110,0|8,0:0|0:0,0:0:0:0:
472,276,11485,6,0,P|496:216|480:156,1,110,4|8,0:0|0:0,0:0:0:0:
460,124,12093,1,2,0:0:0:0:
368,64,12498,1,0,0:0:0:0:
328,100,12701,2,0,P|296:116|208:112,2,110,8|0|8,0:0|0:0|0:0,0:0:0:0:
372,200,13917,2,0,L|356:332,1,110,8|8,0:0|0:0,0:0:0:0:
256,348,14728,5,4,0:0:0:0:
160,296,15133,2,0,P|128:292|80:320,1,82.5000031471254,2|0,0:0|0:0,0:0:0:0:
16,232,15944,2,0,P|35:206|35:150,1,82.5000031471254,2|0,0:0|0:0,0:0:0:0:
24,52,16755,1,2,0:0:0:0:
124,12,17161,2,0,P|172:8|212:28,1,82.5000031471254,0|2,0:0|0:0,0:0:0:0:
272,104,17971,6,0,L|368:88,1,82.5000031471254,0|2,0:0|0:0,0:0:0:0:
460,88,18782,2,0,L|476:184,1,82.5000031471254,0|2,0:0|0:0,0:0:0:0:
416,260,19593,2,0,L|400:356,1,82.5000031471254,0|2,0:0|0:0,0:0:0:0:
300,372,20404,2,0,L|313:290,1,82.5000031471254,0|2,0:0|0:0,0:0:0:0:
276,188,21215,6,0,P|264:140|348:64,1,165.000006294251
444,40,22431,1,2,0:0:0:0:
500,132,22836,2,0,P|468:148|416:144,1,82.5000031471254,0|2,0:0|0:0,0:0:0:0:
364,236,23647,2,0,P|381:273|378:313,1,82.5000031471254,0|2,0:0|0:0,0:0:0:0:
288,372,24458,6,0,P|220:332|128:348,1,165.000006294251,0|0,0:0|0:0,0:0:0:0:
32,356,25674,1,2,0:0:0:0:
4,252,26079,2,0,L|16:160,1,82.5000031471254,0|6,0:0|0:0,0:0:0:0:
108,120,26890,2,0,L|100:64,2,41.2500015735627,8|0|8,0:0|0:0|0:0,0:0:0:0:
216,148,27701,5,4,0:0:0:0:
304,212,28106,2,0,P|324:160|316:105,1,110,8|0,0:0|0:0,0:0:0:0:
228,40,28917,1,8,0:0:0:0:
120,24,29323,2,0,P|84:48|68:116,1,110,0|8,0:0|0:0,0:0:0:0:
88,160,29931,2,0,P|108:216|104:288,1,110,2|2,0:0|0:0,0:0:0:0:
92,320,30539,1,8,0:0:0:0:
192,364,30944,6,0,L|308:352,1,110,0|8,0:0|0:0,0:0:0:0:
352,372,31552,2,0,P|384:332|448:320,1,110,2|2,0:0|0:0,0:0:0:0:
492,328,32161,1,8,0:0:0:0:
492,328,32363,2,0,L|476:212,1,110,2|2,0:0|0:0,0:0:0:0:
496,168,32971,1,8,0:0:0:0:
496,168,33174,2,0,P|448:180|364:108,1,165,2|8,0:0|0:0,0:0:0:0:
312,16,34188,6,0,L|188:12,1,110,4|8,0:0|0:0,0:0:0:0:
148,8,34796,2,0,P|108:28|80:100,1,110,2|2,0:0|0:0,0:0:0:0:
72,140,35404,1,8,0:0:0:0:
48,248,35809,2,0,P|88:280|216:256,1,165,0|0,0:0|0:0,0:0:0:0:
240,240,36620,2,0,L|256:372,1,110,0|8,0:0|0:0,0:0:0:0:
364,352,37431,6,0,P|404:332|476:344,2,110,0|8|0,0:0|0:0|0:0,0:0:0:0:
272,292,38647,1,8,0:0:0:0:
348,212,39052,2,0,P|364:168|356:104,1,110,0|8,0:0|0:0,0:0:0:0:
280,28,39863,1,0,0:0:0:0:
180,72,40269,1,0,0:0:0:0:
80,24,40674,6,0,L|44:200,2,165,4|8|8,0:0|0:0|0:0,0:0:0:0:
180,72,42296,2,0,L|341:38,2,165,0|8|8,0:0|0:0|0:0,0:0:0:0:
164,180,43917,2,0,P|144:200|8:216,2,165,0|8|8,0:0|0:0|0:0,0:0:0:0:
272,204,45539,5,4,0:0:0:0:
240,308,45944,1,2,0:0:0:0:
344,340,46350,1,4,0:0:0:0:
376,236,46755,1,8,0:0:0:0:
472,184,47161,1,4,0:0:0:0:
256,192,47363,12,8,52025,0:0:0:0:
268,60,54458,6,0,P|312:40|392:60,1,110,4|8,0:0|0:0,0:0:0:0:
420,76,55066,2,0,P|432:128|468:192,1,110,2|2,0:0|0:0,0:0:0:0:
496,216,55674,1,8,0:0:0:0:
508,324,56079,2,0,B|460:352|460:352|404:344,1,110,4|8,0:0|0:0,0:0:0:0:
340,256,56890,2,0,B|286:248|286:248|238:276,1,110,0|8,0:0|0:0,0:0:0:0:
156,352,57701,6,0,P|116:360|32:328,1,110,4|8,0:0|0:0,0:0:0:0:
20,296,58309,2,0,P|12:256|44:172,1,110,2|2,0:0|0:0,0:0:0:0:
68,148,58917,1,8,0:0:0:0:
112,48,59322,1,4,0:0:0:0:
212,96,59728,1,8,0:0:0:0:
320,72,60133,2,0,P|368:64|428:60,2,82.5,0|0|8,0:0|0:0|0:0,0:0:0:0:
296,120,60944,6,0,P|276:172|300:296,1,165,4|2,0:0|0:0,0:0:0:0:
312,328,61755,2,0,P|272:344|220:348,2,82.5,0|0|2,0:0|0:0|0:0,0:0:0:0:
360,300,62566,6,0,P|420:292|464:332,1,110,0|8,0:0|0:0,0:0:0:0:
500,356,63174,1,2,0:0:0:0:
500,356,63376,2,0,L|488:244,1,110,0|8,0:0|0:0,0:0:0:0:
468,140,64187,6,0,P|408:148|358:128,1,110,4|8,0:0|0:0,0:0:0:0:
312,104,64795,2,0,L|202:115,1,110,2|2,0:0|0:0,0:0:0:0:
152,96,65403,1,8,0:0:0:0:
152,96,65606,2,0,B|116:124|72:116|72:116|32:140|32:200,1,165,12|8,0:0|0:0,0:0:0:0:
48,292,66620,1,0,0:0:0:0:
136,356,67025,1,8,0:0:0:0:
244,376,67430,6,0,P|308:372|376:364,1,110,4|8,0:0|0:0,0:0:0:0:
404,344,68039,2,0,P|436:299|452:240,1,110,2|2,0:0|0:0,0:0:0:0:
440,192,68647,1,8,0:0:0:0:
388,96,69052,2,0,P|348:124|332:192,1,110,0|8,0:0|0:0,0:0:0:0:
316,288,69863,2,0,L|200:280,1,110,0|8,0:0|0:0,0:0:0:0:
112,340,70674,6,0,B|88:292|88:292|104:228,1,110,4|8,0:0|0:0,0:0:0:0:
128,188,71282,2,0,L|12:180,1,110,2|2,0:0|0:0,0:0:0:0:
4,128,71890,1,8,0:0:0:0:
4,128,72093,2,0,P|24:84|16:8,2,110,2|2|2,0:0|0:0|0:0,0:0:0:0:
0,240,73309,2,0,L|12:308,2,55,0|8|0,0:0|0:0|0:0,0:0:0:0:
40,204,73917,6,0,L|172:216,1,110,4|8,0:0|0:0,0:0:0:0:
204,204,74525,1,2,0:0:0:0:
292,272,74930,2,0,L|300:344,2,55,2|8|2,0:0|0:0|0:0,0:0:0:0:
336,240,75539,2,0,P|384:232|444:272,1,110,0|8,0:0|0:0,0:0:0:0:
480,292,76147,2,0,L|464:168,1,110,2|2,0:0|0:0,0:0:0:0:
436,136,76755,2,0,L|448:76,1,55,8|2,0:0|0:0,0:0:0:0:
468,32,77160,6,0,P|428:20|348:52,1,110,4|8,0:0|0:0,0:0:0:0:
320,68,77768,2,0,P|280:80|200:48,1,110,2|2,0:0|0:0,0:0:0:0:
172,28,78376,1,8,0:0:0:0:
172,28,78579,2,0,P|120:20|76:120,1,165,2|8,0:0|0:0,0:0:0:0:
104,212,79593,2,0,P|112:256|108:312,2,82.5,8|0|0,0:0|0:0|0:0,0:0:0:0:
72,168,80403,5,4,0:0:0:0:
104,64,80809,1,8,0:0:0:0:
104,64,81012,2,0,L|228:76,1,110,4|0,0:0|0:0,0:0:0:0:
320,92,81822,2,0,P|344:136|332:208,1,110,4|0,0:0|0:0,0:0:0:0:
308,240,82430,1,8,0:0:0:0:
308,240,82633,2,0,L|417:229,1,110,4|0,0:0|0:0,0:0:0:0:
472,224,83241,1,8,0:0:0:0:
500,332,83647,6,0,L|390:321,1,110,4|8,0:0|0:0,0:0:0:0:
340,296,84255,2,0,P|288:288|228:336,1,110,4|0,0:0|0:0,0:0:0:0:
208,360,84863,1,8,0:0:0:0:
208,360,85066,2,0,P|176:324|200:204,1,165,4|8,0:0|0:0,0:0:0:0:
232,180,85876,1,4,0:0:0:0:
256,192,86079,12,0,89120,0:0:0:0:
