osu file format v14

[General]
AudioFilename: audio.mp3
AudioLeadIn: 0
PreviewTime: 53199
Countdown: 0
SampleSet: Soft
StackLeniency: 0.3
Mode: 0
LetterboxInBreaks: 0
WidescreenStoryboard: 1

[Editor]
Bookmarks: 89077
DistanceSpacing: 0.5
BeatDivisor: 4
GridSize: 32
TimelineZoom: 1.9

[Metadata]
Title:Stella Breeze (TV Size)
TitleUnicode:ステラブリーズ (TV Size)
Artist:Haruna Luna
ArtistUnicode:春奈るな
Creator:Momochikun
Version:Kibb's Insane
Source:冴えない彼女の育てかた♭
Tags:Saenai Heroine no Sodatekata Flat season 2 saekano How to Raise a Boring Girlfriend opening tv size A-1 Pictures Kibbleru
BeatmapID:1260403
BeatmapSetID:595827

[Difficulty]
HPDrainRate:6
CircleSize:4
OverallDifficulty:7.5
ApproachRate:9
SliderMultiplier:1.7
SliderTickRate:1

[Events]
//Background and Video events
0,0,"bg.jpg",0,0
Video,0,"saekano movie.flv"
//Break Periods
//Storyboard Layer 0 (Background)
//Storyboard Layer 1 (Fail)
//Storyboard Layer 2 (Pass)
//Storyboard Layer 3 (Foreground)
//Storyboard Sound Samples

[TimingPoints]
92,405.405405405405,4,2,1,65,1,0
1409,-100,4,2,1,45,0,0
1713,-100,4,2,1,75,0,1
1814,-100,4,2,1,70,0,0
14078,-100,4,2,1,55,0,0
14686,-125,4,2,1,60,0,0
26037,-117.647058823529,4,2,1,60,0,0
26443,-117.647058823529,4,2,1,50,0,0
27659,-100,4,2,1,65,0,0
38909,-100,4,2,1,60,0,0
40632,-83.3333333333333,4,2,1,50,0,0
43064,-117.647058823529,4,2,1,50,0,0
44889,-117.647058823529,4,2,1,30,0,0
45091,-83.3333333333333,4,2,1,50,0,0
45497,-200,4,2,1,50,0,0
47119,-100,4,2,1,60,0,0
50362,-100,4,2,1,60,0,0
50564,-100,4,2,1,30,0,0
50970,-100,4,2,1,40,0,0
51375,-100,4,2,1,50,0,0
51781,-100,4,2,1,60,0,0
52794,405.405405405405,4,2,1,60,1,0
54415,-100,4,2,1,75,0,1
65361,-83.3333333333333,4,2,1,75,0,1
66172,-100,4,2,1,65,0,0
66983,-83.3333333333333,4,2,1,65,0,0
67388,-100,4,2,1,75,0,1
79956,-83.3333333333333,4,2,1,75,0,1
80361,-100,4,2,1,75,0,0
85429,-83.3333333333333,4,2,1,75,0,0
85935,-83.3333333333333,4,2,1,30,0,0
87658,-83.3333333333333,4,2,1,10,0,0

[Colours]
Combo1 : 255,255,174
Combo2 : 255,157,157
Combo3 : 255,177,140

[HitObjects]
245,70,1308,5,4,0:3:0:0:
245,70,1409,1,0,0:0:0:0:
245,70,1510,1,0,0:0:0:0:
245,70,1612,1,0,0:0:0:0:
245,69,1713,6,0,P|322:62|385:138,1,170,4|8,0:0|0:0,0:0:0:0:
148,119,2321,2,0,P|136:80|140:32,1,85,0|8,0:0|0:1,0:0:0:0:
241,177,2727,2,0,P|252:215|249:265,1,85,2|8,0:0|0:0,0:0:0:0:
163,287,3132,1,2,0:0:0:0:
163,287,3233,1,0,0:0:0:0:
163,287,3335,6,0,B|249:270|239:333|325:317,1,170,0|8,0:0|0:0,0:0:0:0:
386,127,3943,1,0,0:0:0:0:
386,127,4044,1,0,0:0:0:0:
386,127,4146,2,0,P|385:148|383:172,2,42.5,10|8|0,0:1|0:0|0:0,0:0:0:0:
447,40,4551,1,8,0:0:0:0:
277,133,4754,1,0,0:0:0:0:
455,263,4956,6,0,P|392:210|310:220,1,170,10|8,0:1|0:0,0:0:0:0:
221,271,5564,2,0,P|208:230|209:188,1,85,0|0,0:0|0:1,0:0:0:0:
354,33,5970,2,0,P|366:73|365:115,1,85,2|8,0:0|0:0,0:0:0:0:
117,131,6375,1,2,0:0:0:0:
117,131,6477,1,0,0:0:0:0:
117,131,6578,6,0,P|179:77|261:87,1,170,8|8,0:1|0:0,0:0:0:0:
305,180,7186,1,0,0:0:0:0:
227,236,7389,1,10,0:1:0:0:
226,257,7490,1,8,0:0:0:0:
225,278,7591,1,0,0:0:0:0:
305,180,7794,1,8,0:0:0:0:
132,352,7997,1,8,0:0:0:0:
132,352,8098,1,8,0:0:0:0:
132,352,8200,6,0,P|118:311|116:266,1,85,4|0,0:0|0:0,0:0:0:0:
289,97,8605,2,0,P|302:137|304:182,1,85,8|0,0:0|0:0,0:0:0:0:
345,323,9010,2,0,P|293:286|231:291,1,127.5,10|0,0:1|0:0,0:0:0:0:
214,307,9416,1,8,0:0:0:0:
396,220,9619,1,0,0:0:0:0:
219,188,9821,6,0,L|303:179,1,85,10|0,0:1|0:0,0:0:0:0:
474,98,10227,2,0,L|389:106,1,85,8|0,0:0|0:0,0:0:0:0:
290,36,10632,1,10,0:1:0:0:
287,57,10733,1,8,0:0:0:0:
284,78,10835,1,0,0:0:0:0:
389,292,11037,2,0,P|401:251|403:209,1,85,8|0,0:0|0:0,0:0:0:0:
445,374,11443,6,0,P|380:321|297:327,1,170,10|8,0:1|0:0,0:0:0:0:
271,219,12051,1,0,0:0:0:0:
178,338,12254,2,0,L|183:295,2,42.5,8|8|0,0:1|0:0|0:0,0:0:0:0:
98,242,12659,1,8,0:0:0:0:
271,219,12862,1,2,0:0:0:0:
166,87,13064,6,0,L|173:171,1,85,8|0,0:1|0:0,0:0:0:0:
344,305,13470,2,0,P|372:249|370:183,1,127.5,8|8,0:0|0:0,0:0:0:0:
360,168,13875,1,8,0:1:0:0:
241,280,14078,5,0,1:0:0:0:
224,275,14179,1,0,1:0:0:0:
207,270,14281,2,0,L|210:339,2,42.5,4|0|4,1:3|1:0|1:3,0:0:0:0:
196,166,14686,1,4,0:0:0:0:
196,166,15091,6,0,P|162:160|126:145,1,68,8|0,0:1|0:0,0:0:0:0:
56,202,15497,2,0,P|43:233|40:267,1,68,8|0,0:1|0:0,0:0:0:0:
111,334,15902,1,8,0:1:0:0:
191,284,16105,1,0,0:0:0:0:
274,338,16308,6,0,P|328:349|399:289,1,136,8|8,0:1|0:1,0:0:0:0:
401,212,16916,2,0,P|352:164|279:166,1,136,0|0,0:0|0:0,0:0:0:0:
215,222,17524,1,8,0:1:0:0:
149,103,17727,2,0,L|146:69,2,34,2|0|8,0:0|0:0|0:1,0:0:0:0:
149,103,18335,6,0,P|116:100|82:93,1,68,8|0,0:1|0:0,0:0:0:0:
17,158,18740,2,0,P|28:191|35:224,1,68,8|0,0:1|0:0,0:0:0:0:
122,257,19146,1,8,0:1:0:0:
75,340,19348,1,0,0:0:0:0:
172,365,19551,6,0,P|215:337|265:334,1,102,8|0,0:1|0:0,0:0:0:0:
285,347,19956,1,8,0:1:0:0:
342,205,20159,1,2,0:0:0:0:
352,222,20260,1,0,0:0:0:0:
356,241,20362,1,8,0:1:0:0:
260,251,20564,1,0,0:0:0:0:
373,113,20767,1,10,0:1:0:0:
441,290,20970,2,0,L|435:323,2,34,0|0|10,0:0|0:0|0:1,0:0:0:0:
441,290,21578,5,8,0:1:0:0:
485,140,21781,2,0,P|495:172|496:206,1,68,0|8,0:0|0:1,0:0:0:0:
351,367,22186,2,0,P|340:334|339:300,1,68,0|8,0:0|0:1,0:0:0:0:
380,208,22591,6,0,L|312:201,1,68,0|8,0:0|0:1,0:0:0:0:
319,97,22997,2,0,L|252:104,1,68
215,199,23402,2,0,P|170:229|87:220,1,136,2|0,0:0|0:0,0:0:0:0:
36,151,24010,2,0,P|34:110|46:72,1,68,10|0,0:1|0:0,0:0:0:0:
106,17,24416,6,0,L|241:30,1,136,10|8,0:1|0:1,0:0:0:0:
277,126,25024,2,0,L|209:120,1,68,2|8,0:0|0:1,0:0:0:0:
338,12,25429,2,0,L|405:17,1,68,2|8,0:0|0:1,0:0:0:0:
395,106,25835,1,2,0:0:0:0:
484,80,26037,6,0,P|496:113|499:149,1,72.2500013780594,8|0,0:1|0:0,0:0:0:0:
324,331,26443,2,0,P|317:277|333:226,1,108.375002067089,4|0,0:0|0:0,0:0:0:0:
422,193,26848,5,8,0:0:0:0:
424,210,26950,1,8,0:0:0:0:
426,227,27051,1,8,0:3:0:0:
255,121,27254,1,8,0:0:0:0:
253,138,27356,1,8,0:0:0:0:
251,155,27457,1,4,0:3:0:0:
295,232,27659,6,0,P|241:199|175:199,1,127.5,4|0,0:0|0:0,0:0:0:0:
98,248,28064,2,0,P|84:207|87:164,1,85,8|0,0:0|0:0,0:0:0:0:
162,111,28470,5,8,0:1:0:0:
216,295,28673,1,0,0:0:0:0:
278,175,28875,1,8,0:0:0:0:
98,248,29078,1,0,0:0:0:0:
94,24,29281,6,0,P|153:81|237:73,1,170,8|8,0:1|0:0,0:0:0:0:
301,6,29889,1,0,0:0:0:0:
274,219,30091,1,8,0:1:0:0:
276,197,30193,1,8,0:0:0:0:
278,175,30294,1,0,0:0:0:0:
377,94,30497,2,0,P|393:132|397:184,1,85,8|0,0:0|0:0,0:0:0:0:
195,249,30902,6,0,B|284:230|277:291|359:273,1,170,8|8,0:1|0:0,0:0:0:0:
423,157,31510,2,0,P|380:157|339:169,1,85,0|8,0:0|0:1,0:0:0:0:
142,364,31916,2,0,P|184:363|225:351,1,85,0|8,0:0|0:0,0:0:0:0:
237,135,32321,1,0,0:0:0:0:
230,154,32423,1,0,0:0:0:0:
229,175,32524,5,8,0:1:0:0:
300,256,32727,1,0,0:0:0:0:
131,155,32929,1,8,0:0:0:0:
314,22,33132,2,0,P|326:62|327:112,1,85,0|8,0:0|0:1,0:0:0:0:
327,104,33436,1,8,0:0:0:0:
327,104,33537,1,0,0:0:0:0:
131,155,33740,1,8,0:0:0:0:
352,339,33943,1,0,0:0:0:0:
352,339,34044,1,0,0:0:0:0:
352,339,34146,6,0,P|287:286|205:296,1,170,4|8,0:0|0:0,0:0:0:0:
106,339,34754,2,0,P|100:297|110:256,1,85,0|8,0:0|0:1,0:0:0:0:
262,67,35159,1,0,0:0:0:0:
169,18,35362,2,0,L|163:123,1,85,8|0,0:0|0:0,0:0:0:0:
241,150,35767,6,0,B|159:120|156:182|75:154,1,170,8|8,0:1|0:0,0:0:0:0:
197,241,36375,1,0,0:0:0:0:
337,107,36578,2,0,P|347:148|341:189,1,85,8|0,0:1|0:0,0:0:0:0:
227,363,36983,1,8,0:0:0:0:
135,326,37186,1,0,0:0:0:0:
135,326,37287,1,0,0:0:0:0:
135,325,37389,6,0,P|195:270|277:280,1,170,8|8,0:1|0:0,0:0:0:0:
180,114,37997,1,0,0:0:0:0:
173,134,38098,1,0,0:0:0:0:
172,155,38200,5,8,0:1:0:0:
399,100,38402,1,0,0:0:0:0:
152,9,38605,1,8,0:0:0:0:
308,110,38808,1,0,0:0:0:0:
308,110,38909,1,8,0:0:0:0:
308,110,39010,6,0,L|310:67,2,42.5,8|8|0,0:1|0:0|0:0,0:0:0:0:
172,155,39416,2,0,L|169:112,2,42.5,8|0|0,0:0|0:0|0:0,0:0:0:0:
93,226,39720,1,8,0:0:0:0:
93,226,39821,2,0,L|72:176,1,42.5,8|8,0:1|0:0,0:0:0:0:
75,302,40024,5,8,0:0:0:0:
100,268,40125,1,8,0:0:0:0:
136,246,40226,1,8,0:0:0:0:
178,241,40328,1,8,0:0:0:0:
219,253,40429,1,8,0:3:0:0:
175,342,40632,5,4,0:0:0:0:
126,56,41240,1,8,0:0:0:0:
335,67,41646,1,8,0:1:0:0:
235,30,41848,2,0,L|230:80,1,50.9999984436036,8|0,0:0|0:0,0:0:0:0:
335,67,42051,2,0,L|339:117,1,50.9999984436036,8|0,0:1|0:0,0:0:0:0:
274,191,42254,5,0,1:0:0:0:
372,375,42862,1,8,0:0:0:0:
212,345,43064,2,0,P|247:339|283:335,1,72.2500013780594,0|8,0:0|0:1,0:0:0:0:
462,239,43470,2,0,L|354:250,1,108.375002067089,8|0,0:0|0:0,0:0:0:0:
274,191,43875,5,0,1:0:0:0:
366,154,44179,5,0,0:0:0:0:
354,250,44483,5,8,0:0:0:0:
283,92,44686,5,0,0:0:0:0:
260,284,44889,1,4,0:0:0:0:
454,267,45091,2,0,P|453:241|449:216,1,50.9999984436036,8|8,0:0|0:0,0:0:0:0:
283,92,45294,1,8,0:1:0:0:
312,210,45497,6,0,P|273:191|230:193,1,85,4|0,0:0|0:0,0:0:0:0:
394,51,46308,2,0,P|403:82|399:121,1,63.75,4|0,0:0|0:0,0:0:0:0:
427,218,46713,5,8,0:3:0:0:
427,218,46814,1,4,0:3:0:0:
427,218,46916,1,4,0:3:0:0:
427,218,47017,1,0,0:0:0:0:
427,218,47119,6,0,L|441:317,1,85,4|0,0:0|0:0,0:0:0:0:
486,134,47524,5,8,0:0:0:0:
254,215,47727,1,0,0:0:0:0:
438,302,47929,5,8,0:0:0:0:
231,214,48132,1,8,0:1:0:0:
486,134,48335,5,8,0:0:0:0:
209,213,48537,1,8,0:1:0:0:
397,205,48740,5,8,0:0:0:0:
144,104,48943,1,0,0:0:0:0:
445,37,49146,5,8,0:0:0:0:
167,103,49348,1,8,0:1:0:0:
397,205,49551,5,8,0:0:0:0:
189,102,49753,1,8,0:1:0:0:
445,37,49956,5,8,0:0:0:0:
211,101,50159,1,8,0:1:0:0:
392,247,50362,6,0,L|399:183,3,42.5,4|0|0|0,0:0|0:0|1:0|1:0,0:0:0:0:
230,44,50767,2,0,L|225:86,3,42.5,8|0|0|0,0:0|1:0|1:0|1:0,0:0:0:0:
162,171,51173,5,8,0:0:0:0:
198,192,51274,1,0,1:0:0:0:
240,196,51375,1,0,1:0:0:0:
279,181,51477,1,0,1:0:0:0:
309,151,51578,1,8,0:0:0:0:
338,120,51679,1,8,0:0:0:0:
377,105,51781,1,8,0:0:0:0:
419,109,51882,1,8,0:0:0:0:
456,131,51983,5,0,1:0:0:0:
247,337,52287,1,0,1:0:0:0:
176,52,52591,1,0,1:0:0:0:
289,176,52794,5,0,1:0:0:0:
280,242,54415,6,0,P|217:187|135:196,1,170,4|8,0:0|0:0,0:0:0:0:
356,78,55023,1,2,0:0:0:0:
362,98,55125,1,0,0:0:0:0:
362,119,55226,1,8,0:1:0:0:
185,282,55429,1,2,0:0:0:0:
267,106,55631,1,8,0:0:0:0:
384,267,55834,1,2,0:0:0:0:
60,193,56037,6,0,L|187:184,1,127.5,8|0,0:1|0:0,0:0:0:0:
275,273,56442,2,0,P|273:315|259:356,1,85,8|0,0:0|0:0,0:0:0:0:
394,141,56848,1,0,0:0:0:0:
392,121,56949,1,8,0:0:0:0:
385,102,57050,1,8,0:1:0:0:
444,25,57253,1,8,0:0:0:0:
296,139,57456,1,0,0:0:0:0:
512,239,57658,6,0,B|434:209|428:268|346:238,1,170,2|8,0:0|0:0,0:0:0:0:
211,211,58266,1,2,0:0:0:0:
214,232,58368,1,0,0:0:0:0:
217,252,58469,1,8,0:1:0:0:
296,139,58672,1,2,0:0:0:0:
116,253,58875,1,8,0:0:0:0:
297,337,59077,1,2,0:0:0:0:
58,141,59280,6,0,P|120:148|176:115,1,127.5,0|0,0:0|0:0,0:0:0:0:
283,56,59685,2,0,P|295:96|295:138,1,85,8|0,0:0|0:0,0:0:0:0:
195,344,60091,1,8,0:1:0:0:
197,323,60192,1,8,0:0:0:0:
200,302,60293,1,0,0:0:0:0:
297,337,60496,1,8,0:0:0:0:
44,243,60699,1,8,0:0:0:0:
44,243,60800,1,8,0:0:0:0:
44,243,60902,6,0,P|107:190|189:202,1,170,4|8,0:0|0:0,0:0:0:0:
161,83,61510,1,0,0:0:0:0:
75,16,61712,2,0,P|57:54|54:96,1,85,10|0,0:1|0:0,0:0:0:0:
54,96,62016,1,2,0:0:0:0:
54,96,62118,1,8,0:0:0:0:
185,202,62321,1,2,0:0:0:0:
350,137,62523,6,0,L|265:130,1,85,10|0,0:1|0:0,0:0:0:0:
83,183,62929,1,8,0:0:0:0:
198,296,63131,1,0,0:0:0:0:
169,112,63334,1,8,0:1:0:0:
170,133,63435,1,8,0:0:0:0:
172,154,63537,1,0,0:0:0:0:
116,314,63739,2,0,P|155:299|197:295,1,85,8|0,0:0|0:0,0:0:0:0:
338,182,64145,6,0,P|353:263|303:330,1,170,2|8,0:0|0:0,0:0:0:0:
233,133,64753,2,0,L|227:90,2,42.5,2|0|8,0:0|0:0|0:1,0:0:0:0:
292,13,65158,1,2,0:0:0:0:
75,113,65361,6,0,L|125:118,1,50.9999984436036,8|0,0:0|0:0,0:0:0:0:
254,237,65564,2,0,L|203:231,1,50.9999984436036,12|0,0:0|0:0,0:0:0:0:
125,298,65766,5,0,0:0:0:0:
233,133,65969,1,8,0:0:0:0:
337,342,66172,2,0,L|341:299,3,42.5,8|0|0|8,0:0|0:0|0:0|0:0,0:0:0:0:
318,178,66577,5,4,0:3:0:0:
294,212,66678,1,0,0:0:0:0:
256,231,66779,1,8,0:0:0:0:
214,231,66881,1,8,0:0:0:0:
176,211,66983,2,0,L|126:205,1,50.9999984436036,8|4,0:0|0:3,0:0:0:0:
93,107,67185,2,0,L|42:100,1,50.9999984436036,4|0,0:3|0:0,0:0:0:0:
4,333,67388,6,0,P|76:292|155:318,1,170,4|8,0:0|0:0,0:0:0:0:
248,251,67996,1,2,0:0:0:0:
256,231,68098,1,0,0:0:0:0:
258,209,68199,1,8,0:1:0:0:
303,337,68402,1,2,0:0:0:0:
152,205,68604,1,8,0:0:0:0:
340,140,68807,1,2,0:0:0:0:
206,3,69010,6,0,P|198:66|229:120,1,127.5,0|0,0:0|0:0,0:0:0:0:
336,242,69415,2,0,P|293:240|248:249,1,85,8|0,0:0|0:0,0:0:0:0:
312,43,69821,1,8,0:1:0:0:
333,44,69922,1,8,0:0:0:0:
354,45,70023,1,0,0:0:0:0:
229,231,70226,1,8,0:0:0:0:
415,134,70429,1,0,0:0:0:0:
330,348,70631,6,0,B|318:280|318:280|330:244|330:244|320:180,1,170,10|8,0:1|0:0,0:0:0:0:
419,289,71239,1,2,0:0:0:0:
187,230,71442,1,0,0:0:0:0:
208,230,71543,1,8,0:0:0:0:
229,231,71645,1,0,0:0:0:0:
336,71,71848,2,0,P|295:84|253:91,1,85,8|2,0:0|0:0,0:0:0:0:
122,322,72253,6,0,P|73:255|86:173,1,170,8|8,0:1|0:0,0:0:0:0:
129,44,72861,1,0,0:0:0:0:
129,44,72962,1,8,0:0:0:0:
129,44,73064,2,0,P|133:64|138:85,2,42.5,8|8|0,0:1|0:0|0:0,0:0:0:0:
33,88,73469,1,12,0:0:0:0:
196,176,73672,1,8,0:0:0:0:
196,176,73773,1,8,0:0:0:0:
197,175,73875,6,0,B|283:149|280:211|362:187,1,170,4|8,0:0|0:0,0:0:0:0:
328,94,74483,1,0,0:0:0:0:
233,269,74685,2,0,P|227:294|225:320,2,42.5,8|0|2,0:1|0:0|0:0,0:0:0:0:
328,94,75091,1,8,0:0:0:0:
197,175,75293,1,2,0:0:0:0:
439,253,75496,6,0,P|379:193|296:196,1,170,8|8,0:1|0:0,0:0:0:0:
108,209,76104,1,0,0:0:0:0:
101,188,76206,1,8,0:0:0:0:
100,166,76307,1,0,0:0:0:0:
203,259,76510,1,0,0:0:0:0:
257,87,76712,2,0,L|172:81,1,85,8|2,0:0|0:0,0:0:0:0:
57,294,77118,6,0,P|138:309|202:258,1,170,8|8,0:1|0:0,0:0:0:0:
172,81,77726,1,8,0:1:0:0:
170,102,77827,1,8,0:0:0:0:
168,123,77929,1,8,0:1:0:0:
249,10,78131,1,8,0:1:0:0:
71,101,78334,1,8,0:0:0:0:
231,209,78537,1,0,0:0:0:0:
231,209,78638,1,8,0:0:0:0:
231,209,78739,6,0,L|284:205,2,42.5,8|8|0,0:1|0:0|0:0,0:0:0:0:
168,123,79145,5,8,0:0:0:0:
394,209,79348,1,8,0:1:0:0:
174,291,79550,1,8,0:0:0:0:
343,50,79753,5,8,0:1:0:0:
330,67,79854,1,8,0:0:0:0:
323,87,79956,2,0,L|317:137,1,50.9999984436036,8|4,0:0|0:3,0:0:0:0:
466,335,80158,2,0,L|460:284,1,50.9999984436036,4|4,0:3|0:3,0:0:0:0:
393,209,80361,6,0,P|358:231|315:236,1,85,4|2,0:0|0:0,0:0:0:0:
423,99,80766,1,8,0:0:0:0:
153,131,80969,2,0,B|233:104|239:168|318:137,1,170,4|10,0:0|0:1,0:0:0:0:
169,328,81577,1,8,0:0:0:0:
287,350,81780,6,0,P|230:321|165:329,1,127.5,4|0,0:0|0:0,0:0:0:0:
89,196,82185,2,0,P|75:236|76:278,1,85,10|8,0:1|0:0,0:0:0:0:
272,221,82591,2,0,P|279:138|229:71,1,170,4|8,0:0|0:1,0:0:0:0:
44,152,83199,1,8,0:0:0:0:
65,172,83300,1,8,0:0:0:0:
91,185,83401,1,8,0:0:0:0:
121,190,83503,1,8,0:0:0:0:
150,185,83604,6,0,L|138:287,1,85,4|2,0:0|0:0,0:0:0:0:
120,79,84010,1,8,0:0:0:0:
258,323,84212,2,0,B|254:253|254:253|271:221|271:221|268:157,1,170,4|10,0:0|0:1,0:0:0:0:
333,36,84821,1,8,0:0:0:0:
215,56,85023,6,0,P|277:64|333:36,1,127.5,4|0,0:0|0:0,0:0:0:0:
435,78,85429,2,0,P|446:100|452:136,1,50.9999984436036,8|0,0:0|0:0,0:0:0:0:
366,292,85631,2,0,P|373:267|376:242,1,50.9999984436036,8|0,0:0|0:0,0:0:0:0:
312,157,85834,1,4,0:0:0:0:
256,192,85935,12,0,89077,0:0:0:0:
