osu file format v14

[General]
AudioFilename: audio.mp3
AudioLeadIn: 0
PreviewTime: 53199
Countdown: 0
SampleSet: Soft
StackLeniency: 0.3
Mode: 0
LetterboxInBreaks: 0
WidescreenStoryboard: 0

[Editor]
Bookmarks: 89077
DistanceSpacing: 1.3
BeatDivisor: 4
GridSize: 16
TimelineZoom: 1.9

[Metadata]
Title:Stella Breeze (TV Size)
TitleUnicode:ステラブリーズ (TV Size)
Artist:Haruna Luna
ArtistUnicode:春奈るな
Creator:Momochikun
Version:Insane
Source:冴えない彼女の育てかた♭
Tags:Saenai Heroine no Sodatekata Flat season 2 saekano How to Raise a Boring Girlfriend opening tv size A-1 Pictures Kibbleru
BeatmapID:1260061
BeatmapSetID:595827

[Difficulty]
HPDrainRate:7
CircleSize:4
OverallDifficulty:7
ApproachRate:8.2
SliderMultiplier:1.6
SliderTickRate:1

[Events]
//Background and Video events
0,0,"bg.jpg",0,0
Video,0,"saekano movie.flv"
//Break Periods
//Storyboard Layer 0 (Background)
//Storyboard Layer 1 (Fail)
//Storyboard Layer 2 (Pass)
//Storyboard Layer 3 (Foreground)
//Storyboard Sound Samples

[TimingPoints]
92,405.405405405405,4,2,1,70,1,0
1409,-100,4,2,1,50,0,0
1713,-100,4,2,1,80,0,1
1814,-100,4,2,1,75,0,0
14078,-100,4,2,1,55,0,0
14686,-125,4,2,1,60,0,0
17727,-125,4,2,1,25,0,0
17929,-125,4,2,1,60,0,0
24010,-125,4,2,1,40,0,0
24821,-125,4,2,1,60,0,0
26037,-117.647058823529,4,2,1,50,0,0
26443,-117.647058823529,4,2,1,40,0,0
27659,-100,4,2,1,70,0,0
28673,-100,4,2,1,40,0,0
28875,-100,4,2,1,70,0,0
31916,-100,4,2,1,40,0,0
32119,-100,4,2,1,70,0,0
33537,-100,4,2,1,40,0,0
33740,-100,4,2,1,70,0,0
33943,-100,4,2,1,30,0,0
34146,-100,4,2,1,70,0,0
38909,-100,4,2,1,60,0,0
40024,-100,4,2,1,45,0,0
40632,-117.647058823529,4,2,1,55,0,0
43064,-117.647058823529,4,2,1,25,0,0
43267,-117.647058823529,4,2,1,55,0,0
44483,-117.647058823529,4,2,1,25,0,0
44686,-117.647058823529,4,2,1,55,0,0
44889,-117.647058823529,4,2,1,25,0,0
45091,-117.647058823529,4,2,1,55,0,0
47119,-100,4,2,1,65,0,0
50564,-100,4,2,1,30,0,0
50970,-100,4,2,1,40,0,0
51375,-100,4,2,1,50,0,0
51781,-100,4,2,1,60,0,0
52794,405.405405405405,4,2,1,60,1,0
54010,-100,4,2,1,30,0,0
54415,-100,4,2,1,80,0,1
66172,-100,4,2,1,70,0,0
67388,-100,4,2,1,80,0,1
80057,-100,4,2,1,65,0,1
80361,-100,4,2,1,80,0,0
83199,-100,4,2,1,65,0,0
83604,-100,4,2,1,80,0,0
85935,-100,4,2,1,40,0,0
86848,-100,4,2,1,30,0,0
87658,-100,4,2,1,20,0,0
88469,-100,4,2,1,10,0,0

[Colours]
Combo1 : 255,255,174
Combo2 : 255,157,157
Combo3 : 255,177,140

[HitObjects]
448,132,1308,5,4,0:3:0:0:
440,160,1409,1,0,0:0:0:0:
433,189,1510,1,0,0:0:0:0:
426,217,1612,1,0,0:0:0:0:
419,246,1713,6,0,P|350:263|291:186,1,160,4|8,0:0|0:0,0:0:0:0:
343,100,2321,1,0,0:0:0:0:
179,174,2524,2,0,P|186:213|201:251,1,80,8|2,0:1|0:0,0:0:0:0:
343,100,2929,1,8,0:0:0:0:
179,174,3132,6,0,B|108:194|97:140|20:165,1,160,2|0,0:0|0:0,0:0:0:0:
42,325,3740,2,0,P|55:287|63:248,1,80,8|0,0:0|0:0,0:0:0:0:
34,76,4146,1,10,0:1:0:0:
52,67,4247,1,8,0:0:0:0:
70,59,4348,1,0,0:0:0:0:
180,175,4551,2,0,P|223:164|271:149,1,80,8|0,0:0|0:0,0:0:0:0:
299,122,4855,1,8,0:0:0:0:
345,99,4956,6,0,P|414:137|435:219,1,160,10|8,0:1|0:0,0:0:0:0:
391,316,5564,1,0,0:0:0:0:
253,281,5767,1,8,0:1:0:0:
351,186,5970,1,2,0:1:0:0:
391,316,6173,1,8,0:0:0:0:
208,163,6375,6,0,L|132:185,1,80,2|8,0:0|0:1,0:0:0:0:
187,53,6781,1,0,0:0:0:0:
313,76,6983,2,0,L|389:54,1,80,8|0,0:0|0:0,0:0:0:0:
197,15,7389,1,10,0:1:0:0:
192,34,7490,1,8,0:0:0:0:
187,53,7591,1,0,0:0:0:0:
347,171,7794,1,8,0:0:0:0:
138,262,7997,5,8,0:0:0:0:
138,262,8098,1,8,0:0:0:0:
138,262,8200,2,0,P|56:244|40:163,1,160,4|8,0:0|0:0,0:0:0:0:
125,75,8808,1,0,0:0:0:0:
256,112,9010,2,0,P|276:148|272:193,1,80,10|0,0:1|0:0,0:0:0:0:
274,185,9314,1,0,0:0:0:0:
274,185,9416,1,8,0:0:0:0:
187,252,9619,1,0,0:0:0:0:
322,323,9821,6,0,L|407:301,1,80,10|0,0:1|0:0,0:0:0:0:
465,144,10227,2,0,L|387:164,1,80,8|0,0:0|0:0,0:0:0:0:
187,252,10632,1,10,0:1:0:0:
187,252,10733,1,8,0:0:0:0:
187,252,10835,1,0,0:0:0:0:
299,350,11037,2,0,P|321:311|314:270,1,80,8|0,0:0|0:0,0:0:0:0:
229,107,11443,6,0,P|186:172|194:270,1,160,10|8,0:1|0:0,0:0:0:0:
120,108,12051,1,0,0:0:0:0:
299,199,12254,1,8,0:1:0:0:
299,199,12355,1,8,0:0:0:0:
299,199,12456,1,0,0:0:0:0:
208,23,12659,1,8,0:0:0:0:
373,108,12862,6,0,P|414:99|465:85,1,80,2|8,0:0|0:1,0:0:0:0:
430,192,13267,1,0,0:0:0:0:
256,304,13470,2,0,P|197:298|145:261,1,120,8|8,0:0|0:0,0:0:0:0:
128,231,13875,1,8,0:1:0:0:
175,79,14078,1,0,1:0:0:0:
207,72,14179,1,0,1:0:0:0:
239,81,14280,1,4,1:3:0:0:
268,97,14382,1,0,1:0:0:0:
299,110,14483,1,4,1:3:0:0:
331,115,14584,1,0,0:0:0:0:
364,102,14686,6,0,P|410:142|417:225,1,128,4|8,0:0|0:1,0:0:0:0:
357,268,15294,1,0,0:0:0:0:
260,358,15497,2,0,P|264:327|279:299,1,64,8|0,0:1|0:0,0:0:0:0:
230,179,15902,2,0,P|227:210|208:243,1,64,8|0,0:1|0:0,0:0:0:0:
73,99,16308,6,0,P|126:140|143:199,1,128,8|8,0:1|0:1,0:0:0:0:
212,58,16916,2,0,P|168:43|143:37,1,64,0|8,0:0|0:1,0:0:0:0:
322,18,17321,1,0,0:0:0:0:
379,90,17524,2,0,P|362:125|365:164,1,64,8|4,0:1|0:0,0:0:0:0:
312,233,17929,6,0,P|365:191|436:202,1,128,8|8,0:1|0:1,0:0:0:0:
343,332,18537,1,2,0:0:0:0:
232,309,18740,2,0,P|211:287|205:253,1,64,8|0,0:1|0:0,0:0:0:0:
221,140,19146,1,8,0:1:0:0:
291,225,19348,1,2,0:0:0:0:
102,171,19551,6,0,P|71:130|74:80,1,96,8|0,0:1|0:0,0:0:0:0:
44,50,19956,2,0,P|72:28|112:23,1,64,8|2,0:1|0:0,0:0:0:0:
118,25,20260,1,0,0:0:0:0:
135,33,20362,1,8,0:1:0:0:
243,85,20564,1,0,0:0:0:0:
188,213,20767,2,0,P|167:188|161:158,1,64,10|0,0:1|0:0,0:0:0:0:
274,5,21173,6,0,P|316:52|324:115,1,128,10|8,0:1|0:1,0:0:0:0:
411,145,21781,2,0,P|440:131|471:121,1,64,0|8,0:0|0:1,0:0:0:0:
316,216,22186,2,0,P|285:209|254:197,1,64,0|8,0:0|0:1,0:0:0:0:
400,259,22591,1,0,0:0:0:0:
412,145,22794,6,0,P|424:114|446:92,1,64,8|0,0:1|0:0,0:0:0:0:
482,216,23200,1,0,0:0:0:0:
376,366,23402,2,0,P|349:349|333:323,1,64,2|8,0:0|0:1,0:0:0:0:
395,192,23808,1,0,0:0:0:0:
512,301,24010,1,10,0:1:0:0:
482,216,24213,1,0,0:0:0:0:
332,322,24416,6,0,P|236:299|188:289,1,128,10|8,0:1|0:1,0:0:0:0:
104,156,25024,2,0,P|118:188|120:221,1,64,2|8,0:0|0:1,0:0:0:0:
39,358,25429,1,2,0:0:0:0:
39,358,25632,2,0,P|25:326|22:292,1,64,8|2,0:1|0:0,0:0:0:0:
104,156,26037,6,0,P|150:128|206:135,1,102.000001945496,8|0,0:1|0:0,0:0:0:0:
271,167,26443,2,0,P|308:157|354:145,1,68.0000012969971,4|0,0:0|0:0,0:0:0:0:
471,38,26848,1,8,0:0:0:0:
466,61,26950,1,8,0:0:0:0:
460,84,27051,2,0,L|450:119,1,34.0000006484985,8|0,0:3|0:0,0:0:0:0:
271,167,27254,1,8,0:0:0:0:
274,190,27355,1,8,0:0:0:0:
278,212,27456,2,0,L|293:261,1,34.0000006484985,4|0,0:3|0:0,0:0:0:0:
428,371,27659,6,0,P|442:334|448:295,1,80,4|0,0:0|0:0,0:0:0:0:
297,135,28064,2,0,P|283:172|278:212,1,80,8|0,0:0|0:0,0:0:0:0:
306,298,28470,1,8,0:1:0:0:
396,188,28673,1,4,0:0:0:0:
306,298,28875,2,0,P|262:298|227:280,1,80,8|0,0:0|0:0,0:0:0:0:
118,146,29281,6,8,P|179:93|256:105,1,160,8|8,0:1|0:0,0:1:0:0:
311,225,29889,1,0,0:0:0:0:
206,180,30091,1,8,0:1:0:0:
206,180,30193,1,8,0:0:0:0:
206,180,30294,1,0,0:0:0:0:
71,337,30497,1,8,0:0:0:0:
103,218,30700,1,0,0:0:0:0:
177,309,30902,6,0,B|246:290|262:349|342:322,1,160,8|8,0:1|0:0,0:0:0:0:
444,202,31510,2,0,L|359:223,1,80,0|8,0:0|0:1,0:0:0:0:
420,86,31916,2,0,L|497:66,1,80,4|8,0:0|0:0,0:0:0:0:
444,202,32321,1,0,0:0:0:0:
308,32,32524,6,0,P|252:50|212:138,1,160,8|8,0:1|0:0,0:0:0:0:
294,290,33132,1,0,0:0:0:0:
147,198,33335,1,8,0:1:0:0:
147,198,33436,1,8,0:0:0:0:
147,198,33537,1,4,0:0:0:0:
338,115,33740,1,8,0:0:0:0:
256,60,33943,1,4,0:0:0:0:
178,270,34146,6,0,P|113:270|72:177,1,160,4|8,0:0|0:0,0:0:0:0:
183,80,34754,1,0,0:0:0:0:
295,150,34956,2,0,P|281:202|275:229,1,80,8|0,0:1|0:0,0:0:0:0:
423,102,35362,1,8,0:0:0:0:
369,247,35564,1,0,0:0:0:0:
423,102,35767,6,0,P|413:63|403:24,1,80,8|0,0:1|0:0,0:0:0:0:
456,225,36173,1,8,0:0:0:0:
423,102,36375,1,0,0:0:0:0:
236,190,36578,2,0,P|277:183|314:170,1,80,8|0,0:1|0:0,0:0:0:0:
369,247,36983,1,8,0:0:0:0:
253,94,37186,1,0,0:0:0:0:
138,173,37389,6,0,P|119:208|117:259,1,80,8|0,0:1|0:0,0:0:0:0:
132,65,37794,1,8,0:0:0:0:
236,190,37997,1,0,0:0:0:0:
132,65,38200,2,0,P|86:46|45:50,1,80,8|0,0:1|0:0,0:0:0:0:
20,138,38605,1,8,0:0:0:0:
169,248,38808,5,0,0:0:0:0:
190,258,38909,1,8,0:0:0:0:
211,268,39010,2,0,P|218:299|224:328,2,40,8|8|0,0:1|0:0|0:0,0:0:0:0:
237,131,39416,2,0,P|290:90|356:100,1,120,8|8,0:0|0:0,0:0:0:0:
375,110,39821,5,8,0:1:0:0:
190,258,40024,1,8,0:0:0:0:
159,249,40125,1,8,0:0:0:0:
136,232,40226,1,8,0:0:0:0:
121,206,40328,1,8,0:0:0:0:
116,176,40429,1,8,0:3:0:0:
256,48,40632,5,4,0:0:0:0:
256,48,41037,1,0,0:0:0:0:
418,164,41240,2,0,P|349:172|284:119,1,136.000002593994,8|8,0:0|0:1,0:0:0:0:
256,48,41848,1,8,0:0:0:0:
369,89,42051,1,8,0:1:0:0:
256,240,42254,5,0,1:0:0:0:
256,240,42862,1,8,0:0:0:0:
369,89,43064,2,0,P|353:57|322:34,1,68.0000012969971,4|8,0:0|0:1,0:0:0:0:
441,162,43470,2,0,L|513:148,1,68.0000012969971,8|0,0:0|0:0,0:0:0:0:
256,240,43875,6,0,L|301:352,1,102.000001945496,0|0,1:0|0:0,0:0:0:0:
336,372,44281,2,0,P|338:333|355:304,1,68.0000012969971,0|12,0:0|0:0,0:0:0:0:
323,206,44686,1,0,0:0:0:0:
420,351,44889,1,4,0:0:0:0:
256,240,45091,1,8,0:0:0:0:
237,232,45193,1,8,0:0:0:0:
218,224,45294,1,8,0:1:0:0:
406,128,45497,5,4,0:0:0:0:
406,128,45902,1,0,0:0:0:0:
224,60,46308,1,4,0:0:0:0:
224,60,46713,1,8,0:3:0:0:
207,48,46814,1,4,0:3:0:0:
190,37,46916,1,4,0:3:0:0:
323,248,47119,5,4,0:0:0:0:
323,248,47524,1,8,0:0:0:0:
480,144,47727,1,0,0:0:0:0:
375,102,47929,1,8,0:0:0:0:
462,292,48132,5,8,0:1:0:0:
256,192,48335,1,8,0:0:0:0:
375,102,48537,1,8,0:1:0:0:
256,288,48740,6,0,P|246:331|237:369,1,80,8|0,0:0|0:0,0:0:0:0:
148,142,49146,1,8,0:0:0:0:
256,288,49348,1,8,0:1:0:0:
72,226,49551,1,8,0:0:0:0:
256,144,49754,5,8,0:1:0:0:
72,105,49956,1,8,0:0:0:0:
151,298,50159,1,8,0:1:0:0:
366,228,50362,5,4,0:0:0:0:
413,87,50564,1,0,0:0:0:0:
378,62,50666,1,0,1:0:0:0:
336,51,50767,1,8,0:0:0:0:
294,54,50868,1,0,1:0:0:0:
252,67,50970,1,0,1:0:0:0:
215,87,51071,1,0,1:0:0:0:
177,107,51172,5,8,0:0:0:0:
135,117,51274,1,0,1:0:0:0:
93,114,51375,1,8,0:0:0:0:
53,98,51476,1,0,1:0:0:0:
14,78,51578,2,8,L|25:122,1,40
118,240,51781,2,8,L|129:192,1,40
215,87,51983,6,0,L|333:59,2,120,0|0|0,1:0|1:0|1:0,0:0:0:0:
44,224,52794,1,0,1:0:0:0:
323,349,54010,6,0,L|386:333,1,40
400,228,54212,2,0,L|361:237,1,40
254,305,54415,6,0,B|198:298|145:327|145:327|112:318|98:295,1,160,4|8,0:0|0:0,0:0:0:0:
16,194,55023,2,0,P|53:185|101:170,1,80,2|8,0:0|0:1,0:0:0:0:
207,185,55428,1,2,0:0:0:0:
178,28,55631,2,0,P|160:63|154:105,1,80,8|2,0:0|0:0,0:0:0:0:
255,303,56036,6,0,P|273:268|279:226,1,80,8|0,0:1|0:0,0:0:0:0:
178,28,56442,1,8,0:0:0:0:
273,117,56645,1,0,0:0:0:0:
102,205,56847,1,8,0:1:0:0:
95,223,56948,1,8,0:0:0:0:
88,241,57050,1,0,0:0:0:0:
255,303,57252,1,8,0:0:0:0:
176,128,57455,5,0,0:0:0:0:
176,128,57556,1,8,0:0:0:0:
176,128,57658,2,0,B|192:199|192:199|212:217|212:217|233:286,1,160,2|8,0:0|0:0,0:0:0:0:
292,157,58266,2,0,L|279:78,1,80,2|8,0:0|0:1,0:0:0:0:
106,244,58672,2,0,L|118:323,1,80,2|8,0:0|0:0,0:0:0:0:
323,358,59077,6,0,P|400:318|413:245,1,160,2|0,0:0|0:0,0:0:0:0:
276,128,59685,1,8,0:0:0:0:
336,273,59887,1,0,0:0:0:0:
212,232,60090,1,8,0:1:0:0:
212,232,60192,1,8,0:0:0:0:
212,232,60293,1,0,0:0:0:0:
363,91,60496,1,8,0:0:0:0:
492,261,60698,5,8,0:0:0:0:
492,261,60800,1,8,0:0:0:0:
492,261,60901,2,0,B|414:241|411:295|336:273,1,160,4|8,0:0|0:0,0:0:0:0:
177,132,61509,1,2,0:0:0:0:
153,238,61712,2,0,P|191:232|232:220,1,80,8|0,0:1|0:0,0:0:0:0:
231,221,62016,1,2,0:0:0:0:
231,221,62117,1,8,0:0:0:0:
406,150,62320,1,2,0:0:0:0:
342,344,62523,6,0,P|329:305|324:266,1,80,8|0,0:1|0:0,0:0:0:0:
203,147,62928,2,0,P|217:110|238:74,1,80,8|2,0:0|0:0,0:0:0:0:
373,122,63333,1,8,0:1:0:0:
390,111,63435,1,8,0:0:0:0:
407,100,63536,1,0,0:0:0:0:
265,238,63739,1,8,0:0:0:0:
410,304,63942,1,0,0:0:0:0:
203,147,64144,6,0,P|131:116|50:125,1,160,2|8,0:0|0:0,0:0:0:0:
22,296,64753,2,0,L|4:211,1,80,2|8,0:0|0:1,0:0:0:0:
169,319,65158,1,2,0:0:0:0:
52,125,65360,1,8,0:0:0:0:
282,246,65563,6,0,B|341:236|394:263|394:263|418:250|432:233,1,160,4|8,0:0|0:0,0:0:0:0:
477,58,66172,2,0,P|452:92|447:133,1,80,8|0,0:0|0:0,0:0:0:0:
446,128,66476,1,8,0:0:0:0:
446,128,66577,1,4,0:3:0:0:
350,297,66780,5,8,0:0:0:0:
312,303,66881,1,8,0:0:0:0:
274,293,66982,1,8,0:0:0:0:
239,274,67084,1,8,0:3:0:0:
202,255,67185,1,4,0:3:0:0:
163,253,67286,1,4,0:3:0:0:
125,263,67388,6,0,P|74:199|85:118,1,160,4|8,0:0|0:0,0:0:0:0:
214,21,67996,2,0,P|234:64|242:107,1,80,2|8,0:0|0:1,0:0:0:0:
125,263,68402,1,2,0:0:0:0:
240,95,68604,1,8,0:0:0:0:
395,245,68807,6,0,P|312:228|238:203,1,160,2|0,0:0|0:0,0:0:0:0:
86,84,69415,2,0,P|135:71|179:61,1,80,8|0,0:0|0:0,0:0:0:0:
284,94,69821,1,8,0:1:0:0:
284,94,69922,1,8,0:0:0:0:
284,94,70023,1,0,0:0:0:0:
182,273,70226,2,0,P|160:239|162:192,1,80,8|0,0:0|0:0,0:0:0:0:
168,182,70530,1,8,0:0:0:0:
180,166,70631,6,0,P|237:121|320:134,1,160,10|8,0:1|0:0,0:0:0:0:
432,279,71239,1,2,0:0:0:0:
295,223,71442,1,0,0:0:0:0:
295,223,71543,1,8,0:0:0:0:
295,223,71645,1,0,0:0:0:0:
421,104,71848,1,8,0:0:0:0:
432,279,72050,6,0,L|418:368,1,80,2|8,0:0|0:1,0:0:0:0:
210,233,72456,2,0,L|222:153,1,80,2|8,0:0|0:0,0:0:0:0:
87,48,72861,1,0,0:0:0:0:
91,77,72962,1,8,0:0:0:0:
96,107,73063,1,8,0:1:0:0:
100,136,73165,1,8,0:0:0:0:
105,166,73266,1,0,0:0:0:0:
331,97,73469,1,12,0:0:0:0:
387,212,73672,5,8,0:0:0:0:
387,212,73773,1,8,0:0:0:0:
387,212,73875,2,0,P|429:202|467:195,1,80,4|0,0:0|0:0,0:0:0:0:
317,70,74280,2,0,P|275:80|237:87,1,80,8|0,0:0|0:0,0:0:0:0:
83,61,74685,1,8,0:1:0:0:
236,193,74888,1,2,0:0:0:0:
174,28,75091,1,8,0:0:0:0:
31,150,75293,1,2,0:0:0:0:
200,287,75496,6,0,P|255:340|332:330,1,160,8|8,0:1|0:0,0:0:0:0:
447,267,76104,1,2,0:0:0:0:
363,111,76307,1,8,0:1:0:0:
363,111,76408,1,8,0:0:0:0:
363,111,76510,1,0,0:0:0:0:
468,157,76712,1,8,0:0:0:0:
306,291,76915,1,2,0:0:0:0:
417,353,77118,6,0,P|456:363|493:375,1,80,8|0,0:1|0:0,0:0:0:0:
363,237,77523,2,0,P|320:247|276:255,1,80,8|8,0:0|0:1,0:0:0:0:
285,254,77827,1,8,0:0:0:0:
285,254,77929,1,8,0:1:0:0:
122,214,78131,1,8,0:1:0:0:
176,343,78334,1,8,0:0:0:0:
256,176,78537,5,0,0:0:0:0:
256,176,78638,1,8,0:0:0:0:
256,176,78739,2,0,P|277:167|301:162,2,40,10|8|0,0:1|0:0|0:0,0:0:0:0:
75,139,79145,1,8,0:0:0:0:
196,275,79348,1,8,0:1:0:0:
139,79,79550,2,0,P|105:59|66:55,1,80,8|4,0:0|0:3,0:0:0:0:
43,62,79854,1,8,0:0:0:0:
22,73,79956,2,0,L|39:136,1,40,8|8,0:0|0:3,0:0:0:0:
54,208,80158,2,0,L|71:271,1,40,4|4,0:3|0:3,0:0:0:0:
136,316,80361,6,0,P|193:302|226:293,1,80,4|2,0:0|0:0,0:0:0:0:
396,305,80766,1,8,0:0:0:0:
337,102,80969,2,0,P|264:147|257:225,1,160,4|10,0:0|0:1,0:0:0:0:
336,357,81577,1,8,0:0:0:0:
121,158,81780,6,0,P|142:234|163:312,1,160,4|10,0:0|0:1,0:0:0:0:
336,357,82388,1,8,0:0:0:0:
381,153,82591,2,0,B|318:142|267:177|267:177|250:226,1,160,4|8,0:0|0:1,0:0:0:0:
383,292,83199,1,8,0:0:0:0:
412,285,83300,1,8,0:0:0:0:
441,280,83401,1,8,0:0:0:0:
471,274,83503,1,8,0:0:0:0:
500,268,83604,5,4,0:0:0:0:
467,119,83807,1,2,0:0:0:0:
500,268,84010,1,8,0:0:0:0:
272,352,84212,2,0,B|242:359|242:359|221:350|221:350|161:364|113:314,1,160,4|10,0:0|0:1,0:0:0:0:
53,210,84821,1,8,0:0:0:0:
256,144,85023,6,0,P|299:155|366:163,1,80,4|0,0:0|0:0,0:0:0:0:
256,48,85429,1,8,0:0:0:0:
137,231,85631,1,8,0:0:0:0:
388,358,85834,1,4,0:0:0:0:
256,192,85935,12,0,89077,0:0:0:0:
