osu file format v14

[General]
AudioFilename: audio.mp3
AudioLeadIn: 0
PreviewTime: 53199
Countdown: 0
SampleSet: Soft
StackLeniency: 0.3
Mode: 0
LetterboxInBreaks: 0
WidescreenStoryboard: 0

[Editor]
Bookmarks: 89077
DistanceSpacing: 1.2
BeatDivisor: 4
GridSize: 16
TimelineZoom: 1.9

[Metadata]
Title:Stella Breeze (TV Size)
TitleUnicode:ステラブリーズ (TV Size)
Artist:Haruna Luna
ArtistUnicode:春奈るな
Creator:Momochikun
Version:Hard
Source:冴えない彼女の育てかた♭
Tags:Saenai Heroine no Sodatekata Flat season 2 saekano How to Raise a Boring Girlfriend opening tv size A-1 Pictures Kibbleru
BeatmapID:1284710
BeatmapSetID:595827

[Difficulty]
HPDrainRate:5.4
CircleSize:4
OverallDifficulty:6
ApproachRate:7
SliderMultiplier:1.4
SliderTickRate:1

[Events]
//Background and Video events
0,0,"bg.jpg",0,0
Video,0,"saekano movie.flv"
//Break Periods
//Storyboard Layer 0 (Background)
//Storyboard Layer 1 (Fail)
//Storyboard Layer 2 (Pass)
//Storyboard Layer 3 (Foreground)
//Storyboard Sound Samples

[TimingPoints]
92,405.405405405405,4,2,1,70,1,0
1409,-100,4,2,1,50,0,0
1713,-100,4,2,1,80,0,1
1814,-100,4,2,1,75,0,0
14078,-100,4,2,1,55,0,0
14686,-111.111111111111,4,2,1,60,0,0
17727,-111.111111111111,4,2,1,25,0,0
17929,-111.111111111111,4,2,1,60,0,0
24010,-111.111111111111,4,2,1,40,0,0
24821,-111.111111111111,4,2,1,60,0,0
26037,-105.263157894737,4,2,1,50,0,0
26443,-105.263157894737,4,2,1,40,0,0
27659,-100,4,2,1,70,0,0
28673,-100,4,2,1,40,0,0
28875,-100,4,2,1,70,0,0
31916,-100,4,2,1,40,0,0
32119,-100,4,2,1,70,0,0
33537,-100,4,2,1,40,0,0
33740,-100,4,2,1,70,0,0
33943,-100,4,2,1,30,0,0
34146,-100,4,2,1,70,0,0
38909,-100,4,2,1,60,0,0
40024,-100,4,2,1,45,0,0
40632,-111.111111111111,4,2,1,55,0,0
43064,-111.111111111111,4,2,1,25,0,0
43267,-111.111111111111,4,2,1,55,0,0
44483,-111.111111111111,4,2,1,25,0,0
44686,-111.111111111111,4,2,1,55,0,0
44889,-111.111111111111,4,2,1,25,0,0
45091,-111.111111111111,4,2,1,55,0,0
47119,-100,4,2,1,65,0,0
50564,-100,4,2,1,30,0,0
50970,-100,4,2,1,40,0,0
51375,-100,4,2,1,50,0,0
51781,-100,4,2,1,60,0,0
52794,405.405405405405,4,2,1,60,1,0
54010,-100,4,2,1,40,0,0
54415,-100,4,2,1,80,0,1
66172,-100,4,2,1,70,0,0
67388,-100,4,2,1,80,0,1
80057,-100,4,2,1,65,0,1
80361,-100,4,2,1,80,0,0
83199,-100,4,2,1,65,0,0
83604,-100,4,2,1,80,0,0
85935,-100,4,2,1,40,0,0
86848,-100,4,2,1,30,0,0
87658,-100,4,2,1,20,0,0
88469,-100,4,2,1,10,0,0

[Colours]
Combo1 : 255,255,174
Combo2 : 255,157,157
Combo3 : 255,177,140

[HitObjects]
475,171,1308,6,0,L|458:239,1,70,4|0,0:3|0:0,0:0:0:0:
392,330,1713,2,0,B|335:355|315:302|246:333,1,140,4|8,0:0|0:0,0:0:0:0:
175,356,2321,1,0,0:0:0:0:
116,296,2524,2,0,P|127:257|148:237,1,70,8|2,0:1|0:0,0:0:0:0:
219,192,2929,1,8,0:0:0:0:
302,180,3132,6,0,P|242:170|192:100,1,140,2|0,0:0|0:0,0:0:0:0:
258,56,3740,2,0,L|348:36,1,70,8|0,0:0|0:0,0:0:0:0:
411,91,4146,1,10,0:1:0:0:
411,91,4247,1,8,0:0:0:0:
411,91,4348,2,0,L|501:71,1,70,0|8,0:0|0:0,0:0:0:0:
497,164,4754,1,0,0:0:0:0:
371,192,4956,6,0,P|319:245|312:311,1,140,10|8,0:1|0:0,0:0:0:0:
236,346,5564,1,0,0:0:0:0:
175,287,5767,2,0,P|134:302|107:317,1,70,8|2,0:1|0:1,0:0:0:0:
27,303,6173,1,8,0:0:0:0:
81,201,6375,6,0,B|104:159|104:159|86:55,1,140,2|0,0:0|0:0,0:0:0:0:
159,23,6983,2,0,P|202:40|237:40,1,70,8|0,0:0|0:0,0:0:0:0:
304,70,7389,2,0,L|358:54,2,35,10|8|0,0:1|0:0|0:0,0:0:0:0:
257,140,7794,2,0,P|260:174|275:206,1,70,8|0,0:0|0:0,0:0:0:0:
353,284,8200,6,0,P|410:314|497:301,1,140,4|8,0:0|0:0,0:0:0:0:
512,230,8808,1,0,0:0:0:0:
476,154,9010,2,0,L|452:32,2,105,10|0|0,0:1|0:0|0:0,0:0:0:0:
374,186,9821,6,0,B|317:210|283:166|212:197,1,140,10|8,0:1|0:0,0:0:0:0:
164,144,10429,1,0,0:0:0:0:
89,105,10632,2,0,L|37:118,2,35,10|8|0,0:1|0:0|0:0,0:0:0:0:
164,49,11037,2,0,P|201:54|239:79,1,70,8|0,0:0|0:0,0:0:0:0:
325,24,11443,6,0,L|296:164,1,140,10|8,0:1|0:0,0:0:0:0:
280,243,12051,1,0,0:0:0:0:
349,289,12254,2,0,P|384:277|423:270,2,70,8|0|8,0:1|0:0|0:0,0:0:0:0:
285,344,12862,6,0,P|250:356|211:363,1,70,2|8,0:0|0:1,0:0:0:0:
144,320,13267,1,0,0:0:0:0:
69,280,13470,2,0,B|57:240|74:204|74:204|78:171|50:124,1,140,8|8,0:0|0:1,0:0:0:0:
120,71,14078,1,0,1:0:0:0:
120,71,14179,1,0,1:0:0:0:
120,71,14281,2,0,L|163:82,3,35,4|0|4|0,1:3|1:0|1:3|0:0,0:0:0:0:
189,99,14686,6,0,P|239:66|316:71,1,125.999996154785,4|8,0:0|0:1,0:0:0:0:
373,119,15294,1,0,0:0:0:0:
373,119,15497,2,0,P|355:151|355:191,1,62.9999980773926,8|0,0:1|0:0,0:0:0:0:
278,263,15902,2,0,P|273:231|257:205,1,62.9999980773926,8|0,0:1|0:0,0:0:0:0:
171,182,16308,2,0,P|122:210|99:285,1,125.999996154785,8|8,0:1|0:1,0:0:0:0:
76,358,16916,2,0,L|208:328,1,125.999996154785,0|0,0:0|0:0,0:0:0:0:
274,284,17524,2,0,L|337:293,1,62.9999980773926,8|4,0:1|0:0,0:0:0:0:
417,327,17929,6,0,P|374:281|375:209,1,125.999996154785,8|8,0:1|0:1,0:0:0:0:
412,142,18537,1,2,0:0:0:0:
412,142,18740,2,0,L|396:74,2,62.9999980773926,8|0|8,0:1|0:0|0:1,0:0:0:0:
324,127,19348,1,2,0:0:0:0:
255,182,19551,2,0,P|200:211|124:205,1,125.999996154785,8|8,0:1|0:1,0:0:0:0:
68,154,20159,2,0,P|97:209|91:285,1,125.999996154785,2|0,0:0|0:0,0:0:0:0:
135,350,20767,2,0,P|177:335|212:331,1,62.9999980773926,10|0,0:1|0:0,0:0:0:0:
277,300,21173,6,0,B|316:286|316:286|402:306,1,125.999996154785,10|8,0:1|0:1,0:0:0:0:
465,247,21781,2,0,L|449:166,1,62.9999980773926,0|8,0:0|0:1,0:0:0:0:
367,161,22186,2,0,L|351:80,1,62.9999980773926,0|8,0:0|0:1,0:0:0:0:
293,35,22591,1,0,0:0:0:0:
210,66,22794,2,0,P|164:54|130:49,2,62.9999980773926,8|0|0,0:1|0:0|0:0,0:0:0:0:
246,146,23402,2,0,P|257:204|298:257,1,125.999996154785,2|0,0:0|0:0,0:0:0:0:
384,244,24010,1,10,0:1:0:0:
445,306,24213,1,0,0:0:0:0:
361,337,24416,6,0,B|310:361|288:318|226:343,1,125.999996154785,10|8,0:1|0:1,0:0:0:0:
153,365,25024,2,0,P|110:335|113:248,1,125.999996154785,2|2,0:0|0:0,0:0:0:0:
104,176,25632,2,0,L|171:196,1,62.9999980773926,8|2,0:1|0:0,0:0:0:0:
243,159,26037,2,0,P|257:122|255:91,1,66.4999982242585,8|0,0:1|0:0,0:0:0:0:
305,218,26443,2,0,P|305:251|318:281,1,66.4999982242585,4|0,0:0|0:0,0:0:0:0:
447,375,26848,2,0,L|399:364,3,33.2499991121292,8|8|8|0,0:0|0:0|0:3|0:0,0:0:0:0:
370,352,27254,2,0,L|337:359,3,33.2499991121292,8|8|4|0,0:0|0:0|0:3|0:0,0:0:0:0:
289,367,27659,6,0,B|242:359|200:383|200:383|167:373|148:341,1,140,4|8,0:0|0:0,0:0:0:0:
96,302,28267,1,0,0:0:0:0:
54,229,28470,2,0,P|69:194|105:171,1,70,8|4,0:1|0:0,0:0:0:0:
176,159,28875,2,0,P|211:174|234:210,1,70,8|0,0:0|0:0,0:0:0:0:
266,274,29281,6,0,P|322:314|399:311,1,140,8|8,0:1|0:0,0:0:0:0:
454,257,29889,1,0,0:0:0:0:
475,176,30091,2,0,L|462:128,2,35,8|8|0,0:1|0:0|0:0,0:0:0:0:
370,150,30497,2,0,L|384:66,1,70,8|0,0:0|0:0,0:0:0:0:
301,53,30902,6,0,B|269:44|269:44|219:73|143:55,1,140,8|8,0:1|0:0,0:0:0:0:
83,27,31510,2,0,P|26:74|20:140,1,140,0|4,0:0|0:0,0:0:0:0:
37,219,32119,2,0,L|57:295,1,70,8|0,0:0|0:0,0:0:0:0:
151,342,32524,6,0,B|213:332|220:378|288:362,1,140,8|8,0:1|0:0,0:0:0:0:
364,315,33132,1,0,0:0:0:0:
301,258,33335,2,0,L|260:245,2,35,8|8|4,0:1|0:0|0:0,0:0:0:0:
396,224,33740,2,0,P|396:188|369:152,1,70,8|4,0:0|0:0,0:0:0:0:
304,120,34146,6,0,P|365:154|460:148,1,140,4|8,0:0|0:0,0:0:0:0:
390,64,34754,2,0,P|329:30|234:36,1,140,0|0,0:0|0:0,0:0:0:0:
199,86,35362,2,0,P|164:75|110:67,1,70,8|0,0:0|0:0,0:0:0:0:
46,133,35767,6,0,P|52:167|63:200,1,70,8|0,0:1|0:0,0:0:0:0:
126,257,36173,1,8,0:0:0:0:
126,257,36375,1,0,0:0:0:0:
200,218,36578,2,0,P|267:196|343:198,1,140,8|8,0:1|0:0,0:0:0:0:
405,244,37186,1,0,0:0:0:0:
337,346,37389,6,0,L|308:271,1,70,8|0,0:1|0:0,0:0:0:0:
335,196,37794,1,8,0:0:0:0:
302,119,37997,1,0,0:0:0:0:
236,66,38200,2,0,L|170:91,1,70,8|0,0:1|0:0,0:0:0:0:
88,75,38605,1,8,0:0:0:0:
23,169,38808,5,0,0:0:0:0:
23,169,38909,1,8,0:0:0:0:
23,169,39010,2,0,L|38:217,2,35,8|8|0,0:1|0:0|0:0,0:0:0:0:
106,248,39416,2,0,B|158:260|158:260|192:246|192:246|255:260,1,140,8|8,0:0|0:1,0:0:0:0:
328,316,40024,2,0,L|369:306,4,35,8|8|8|8|8,0:0|0:0|0:0|0:0|0:3,0:0:0:0:
316,206,40632,6,0,P|358:173|433:176,1,125.999996154785,4|0,0:0|0:0,0:0:0:0:
512,248,41240,2,0,P|460:233|427:161,1,125.999996154785,8|8,0:0|0:1,0:0:0:0:
327,68,41848,2,0,P|342:95|351:125,1,62.9999980773926,8|8,0:0|0:1,0:0:0:0:
288,191,42254,1,0,1:0:0:0:
288,191,42862,1,8,0:0:0:0:
201,155,43064,2,0,L|137:140,1,62.9999980773926,4|8,0:0|0:1,0:0:0:0:
36,206,43470,2,0,L|97:220,1,62.9999980773926,8|0,0:0|0:0,0:0:0:0:
175,309,43875,6,0,P|222:285|290:285,2,94.499997116089,0|0|12,1:0|0:0|0:0,0:0:0:0:
81,281,44686,2,0,L|98:214,1,62.9999980773926,0|4,0:0|0:0,0:0:0:0:
48,142,45091,1,8,0:0:0:0:
48,142,45193,1,8,0:0:0:0:
48,142,45294,1,8,0:1:0:0:
108,49,45497,2,0,P|166:70|235:68,1,125.999996154785,4|0,0:0|0:0,0:0:0:0:
405,34,46308,2,0,P|395:77|388:117,1,62.9999980773926,4|0,0:0|0:0,0:0:0:0:
433,196,46713,2,0,L|446:235,3,31.4999990386963,8|4|4|0,0:3|0:3|0:3|0:0,0:0:0:0:
427,266,47119,6,0,P|361:255|300:315,1,140,4|8,0:0|0:0,0:0:0:0:
233,350,47727,1,0,0:0:0:0:
149,276,47929,2,0,L|127:198,1,70,8|8,0:0|0:1,0:0:0:0:
243,115,48335,2,0,L|223:182,1,70,8|8,0:0|0:1,0:0:0:0:
165,68,48740,6,0,P|212:21|285:34,1,140,8|8,0:0|0:0,0:0:0:0:
357,76,49348,1,8,0:1:0:0:
391,180,49551,2,0,P|348:174|319:139,1,70,8|8,0:0|0:1,0:0:0:0:
223,182,49956,2,0,P|229:139|264:110,1,70,8|8,0:0|0:1,0:0:0:0:
273,257,50362,6,0,P|205:269|148:227,1,140,4|8,0:0|0:0,0:0:0:0:
96,158,50970,1,0,1:0:0:0:
172,77,51173,2,0,L|211:56,3,35,8|0|8|0,0:0|1:0|0:0|0:0,0:0:0:0:
243,69,51578,2,0,L|282:48,3,35,8|8|8|8,0:0|0:0|0:0|0:0,0:0:0:0:
312,35,51983,6,0,L|431:53,2,105,0|0|0,1:0|1:0|1:0,0:0:0:0:
213,140,52794,1,0,1:0:0:0:
213,140,54415,6,0,B|228:206|228:206|243:220|243:220|258:268,1,140,4|8,0:0|0:0,0:0:0:0:
360,287,55023,2,0,L|336:202,1,70,2|8,0:0|0:1,0:0:0:0:
456,119,55429,2,0,L|436:186,1,70,2|8,0:0|0:0,0:0:0:0:
360,287,55834,6,0,P|292:267|211:251,1,140,2|0,0:0|0:0,0:0:0:0:
142,273,56442,2,0,P|115:311|109:335,1,70,8|0,0:0|0:0,0:0:0:0:
61,224,56848,2,0,P|40:188|40:138,1,70,8|0,0:1|0:0,0:0:0:0:
76,52,57253,1,8,0:0:0:0:
76,52,57658,6,0,L|220:80,1,140,2|8,0:0|0:0,0:0:0:0:
298,97,58266,1,2,0:0:0:0:
352,160,58469,2,0,P|337:214|318:251,2,70,8|2|8,0:1|0:0|0:0,0:0:0:0:
438,103,59077,6,0,P|489:140|506:226,1,140,2|0,0:0|0:0,0:0:0:0:
442,276,59685,2,0,P|403:291|374:327,1,70,8|0,0:0|0:0,0:0:0:0:
290,355,60091,2,0,L|243:375,2,35,8|8|0,0:1|0:0|0:0,0:0:0:0:
264,273,60496,1,8,0:0:0:0:
369,192,60699,5,8,0:0:0:0:
369,192,60800,1,8,0:0:0:0:
369,192,60902,2,0,B|384:146|384:146|366:100|290:100,1,140,4|8,0:0|0:0,0:0:0:0:
231,129,61510,1,2,0:0:0:0:
175,65,61712,2,0,P|112:35|75:37,2,105,8|2|2,0:1|0:0|0:0,0:0:0:0:
231,129,62523,6,0,L|203:204,1,70,8|0,0:1|0:0,0:0:0:0:
211,288,62929,2,0,L|276:263,1,70,8|2,0:0|0:0,0:0:0:0:
350,171,63334,2,0,P|293:124|209:142,1,140,8|8,0:1|0:0,0:0:0:0:
103,321,64145,6,0,P|166:287|180:219,1,140,2|8,0:0|0:0,0:0:0:0:
48,124,64753,2,0,P|65:216|117:246,1,140,2|2,0:0|0:0,0:0:0:0:
201,148,65361,1,8,0:0:0:0:
127,72,65564,6,0,P|87:42|-12:50,1,140,4|8,0:0|0:0,0:0:0:0:
64,192,66172,2,0,L|47:120,1,70,8|0,0:0|0:0,0:0:0:0:
47,123,66476,1,8,0:0:0:0:
47,123,66577,1,4,0:3:0:0:
186,155,66780,1,8,0:0:0:0:
213,160,66881,1,8,0:0:0:0:
240,166,66983,2,0,L|281:154,3,35,8|8|4|0,0:0|0:3|0:3|0:0,0:0:0:0:
303,148,67388,6,0,B|288:211|312:255|312:255|307:287,1,140,4|8,0:0|0:0,0:0:0:0:
237,331,67996,2,0,P|200:348|170:351,1,70,2|8,0:0|0:1,0:0:0:0:
327,373,68402,2,0,P|364:356|394:353,1,70,2|8,0:0|0:0,0:0:0:0:
462,305,68807,1,2,0:0:0:0:
413,189,69010,6,0,L|388:260,1,70
443,102,69415,2,0,P|366:105|326:171,1,140,8|8,0:0|0:1,0:0:0:0:
276,216,70023,1,0,0:0:0:0:
198,177,70226,2,0,P|163:203|149:234,1,70,8|0,0:0|0:0,0:0:0:0:
162,309,70631,6,0,L|117:169,1,140,10|8,0:1|0:0,0:0:0:0:
43,139,71239,1,2,0:0:0:0:
130,61,71442,2,0,L|119:23,2,35,0|8|0,0:0|0:0|0:0,0:0:0:0:
200,107,71848,1,8,0:0:0:0:
301,60,72050,6,0,P|355:45|379:42,1,70,2|8,0:0|0:1,0:0:0:0:
480,135,72456,2,0,P|445:128|412:118,1,70,2|8,0:0|0:0,0:0:0:0:
278,172,72861,2,0,P|312:178|345:188,1,70,2|8,0:0|0:1,0:0:0:0:
414,236,73266,1,2,0:0:0:0:
463,303,73469,1,12,0:0:0:0:
336,362,73672,5,8,0:0:0:0:
336,362,73773,1,8,0:0:0:0:
336,362,73875,2,0,B|296:355|296:355|249:387|178:358,1,140,4|8,0:0|0:0,0:0:0:0:
128,324,74483,1,0,0:0:0:0:
66,267,74685,2,0,P|51:231|45:186,1,70,8|2,0:1|0:0,0:0:0:0:
137,95,75091,2,0,P|152:131|158:176,1,70,8|2,0:0|0:0,0:0:0:0:
245,221,75496,6,0,P|287:230|358:166,2,140,8|8|8,0:1|0:0|0:1,0:0:0:0:
278,143,76510,1,0,0:0:0:0:
337,245,76712,2,0,L|318:334,1,70,8|2,0:0|0:0,0:0:0:0:
451,211,77118,6,0,L|436:142,1,70,8|0,0:1|0:0,0:0:0:0:
467,58,77523,1,8,0:0:0:0:
340,91,77726,2,0,P|273:68|189:62,1,140,10|8,0:1|0:1,0:0:0:0:
128,98,78334,1,8,0:0:0:0:
193,206,78537,5,0,0:0:0:0:
193,206,78638,1,8,0:0:0:0:
193,206,78739,2,0,P|214:171|219:126,1,70,10|0,0:1|0:0,0:0:0:0:
102,236,79145,2,0,P|109:269|128:299,1,70,8|8,0:0|0:1,0:0:0:0:
301,376,79550,2,0,P|234:342|184:350,1,105,8|8,0:0|0:0,0:0:0:0:
172,370,79956,2,0,L|136:383,2,35,8|4|8,0:0|0:3|0:3,0:0:0:0:
256,240,80361,6,0,P|298:228|328:218,1,70,4|2,0:0|0:0,0:0:0:0:
406,233,80766,1,8,0:0:0:0:
298,131,80969,2,0,P|232:107|156:100,1,140,4|10,0:0|0:1,0:0:0:0:
87,137,81577,1,8,0:0:0:0:
114,277,81780,6,0,P|176:254|198:179,1,140,4|10,0:0|0:1,0:0:0:0:
87,137,82388,1,8,0:0:0:0:
187,46,82591,2,0,B|243:30|265:73|325:55,1,140,4|8,0:0|0:1,0:0:0:0:
421,121,83199,2,0,L|410:168,3,35,8|8|8|8,0:0|0:0|0:0|0:0,0:0:0:0:
404,195,83604,6,0,P|414:242|427:275,1,70,4|2,0:0|0:0,0:0:0:0:
489,312,84010,1,8,0:0:0:0:
327,242,84212,2,0,P|262:261|198:293,1,140,4|10,0:0|0:1,0:0:0:0:
117,267,84821,1,8,0:0:0:0:
201,182,85023,6,0,P|133:162|71:130,1,140,4|8,0:0|0:0,0:0:0:0:
105,30,85631,1,8,0:0:0:0:
209,59,85834,1,4,0:0:0:0:
256,192,85935,12,0,89077,0:0:0:0:
