osu file format v14

[General]
AudioFilename: audio.mp3
AudioLeadIn: 0
PreviewTime: 53199
Countdown: 0
SampleSet: Soft
StackLeniency: 0.3
Mode: 0
LetterboxInBreaks: 0
WidescreenStoryboard: 0

[Editor]
Bookmarks: 89077
DistanceSpacing: 1
BeatDivisor: 2
GridSize: 16
TimelineZoom: 1.2

[Metadata]
Title:Stella Breeze (TV Size)
TitleUnicode:ステラブリーズ (TV Size)
Artist:Haruna Luna
ArtistUnicode:春奈るな
Creator:Momochikun
Version:Easy
Source:冴えない彼女の育てかた♭
Tags:Saenai Heroine no Sodatekata Flat season 2 saekano How to Raise a Boring Girlfriend opening tv size A-1 Pictures Kibbleru
BeatmapID:1268894
BeatmapSetID:595827

[Difficulty]
HPDrainRate:2
CircleSize:3
OverallDifficulty:2
ApproachRate:3
SliderMultiplier:0.9
SliderTickRate:1

[Events]
//Background and Video events
0,0,"bg.jpg",0,0
Video,0,"saekano movie.flv"
//Break Periods
//Storyboard Layer 0 (Background)
//Storyboard Layer 1 (Fail)
//Storyboard Layer 2 (Pass)
//Storyboard Layer 3 (Foreground)
//Storyboard Sound Samples

[TimingPoints]
92,405.405405405405,4,2,1,70,1,0
1409,-100,4,2,1,50,0,0
1713,-100,4,2,1,80,0,1
1814,-100,4,2,1,75,0,0
14078,-100,4,2,1,55,0,0
14686,-100,4,2,1,60,0,0
17727,-100,4,2,1,25,0,0
17929,-100,4,2,1,60,0,0
24010,-100,4,2,1,40,0,0
24821,-100,4,2,1,60,0,0
26037,-100,4,2,1,50,0,0
26443,-100,4,2,1,40,0,0
27659,-100,4,2,1,70,0,0
28673,-100,4,2,1,40,0,0
28875,-100,4,2,1,70,0,0
31916,-100,4,2,1,40,0,0
32119,-100,4,2,1,70,0,0
33537,-100,4,2,1,40,0,0
33740,-100,4,2,1,70,0,0
33943,-100,4,2,1,30,0,0
34146,-100,4,2,1,70,0,0
38909,-100,4,2,1,60,0,0
40024,-100,4,2,1,45,0,0
40632,-100,4,2,1,55,0,0
43064,-100,4,2,1,25,0,0
43267,-100,4,2,1,55,0,0
44483,-100,4,2,1,25,0,0
44686,-100,4,2,1,55,0,0
44889,-100,4,2,1,25,0,0
45091,-100,4,2,1,55,0,0
47119,-100,4,2,1,65,0,0
50564,-100,4,2,1,30,0,0
50970,-100,4,2,1,40,0,0
51375,-100,4,2,1,50,0,0
51781,-100,4,2,1,60,0,0
52794,405.405405405405,4,2,1,60,1,0
54010,-100,4,2,1,30,0,0
54415,-100,4,2,1,80,0,1
66172,-100,4,2,1,70,0,0
67388,-100,4,2,1,80,0,1
80057,-100,4,2,1,65,0,1
80361,-100,4,2,1,80,0,0
83199,-100,4,2,1,65,0,0
83604,-100,4,2,1,80,0,0
85935,-100,4,2,1,40,0,0
86848,-100,4,2,1,30,0,0
87658,-100,4,2,1,20,0,0
88469,-100,4,2,1,10,0,0

[Colours]
Combo1 : 255,255,174
Combo2 : 255,157,157
Combo3 : 255,177,140

[HitObjects]
439,145,1308,5,4,0:3:0:0:
380,213,1713,2,0,P|329:219|292:194,1,90,4|8,0:0|0:0,0:0:0:0:
256,119,2524,2,0,L|111:86,2,135,8|2|8,0:1|0:0|0:0,0:0:0:0:
326,63,4146,2,0,P|365:42|408:50,1,90,10|8,0:1|0:0,0:0:0:0:
455,126,4956,6,0,L|436:216,1,90,10|8,0:1|0:0,0:0:0:0:
349,237,5767,2,0,L|376:371,2,135,8|2|8,0:1|0:0|0:0,0:0:0:0:
271,191,7389,2,0,P|224:175|177:189,1,90,10|8,0:1|0:0,0:0:0:0:
115,240,8200,6,0,P|42:223|44:124,1,180,4|10,0:0|0:1,0:0:0:0:
107,73,9416,1,8,0:0:0:0:
193,49,9821,2,0,B|274:28|268:88|380:66,1,180,10|10,0:1|0:1,0:0:0:0:
450,105,11037,1,8,0:0:0:0:
407,184,11443,6,0,P|383:243|385:275,1,90,10|8,0:1|0:0,0:0:0:0:
314,326,12254,2,0,L|172:288,2,135,8|2|8,0:1|0:0|0:0,0:0:0:0:
393,368,13875,2,0,P|417:309|415:277,1,90,8|4,0:1|1:3,0:0:0:0:
359,213,14686,6,0,B|313:98|313:98|339:46,1,180,4|8,0:0|0:1,0:0:0:0:
253,15,15902,1,8,0:1:0:0:
212,95,16308,2,0,P|125:136|33:121,1,180,8|8,0:1|0:1,0:0:0:0:
13,210,17524,1,8,0:1:0:0:
67,281,17929,6,0,P|154:240|246:255,1,180,8|8,0:1|0:1,0:0:0:0:
310,299,19146,1,8,0:1:0:0:
396,275,19551,2,0,P|444:235|443:154,2,135,8|2|10,0:1|0:0|0:1,0:0:0:0:
310,299,21173,6,0,L|263:379,1,90,10|8,0:1|0:1,0:0:0:0:
192,322,21983,2,0,L|237:244,1,90,8|8,0:1|0:1,0:0:0:0:
209,158,22794,2,0,B|161:130|161:130|73:156,2,135,8|2|10,0:1|0:0|0:1,0:0:0:0:
282,106,24416,6,0,P|368:78|445:142,1,180,10|8,0:1|0:1,0:0:0:0:
484,201,25632,1,8,0:1:0:0:
419,264,26037,2,0,L|327:291,1,90,8|4,0:1|0:0,0:0:0:0:
255,336,26848,2,0,L|168:310,1,90,8|8,0:0|0:0,0:0:0:0:
130,229,27659,6,0,B|76:225|41:255|41:255|-18:219|15:170,1,180,4|8,0:0|0:1,0:0:0:0:
39,101,28875,1,8,0:0:0:0:
113,50,29281,2,0,P|204:68|308:71,1,180,8|8,0:1|0:1,0:0:0:0:
371,31,30497,1,8,0:0:0:0:
434,94,30902,6,0,P|461:170|468:235,2,135,8|0|8,0:1|0:0|0:0,0:0:0:0:
355,138,32524,2,0,P|301:160|262:163,1,90,8|8,0:1|0:0,0:0:0:0:
179,159,33335,2,0,P|185:203|204:244,1,90,8|8,0:1|0:0,0:0:0:0:
146,313,34146,6,0,L|-5:280,2,135,4|0|8,0:0|0:0|0:0,0:0:0:0:
223,358,35767,2,0,P|294:368|349:268,1,180,8|8,0:1|0:1,0:0:0:0:
293,219,36983,1,8,0:0:0:0:
213,176,37389,6,0,P|190:133|198:84,1,90,8|8,0:1|0:0,0:0:0:0:
262,34,38200,2,0,P|285:77|277:126,1,90,8|8,0:1|0:0,0:0:0:0:
357,163,39010,2,0,L|451:136,2,90,8|8|8,0:1|0:0|0:1,0:0:0:0:
320,245,40227,1,8,0:0:0:0:
232,225,40632,6,0,P|193:285|200:363,2,135,4|8|8,0:0|0:0|0:0,0:0:0:0:
288,154,42254,2,0,L|249:13,2,135,0|8|8,1:0|0:0|0:0,0:0:0:0:
358,209,43875,6,0,P|418:248|496:241,2,135,0|12|8,1:0|0:0|0:0,0:0:0:0:
288,154,45497,2,0,L|171:186,1,90,4|0,0:0|0:0,0:0:0:0:
151,102,46308,2,0,L|237:78,1,90,4|8,0:0|0:3,0:0:0:0:
315,31,47119,6,0,P|408:72|435:164,1,180,4|8,0:0|0:0,0:0:0:0:
363,194,48335,1,8,0:0:0:0:
276,169,48740,2,0,B|202:138|165:204|75:158,1,180,8|8,0:0|0:0,0:0:0:0:
41,237,49956,1,8,0:0:0:0:
91,311,50362,6,0,P|140:329|195:331,1,90,4|8,0:0|0:0,0:0:0:0:
261,364,51173,2,0,P|265:319|282:277,1,90,8|8,0:0|0:0,0:0:0:0:
365,242,51983,2,0,L|314:63,1,180,0|0,1:0|1:0,0:0:0:0:
92,33,54415,6,0,P|28:93|35:191,1,180,4|8,0:0|0:1,0:0:0:0:
85,250,55631,1,8,0:0:0:0:
164,207,56037,2,0,P|208:188|253:193,1,90,8|8,0:1|0:0,0:0:0:0:
305,261,56848,2,0,L|288:362,1,90,8|8,0:1|0:0,0:0:0:0:
379,338,57658,6,0,L|393:249,1,90,2|8,0:0|0:0,0:0:0:0:
361,165,58469,2,0,P|441:129|492:129,2,135,8|2|8,0:1|0:0|0:0,0:0:0:0:
279,126,60091,2,0,P|224:142|185:141,1,90,8|8,0:1|0:0,0:0:0:0:
118,88,60902,6,0,P|45:157|64:237,1,180,4|8,0:0|0:1,0:0:0:0:
93,310,62118,1,8,0:0:0:0:
173,270,62523,2,0,B|212:266|250:249|250:249|280:265|280:265|311:251|365:247,1,180,8|8,0:1|0:1,0:0:0:0:
430,279,63739,1,8,0:0:0:0:
452,191,64145,6,0,L|414:106,1,90,2|8,0:0|0:0,0:0:0:0:
330,78,64956,2,0,P|246:89|182:37,2,135,8|4|8,0:1|0:0|0:0,0:0:0:0:
346,166,66577,2,0,L|382:248,1,90,4|8,0:3|0:0,0:0:0:0:
329,320,67388,6,0,P|272:342|234:337,1,90,4|8,0:0|0:0,0:0:0:0:
167,292,68199,2,0,B|89:266|89:266|34:283,2,135,8|2|8,0:1|0:0|0:0,0:0:0:0:
224,222,69821,2,0,P|244:185|240:135,1,90,8|8,0:1|0:0,0:0:0:0:
307,77,70631,6,0,P|344:97|394:93,1,90,10|8,0:1|0:0,0:0:0:0:
456,155,71442,2,0,P|426:229|421:287,1,135,0|2,0:0|0:0,0:0:0:0:
355,345,72456,1,2,0:0:0:0:
287,285,72861,2,0,L|125:253,1,135,0|12,0:0|0:0,0:0:0:0:
73,298,73875,6,0,P|14:231|47:132,1,180,4|8,0:0|0:1,0:0:0:0:
101,92,75091,1,8,0:0:0:0:
182,130,75496,2,0,P|283:159|362:142,1,180,8|8,0:1|0:1,0:0:0:0:
414,77,76712,1,8,0:0:0:0:
445,161,77118,6,0,L|413:251,1,90,8|8,0:1|0:0,0:0:0:0:
338,293,77929,2,0,P|284:273|237:270,2,90,8|8|10,0:1|0:0|0:1,0:0:0:0:
415,338,79145,1,8,0:0:0:0:
414,245,79550,2,0,L|383:160,1,90,8|8,0:0|0:0,0:0:0:0:
309,109,80361,6,0,L|162:73,1,135,4|4,0:0|0:0,0:0:0:0:
99,120,81375,1,10,0:1:0:0:
42,189,81780,2,0,P|50:268|69:288,1,90,4|10,0:0|0:1,0:0:0:0:
132,318,82591,2,0,P|188:271|270:300,1,135,4|8,0:0|0:0,0:0:0:0:
324,321,83604,6,0,P|380:368|462:339,1,135,4|4,0:0|0:0,0:0:0:0:
471,276,84618,2,0,L|446:184,1,90,10|4,0:1|0:0,0:0:0:0:
360,166,85429,1,8,0:0:0:0:
382,78,85834,1,4,0:0:0:0:
256,192,86037,12,0,89077,0:0:0:0:
