osu file format v14

[General]
AudioFilename: audio.mp3
AudioLeadIn: 0
PreviewTime: 52722
Countdown: 0
SampleSet: None
StackLeniency: 0.7
Mode: 3
LetterboxInBreaks: 0
SpecialStyle: 0
WidescreenStoryboard: 1

[Editor]
DistanceSpacing: 0.5
BeatDivisor: 4
GridSize: 4
TimelineZoom: 2.299999

[Metadata]
Title:Stella Breeze
TitleUnicode:ステラブリーズ
Artist:Haruna Luna
ArtistUnicode:春奈るな
Creator:PnX
Version:Blessing2
Source:冴えない彼女の育てかた♭
Tags:Saenai Heroine no Sodatekata ♭ Flat op opening season 2 saekono BBdevilwithin artyteacher - [ L e a h ] -
BeatmapID:3938390
BeatmapSetID:595877

[Difficulty]
HPDrainRate:8.5
CircleSize:4
OverallDifficulty:8
ApproachRate:5
SliderMultiplier:1.4
SliderTickRate:1

[Events]
//Background and Video events
0,0,"bg.jpg",0,0
Video,-669,"vid.mp4"
//Break Periods
//Storyboard Layer 0 (Background)
//Storyboard Layer 1 (Fail)
//Storyboard Layer 2 (Pass)
//Storyboard Layer 3 (Foreground)
//Storyboard Layer 4 (Overlay)
//Storyboard Sound Samples
Sample,1438,0,"LR_Drum Fast Hit Click.wav",70
Sample,7519,0,"LR_Drum Fast Hit Click.wav",70
Sample,11776,0,"LR_HiHat Click.wav",100
Sample,13600,0,"LR_Drum EDge.wav",70
Sample,14006,0,"LR_Drum EDge.wav",70
Sample,29614,0,"LR_Drum Kick Low.wav",50
Sample,29918,0,"LR_Drum Kick Low.wav",50
Sample,32857,0,"LR_Drum Kick Low.wav",50
Sample,33161,0,"LR_Drum Kick Low.wav",50
Sample,36100,0,"LR_Drum Kick Low.wav",50
Sample,36202,0,"LR_Drum Hit Clap Sn.wav",70
Sample,36404,0,"LR_Drum Kick Low.wav",50
Sample,38127,0,"LR_HiHat Click.wav",100
Sample,38533,0,"LR_HiHat Click.wav",100
Sample,43600,0,"LR_HiHat Click.wav",70
Sample,54141,0,"LR_Drum Fast Hit Click.wav",70
Sample,56371,0,"LR_HiHat Click.wav",100
Sample,59614,0,"LR_Drum Kick Low.wav",50
Sample,67114,0,"LR_Drum Fast Hit Click.wav",70
Sample,69344,0,"LR_Drum Kick Low.wav",50
Sample,70965,0,"LR_Drum Kick Low.wav",50
Sample,72587,0,"LR_HiHat Click.wav",100
Sample,72790,0,"LR_Drum Fast Hit Click.wav",70
Sample,75019,0,"LR_HiHat Click.wav",100
Sample,76641,0,"LR_HiHat Click.wav",100
Sample,77452,0,"LR_Drum Kick Low.wav",50
Sample,78263,0,"LR_HiHat Click.wav",100

[TimingPoints]
1236,405.405405405405,4,2,1,30,1,0
53938,-100,4,2,1,30,0,1
79884,-100,4,2,1,30,0,0

[HitObjects]
64,192,830,5,0,0:0:0:0:
448,192,830,1,0,0:0:0:0:
192,192,898,1,0,0:0:0:0:
320,192,965,1,0,0:0:0:0:
448,192,1033,1,0,0:0:0:0:
320,192,1100,1,0,0:0:0:0:
192,192,1168,1,0,0:0:0:0:
64,192,1236,128,0,1641:0:0:0:0:
448,192,1236,1,0,0:0:0:0:
320,192,1438,1,0,0:0:0:0:
192,192,1641,1,0,0:0:0:0:
448,192,1641,1,0,0:0:0:0:
64,192,1844,128,0,2249:0:0:0:0:
320,192,1844,1,0,0:0:0:0:
448,192,2046,1,0,0:0:0:0:
192,192,2249,128,0,2654:0:0:0:0:
320,192,2249,1,0,0:0:0:0:
320,192,2452,1,0,0:0:0:0:
448,192,2654,128,0,3668:0:0:0:0:
64,192,2857,1,0,0:0:0:0:
192,192,3060,1,0,0:0:0:0:
320,192,3263,1,0,0:0:0:0:
64,192,3465,1,0,0:0:0:0:
192,192,3567,1,0,0:0:0:0:
320,192,3668,1,0,0:0:0:0:
64,192,3769,1,0,0:0:0:0:
192,192,3871,1,0,0:0:0:0:
320,192,3972,1,0,0:0:0:0:
448,192,4073,1,0,0:0:0:0:
192,192,4276,128,0,4479:0:0:0:0:
64,192,4479,128,0,4884:0:0:0:0:
448,192,4681,1,0,0:0:0:0:
320,192,4884,1,0,0:0:0:0:
64,192,5087,128,0,5492:0:0:0:0:
448,192,5290,1,0,0:0:0:0:
192,192,5492,128,0,5898:0:0:0:0:
320,192,5695,1,0,0:0:0:0:
448,192,5898,128,0,6506:0:0:0:0:
64,192,6100,1,0,0:0:0:0:
192,192,6303,1,0,0:0:0:0:
320,192,6506,1,0,0:0:0:0:
64,192,6506,128,0,6708:0:0:0:0:
448,192,6708,128,0,6911:0:0:0:0:
192,192,6911,1,0,0:0:0:0:
64,192,7013,1,0,0:0:0:0:
448,192,7114,1,0,0:0:0:0:
320,192,7215,1,0,0:0:0:0:
192,192,7317,1,0,0:0:0:0:
64,192,7519,1,0,0:0:0:0:
192,192,7621,1,0,0:0:0:0:
