osu file format v14

[General]
AudioFilename: audio.mp3
AudioLeadIn: 0
PreviewTime: 48562
Countdown: 0
SampleSet: Soft
StackLeniency: 0.7
Mode: 0
LetterboxInBreaks: 0
WidescreenStoryboard: 1

[Editor]
Bookmarks: 50800,51248,51920,52591,54830,64457,71621,78785
DistanceSpacing: 1.2
BeatDivisor: 4
GridSize: 8
TimelineZoom: 1.86

[Metadata]
Title:Startear (TV Size)
TitleUnicode:Startear (TV Size)
Artist:Haruna Luna
ArtistUnicode:春奈るな
Creator:Fanboyyou
Version:Normal
Source:ソードアート・オンラインⅡ
Tags:PGM Ultima Ratio Hecate II Gun Gale Online GGO Phantom Bullet anime ending ed sword art online II sao season second two 2 sinon シノン shino asada 朝田 詩乃 j pop j-pop jpop japanese
BeatmapID:3619266
BeatmapSetID:1750705

[Difficulty]
HPDrainRate:3
CircleSize:3.2
OverallDifficulty:4
ApproachRate:4
SliderMultiplier:1.3
SliderTickRate:1

[Events]
//Background and Video events
0,0,"sinon.jpg",0,0
Video,-1050,"www.mp4"
//Break Periods
//Storyboard Layer 0 (Background)
//Storyboard Layer 1 (Fail)
//Storyboard Layer 2 (Pass)
//Storyboard Layer 3 (Foreground)
//Storyboard Layer 4 (Overlay)
//Storyboard Sound Samples

[TimingPoints]
-20,447.76119402985,4,2,1,40,1,0
427,-111.111111111111,4,2,1,40,0,0
5353,-111.111111111111,4,2,1,50,0,0
12517,-100,4,2,1,70,0,0
19681,-100,4,2,1,50,0,0
34009,-100,4,2,1,40,0,0
41174,-100,4,2,1,60,0,0
46323,-100,4,2,1,70,0,0
49233,-100,4,2,1,50,0,0
50129,-100,4,2,1,80,0,0
86845,-100,4,2,2,60,0,0
87741,-100,4,2,1,20,0,0
88636,-100,4,2,2,5,0,0

[Colours]
Combo1 : 79,167,255
Combo2 : 117,215,232
Combo3 : 214,122,214

[HitObjects]
104,21,427,6,0,P|50:16|-2:71,2,116.999996429443,2|2|2,0:0|0:0|0:0,0:0:0:0:
245,78,1771,6,0,B|281:79|304:56|289:55|313:30|349:32,1,116.999996429443,2|2,0:0|0:0,0:0:0:0:
400,78,2442,2,0,P|386:148|368:250,1,175.499994644165,2|0,0:0|0:0,0:0:0:0:
275,356,3562,6,0,P|221:356|184:310,1,116.999996429443,2|2,0:0|0:0,0:0:0:0:
120,280,4233,2,0,P|115:195|178:137,1,175.499994644165,2|0,0:0|0:0,0:0:0:0:
266,28,5353,6,0,L|394:48,1,116.999996429443,2|2,0:0|0:0,0:0:0:0:
435,90,6024,1,2,0:0:0:0:
317,167,6472,2,0,P|258:182|221:237,2,116.999996429443,2|2|2,0:0|0:0|0:0,0:0:0:0:
362,227,7591,1,2,0:0:0:0:
362,227,7815,2,0,P|404:270|470:275,1,116.999996429443,2|2,0:0|0:0,0:0:0:0:
508,227,8487,1,2,0:0:0:0:
449,99,8935,6,0,B|411:71|411:71|328:118,1,116.999996429443,2|2,0:0|0:0,0:0:0:0:
288,139,9606,2,0,P|233:118|177:100,2,116.999996429443,2|2|2,0:0|0:0|0:0,0:0:0:0:
84,384,12517,6,0,P|76:352|68:320,1,65,6|2,3:2|0:0,0:0:0:0:
5,274,12965,2,0,P|12:242|20:210,1,65,2|2,1:2|0:0,0:0:0:0:
1,135,13412,1,10,3:2:0:0:
109,22,13860,2,0,P|141:31|170:41,1,65,2|2,1:2|0:0,0:0:0:0:
232,90,14308,6,0,P|222:123|211:155,2,65,2|2|2,3:2|0:0|1:2,0:0:0:0:
303,55,14979,1,2,0:0:0:0:
303,55,15203,1,10,3:2:0:0:
368,197,15651,2,0,L|346:284,1,65,2|2,1:2|0:0,0:0:0:0:
397,324,16099,6,0,P|447:312|478:307,2,65,2|2|2,3:2|0:0|1:2,0:0:0:0:
340,377,16771,1,10,0:0:0:0:
340,377,16994,2,0,P|290:365|259:360,1,65,10|2,3:2|0:0,0:0:0:0:
202,341,17442,5,2,3:2:0:0:
202,341,17666,2,0,B|182:316|165:306|165:306|184:269|193:232,1,130,2|8,1:2|0:3,0:0:0:0:
156,165,18338,1,2,3:2:0:0:
156,165,18562,1,2,1:2:0:0:
213,21,19009,2,0,P|275:30|310:82,1,130,6|10,3:2|0:0,0:0:0:0:
361,142,19681,6,0,P|348:205|338:270,1,130,6|2,3:2|0:0,0:0:0:0:
371,341,20353,1,2,1:2:0:0:
244,259,20800,1,2,0:0:0:0:
244,259,21024,2,0,P|204:268|168:282,1,65,0|2,1:0|0:0,0:0:0:0:
135,339,21472,6,0,P|73:318|9:305,1,130,2|2,3:2|0:0,0:0:0:0:
0,227,22144,2,0,P|44:178|107:174,1,130,2|8,1:2|0:0,0:0:0:0:
161,120,22815,1,0,1:0:0:0:
303,183,23263,6,0,P|289:231|271:309,1,130,2|2,3:2|0:0,0:0:0:0:
309,376,23935,1,2,1:2:0:0:
468,370,24382,1,2,0:0:0:0:
468,370,24606,2,0,P|461:336|451:302,1,65,0|2,1:0|0:0,0:0:0:0:
419,236,25054,6,0,P|433:172|450:110,1,130,2|2,3:2|0:0,0:0:0:0:
414,39,25726,2,0,P|337:58|319:121,1,130,2|10,1:2|0:0,0:0:0:0:
309,176,26397,1,0,1:2:0:0:
154,159,26845,6,0,P|123:214|147:272,1,130,2|2,3:2|0:0,0:0:0:0:
221,299,27517,1,2,1:2:0:0:
363,374,27965,1,10,0:0:0:0:
363,374,28188,2,0,P|404:358|444:351,1,65,0|2,1:0|0:0,0:0:0:0:
474,292,28636,6,0,P|438:240|371:243,1,130,2|2,3:2|0:0,0:0:0:0:
318,293,29308,2,0,B|280:304|253:278|273:282|242:251|199:261,1,130,2|10,1:2|0:0,0:0:0:0:
153,324,29979,1,2,1:2:0:0:
39,216,30427,6,0,P|23:141|-2:23,1,195,2|2,3:2|1:2,0:0:0:0:
157,5,31547,1,10,0:0:0:0:
157,5,31771,2,0,P|197:14|249:24,1,65,2|2,1:2|0:0,0:0:0:0:
259,86,32218,6,0,P|322:71|386:58,1,130,2|2,3:2|0:0,0:0:0:0:
468,66,32890,1,2,1:2:0:0:
468,66,33114,2,0,P|476:96|466:127,1,65,2|4,0:0|0:3,0:0:0:0:
475,205,33562,1,12,0:3:0:0:
406,344,34009,6,0,P|342:330|278:318,1,130,2|2,0:0|0:0,0:0:0:0:
204,353,34681,1,2,0:0:0:0:
204,353,34905,2,0,P|144:336|126:276,1,130,2|2,0:0|0:0,0:0:0:0:
29,153,35800,2,0,P|46:93|106:75,1,130,2|2,0:0|0:0,0:0:0:0:
164,127,36472,2,0,P|258:108|303:103,1,130,2|8,0:0|0:3,0:0:0:0:
366,128,37144,1,4,3:0:0:0:
457,253,37591,6,0,P|420:312|364:318,1,130,2|2,0:0|0:0,0:0:0:0:
297,277,38263,1,2,0:0:0:0:
297,277,38487,2,0,P|285:213|269:150,1,130,2|2,0:0|0:0,0:0:0:0:
322,3,39382,2,0,P|260:70|202:66,1,130,2|2,0:0|0:0,0:0:0:0:
186,140,40054,2,0,P|96:119|71:67,1,130,2|2,0:0|0:0,0:0:0:0:
93,15,40726,1,4,3:0:0:0:
186,140,41174,6,0,P|166:202|152:265,1,130,6|2,1:2|3:2,0:0:0:0:
116,336,41845,1,2,1:2:0:0:
116,336,42069,2,0,P|85:326|63:302,1,65,2|2,3:2|0:0,0:0:0:0:
1,254,42517,1,2,1:2:0:0:
75,116,42965,6,0,B|165:126|116:149|210:160,1,130,6|2,3:2|3:2,0:0:0:0:
268,129,43636,1,2,1:2:0:0:
364,253,44084,2,0,P|372:284|381:332,2,65,2|2|10,0:0|1:2|0:0,0:0:0:0:
428,207,44756,2,0,P|440:142|457:79,1,130,10|2,3:2|1:2,0:0:0:0:
431,6,45427,1,2,1:2:0:0:
431,6,45651,2,0,P|390:19|347:27,1,65,0|2,1:2|1:2,0:0:0:0:
212,9,46323,6,0,B|191:39|173:53|173:53|196:83|209:113,1,130,6|0,3:2|3:2,0:0:0:0:
246,182,46994,2,0,L|228:267,2,65,2|0|2,1:2|1:2|1:2,0:0:0:0:
310,135,47666,1,4,3:0:0:0:
310,135,47890,1,8,3:0:0:0:
357,197,48114,2,0,P|392:239|481:235,1,130,6|2,1:2|1:2,0:0:0:0:
503,177,48785,1,2,1:2:0:0:
37,307,50129,6,0,B|131:312|84:335|173:342,1,130,6|2,3:2|1:2,0:0:0:0:
219,289,50800,1,2,1:2:0:0:
219,289,51024,2,0,P|258:273|296:263,2,65,0|2|0,3:2|0:0|1:2,0:0:0:0:
152,238,51696,5,2,3:2:0:0:
152,238,51920,2,0,P|123:181|150:124,1,130,6|2,3:2|1:2,0:0:0:0:
205,71,52591,2,0,P|267:74|304:126,1,130,10|8,0:0|0:0,0:0:0:0:
347,190,53263,1,0,1:2:0:0:
500,218,53711,6,0,P|482:286|470:344,1,130,6|2,3:2|1:2,0:0:0:0:
401,381,54382,1,6,0:0:0:0:
282,281,54830,1,2,0:0:0:0:
153,368,55278,5,10,0:2:0:0:
153,368,55502,2,0,P|144:323|126:277,1,65,12|2,3:2|0:0,0:0:0:0:
178,237,55950,2,0,P|183:205|192:173,2,65,2|2|8,1:2|0:0|3:2,0:0:0:0:
239,293,56621,1,10,0:0:0:0:
239,293,56845,2,0,P|277:298|315:274,1,65,2|2,1:2|3:2,0:0:0:0:
378,297,57293,6,0,P|417:245|408:183,1,130,6|2,3:2|1:2,0:0:0:0:
427,107,57965,2,0,P|382:59|319:57,1,130,10|10,0:0|0:0,0:0:0:0:
265,111,58636,1,0,1:2:0:0:
154,1,59084,6,0,B|170:21|191:39|191:39|174:75|163:110,1,130,4|2,3:2|1:2,0:0:0:0:
84,116,59756,2,0,B|73:151|56:187|56:187|77:205|93:225,1,130,2|10,0:0|0:2,0:0:0:0:
171,231,60427,1,2,1:2:0:0:
208,381,60875,6,0,P|283:361|348:347,1,130,6|2,3:2|1:2,0:0:0:0:
489,371,61771,2,0,P|496:338|510:310,1,65,8|10,3:2|0:0,0:0:0:0:
469,238,62218,1,6,1:2:0:0:
469,238,62442,2,0,P|456:174|428:115,1,130,6|2,1:2|0:0,0:0:0:0:
367,66,63114,5,2,1:2:0:0:
300,207,63562,2,0,P|269:218|237:225,1,65,6|0,3:2|1:0,0:0:0:0:
161,211,64009,1,2,1:2:0:0:
90,71,64457,6,0,B|171:80|138:106|212:109,1,130,6|2,3:2|1:2,0:0:0:0:
291,136,65129,1,2,0:2:0:0:
291,136,65353,2,0,P|325:119|363:112,2,65,8|8|0,3:2|0:0|1:2,0:0:0:0:
243,198,66024,5,2,3:2:0:0:
243,198,66248,2,0,P|199:258|227:330,1,130,6|2,3:2|1:2,0:0:0:0:
261,366,66920,2,0,P|334:374|383:313,1,130,2|8,0:0|0:0,0:0:0:0:
383,262,67591,1,0,1:2:0:0:
495,154,68039,6,0,P|435:139|367:128,1,130,6|2,3:2|1:2,0:0:0:0:
318,66,68711,1,6,0:0:0:0:
216,185,69159,1,10,0:0:0:0:
216,185,69382,2,0,P|171:188|143:169,1,65,0|2,1:2|3:2,0:0:0:0:
119,109,69830,6,0,P|138:60|214:47,1,130,4|2,3:2|1:2,0:0:0:0:
279,12,70502,2,0,P|328:31|341:106,1,130,10|10,0:0|0:0,0:0:0:0:
363,176,71174,1,2,1:2:0:0:
398,327,71621,6,0,B|374:305|360:282|360:282|327:298|293:306,1,130,6|2,3:2|3:2,0:0:0:0:
238,362,72293,6,0,B|204:370|171:386|171:386|157:363|133:341,1,130,6|2,1:2|0:0,0:0:0:0:
79,284,72965,1,0,3:2:0:0:
79,284,73188,2,0,P|97:204|112:146,1,130,6|2,1:2|0:0,0:0:0:0:
61,95,73860,1,2,1:2:0:0:
190,7,74308,2,0,P|220:14|271:24,1,65,8|10,3:2|0:0,0:0:0:0:
291,89,74756,1,2,1:2:0:0:
429,17,75203,6,0,B|415:38|396:58|396:58|420:95|438:131,1,130,6|2,3:2|1:2,0:0:0:0:
464,197,75875,6,0,B|443:183|423:164|423:164|386:188|350:206,1,130,6|2,3:2|3:2,0:0:0:0:
320,274,76547,1,2,1:2:0:0:
320,274,76771,2,0,B|240:271|279:239|190:239,1,130,6|2,3:2|3:2,0:0:0:0:
131,197,77442,1,2,1:2:0:0:
32,319,77890,2,0,P|22:271|1:201,2,97.5,2|10|2,1:2|0:0|1:2,0:0:0:0:
98,360,78785,6,0,P|173:338|244:319,1,130,6|2,3:2|1:2,0:0:0:0:
283,273,79457,1,2,0:0:0:0:
283,273,79681,2,0,P|330:285|377:299,2,97.5,2|2|2,1:2|0:0|3:2,0:0:0:0:
231,213,80577,6,0,P|204:142|253:82,1,130,6|2,1:2|1:2,0:0:0:0:
309,107,81248,1,2,3:2:0:0:
309,107,81472,2,0,P|365:98|387:61,2,97.5,2|2|2,1:2|0:0|3:2,0:0:0:0:
281,24,82368,6,0,P|253:117|230:212,1,195,6|2,1:2|3:2,0:0:0:0:
160,245,83263,2,0,L|74:220,1,65,2|0,1:2|1:0,0:0:0:0:
48,166,83711,2,0,L|73:80,1,65,0|4,1:2|0:3,0:0:0:0:
125,52,84159,1,4,3:2:0:0:
371,307,85950,5,4,3:2:0:0:
256,192,86062,12,0,89084,0:0:0:0:
